<?xml version="1.0" standalone="no"?>
<!DOCTYPE svg PUBLIC "-//W3C//DTD SVG 1.1//EN" "http://www.w3.org/Graphics/SVG/1.1/DTD/svg11.dtd" >
<svg xmlns="http://www.w3.org/2000/svg" xmlns:xlink="http://www.w3.org/1999/xlink" version="1.1">
<metadata>
Created by FontForge 20201107 at Wed May 31 05:50:37 2017
 By 
(c) 2015-2017 Apple Inc. All rights reserved.
</metadata>
<defs>
<font id="SFProDisplay-ThinItalic" horiz-adv-x="0" >
  <font-face 
    font-family="SF Pro Display"
    font-weight="200"
    font-style="italic"
    font-stretch="normal"
    units-per-em="2048"
    panose-1="0 0 3 0 0 0 0 0 0 0"
    ascent="1638"
    descent="-410"
    x-height="1040"
    cap-height="1443"
    bbox="-530 -494 2716 2087"
    underline-thickness="61"
    underline-position="-368"
    slope="-12"
    unicode-range="U+0020-FB02"
  />
<missing-glyph horiz-adv-x="2048" 
d="M-58 -494l72 339h1848l-72 -339h-1848zM32 -73l72 339h1847l-72 -339h-1847zM121 348l72 339h1848l-72 -339h-1848zM211 769l72 339h1847l-72 -339h-1847zM300 1190l72 339h1848l-72 -339h-1848zM390 1611l72 339h1847l-72 -339h-1847z" />
    <glyph glyph-name=".notdef" horiz-adv-x="2048" 
d="M-58 -494l72 339h1848l-72 -339h-1848zM32 -73l72 339h1847l-72 -339h-1847zM121 348l72 339h1848l-72 -339h-1848zM211 769l72 339h1847l-72 -339h-1847zM300 1190l72 339h1848l-72 -339h-1848zM390 1611l72 339h1847l-72 -339h-1847z" />
    <glyph glyph-name=".null" 
 />
    <glyph glyph-name="nonmarkingreturn" 
 />
    <glyph glyph-name="space" unicode=" " horiz-adv-x="462" 
 />
    <glyph glyph-name="exclam" unicode="!" horiz-adv-x="511" 
d="M465 1443h88l-220 -1016h-79zM220 -8q-28 0 -47.5 19.5t-19.5 47.5q0 27 19.5 46.5t47.5 19.5q27 0 46.5 -19.5t19.5 -46.5q0 -28 -19.5 -47.5t-46.5 -19.5z" />
    <glyph glyph-name="quotedbl" unicode="&#x22;" horiz-adv-x="556" 
d="M344 984h-75l98 459h75zM598 984h-74l98 459h74z" />
    <glyph glyph-name="numbersign" unicode="#" horiz-adv-x="1231" 
d="M667 0l147 440h-404l-146 -440h-70l148 440h-268l22 67h268l141 436h-276l22 67h276l146 438h69l-145 -438h403l146 438h69l-145 -438h291l-23 -67h-290l-141 -436h298l-22 -67h-299l-146 -440h-71zM433 507h404l141 436h-404z" />
    <glyph glyph-name="dollar" unicode="$" horiz-adv-x="1192" 
d="M697 790l128 604q-12 1 -35 1q-166 0 -273 -87.5t-107 -222.5q0 -97 66.5 -165t220.5 -130zM783 672l-44 18l-136 -643q11 -1 33 -1q184 0 295.5 91.5t111.5 239.5q0 102 -61.5 171t-198.5 124zM1275 1103h-80q-12 107 -96 184t-212 100l-131 -621l68 -28
q154 -62 228 -148t74 -209q0 -182 -137.5 -295t-357.5 -113q-29 0 -44 1l-30 -143h-64l32 150q-179 27 -294 135.5t-119 259.5h81q6 -124 101.5 -212t245.5 -111l140 661l-18 7q-176 71 -255 156t-79 205q0 168 132 277t340 109q27 0 40 -1l28 130h64l-29 -137
q158 -27 260.5 -125t111.5 -232z" />
    <glyph glyph-name="percent" unicode="%" horiz-adv-x="1500" 
d="M219 1011q0 188 91 315t222 127q97 0 154.5 -67.5t57.5 -181.5q0 -188 -91 -314.5t-223 -126.5q-97 0 -154 67.5t-57 180.5zM432 824q96 0 166 113t70 270q0 85 -37.5 135t-100.5 50q-96 0 -166 -113t-70 -270q0 -85 37.5 -135t100.5 -50zM205 0h-89l709 741l672 702h90
l-705 -736zM957 237q0 187 91 314.5t222 127.5q97 0 154.5 -67.5t57.5 -181.5q0 -188 -91 -315t-222 -127q-97 0 -154.5 67.5t-57.5 181.5zM1171 50q96 0 166 113t70 269q0 85 -37.5 135t-100.5 50q-96 0 -166 -113t-70 -269q0 -85 37 -135t101 -50z" />
    <glyph glyph-name="ampersand" unicode="&#x26;" horiz-adv-x="1467" 
d="M543 1146q0 -59 32 -129t110 -180q396 144 396 354q0 93 -67 150.5t-176 57.5q-120 0 -207.5 -75.5t-87.5 -177.5zM574 48q116 0 231.5 44t211.5 127l-369 535l-116 -49q-319 -131 -319 -353q0 -131 101.5 -217.5t259.5 -86.5zM1166 0l-110 161q-218 -183 -483 -183
q-185 0 -312.5 105t-127.5 259q0 137 89.5 240.5t275.5 180.5l114 48q-78 111 -112.5 188.5t-34.5 143.5q0 135 109.5 229.5t269.5 94.5q138 0 227 -75t89 -189q0 -129 -105.5 -232t-334.5 -190l354 -512q79 86 136 196t75 214l16 82h76l-16 -84q-21 -122 -86.5 -245.5
t-159.5 -221.5l144 -210h-93z" />
    <glyph glyph-name="quotesingle" unicode="'" horiz-adv-x="302" 
d="M344 984h-75l98 459h75z" />
    <glyph glyph-name="parenleft" unicode="(" horiz-adv-x="600" 
d="M409 -301h-75q-52 110 -78 279.5t-26 352.5q0 320 124 612.5t336 499.5h89q-219 -212 -345 -505.5t-126 -603.5q0 -189 26 -359.5t75 -275.5z" />
    <glyph glyph-name="parenright" unicode=")" horiz-adv-x="600" 
d="M329 1444h74q52 -109 78 -278t26 -354q0 -320 -124 -612.5t-335 -498.5h-90q220 212 346 505.5t126 602.5q0 189 -26 359.5t-75 275.5z" />
    <glyph glyph-name="asterisk" unicode="*" horiz-adv-x="954" 
d="M925 861l-247 194l-52 -321l-63 7l60 319l-304 -135l-21 58l305 127l-249 184l38 49l247 -195l53 324l63 -7l-61 -320l304 137l21 -58l-308 -128l251 -186z" />
    <glyph glyph-name="plus" unicode="+" horiz-adv-x="1192" 
d="M693 539l-102 -479h-71l102 479h-454l15 73h454l100 467h71l-99 -467h455l-16 -73h-455z" />
    <glyph glyph-name="comma" unicode="," horiz-adv-x="496" 
d="M97 -260h-67l189 445h82z" />
    <glyph glyph-name="hyphen" unicode="-" horiz-adv-x="830" 
d="M149 527l15 70h650l-15 -70h-650z" />
    <glyph glyph-name="hyphen" unicode="&#x2011;" horiz-adv-x="830" 
d="M149 527l15 70h650l-15 -70h-650z" />
    <glyph glyph-name="period" unicode="." horiz-adv-x="512" 
d="M216 -8q-28 0 -47.5 19.5t-19.5 47.5q0 27 19.5 46.5t47.5 19.5q27 0 46.5 -19.5t19.5 -46.5q0 -28 -19.5 -47.5t-46.5 -19.5z" />
    <glyph glyph-name="slash" unicode="/" horiz-adv-x="600" 
d="M-44 -301h-72l897 1744h73z" />
    <glyph glyph-name="zero" unicode="0" horiz-adv-x="1227" 
d="M607 -21q-199 0 -316 142t-117 384q0 264 85.5 484.5t234.5 347.5t327 127q199 0 316 -142.5t117 -384.5q0 -198 -50.5 -376t-136.5 -305.5t-206 -202t-254 -74.5zM255 505q0 -209 96 -332t259 -123q152 0 281.5 119t205.5 323.5t76 444.5q0 208 -96 331.5t-258 123.5
q-152 0 -282 -119t-206 -323.5t-76 -444.5z" />
    <glyph glyph-name="one" unicode="1" horiz-adv-x="809" 
d="M431 0l286 1347h-4q-45 -23 -122.5 -67t-184.5 -106.5t-137 -79.5l20 94q359 208 449 255h79l-307 -1443h-79z" />
    <glyph glyph-name="two" unicode="2" horiz-adv-x="1161" 
d="M301 1067q30 176 163 286.5t316 110.5q172 0 289 -101t117 -250q0 -89 -34.5 -162.5t-119.5 -164.5t-255 -237l-551 -472l-1 -4h812l-15 -73h-932l13 66l628 538q228 197 301.5 295.5t73.5 207.5q0 123 -94 204.5t-236 81.5q-148 0 -257.5 -91t-137.5 -235h-80z" />
    <glyph glyph-name="three" unicode="3" horiz-adv-x="1162" 
d="M483 713l15 70h192q177 0 291 90t114 230q0 131 -91.5 210.5t-241.5 79.5q-133 0 -235 -71t-138 -189h-78q38 150 163.5 240.5t294.5 90.5q178 0 292 -98t114 -252q0 -148 -100.5 -248.5t-265.5 -120.5l-1 -4q132 -18 210 -107t78 -220q0 -191 -145.5 -313t-371.5 -122
q-201 0 -334 105.5t-132 264.5q0 35 7 54h76q-5 -27 -5 -49q1 -132 112.5 -218t280.5 -86q190 0 311 100t121 256q0 142 -99.5 224.5t-270.5 82.5h-163z" />
    <glyph glyph-name="four" unicode="4" horiz-adv-x="1196" 
d="M777 0l77 361h-757l13 75q133 160 310.5 352.5t625.5 659.5h116l-215 -1015h229l-15 -72h-229l-77 -361h-78zM205 437l-1 -4h665l198 931h-4q-412 -427 -566.5 -594.5t-291.5 -332.5z" />
    <glyph glyph-name="five" unicode="5" horiz-adv-x="1178" 
d="M613 -21q-194 0 -327 109t-134 268v10h78v-6q3 -131 114 -219.5t273 -88.5q193 0 321.5 129.5t128.5 325.5q0 159 -103 256.5t-268 97.5q-103 0 -210 -53t-170 -136q0 -1 -85 -1l239 772h767l-15 -72h-698l-186 -601h5q61 72 163 116.5t205 44.5q190 0 312.5 -116
t122.5 -299q0 -232 -151 -384.5t-382 -152.5z" />
    <glyph glyph-name="six" unicode="6" horiz-adv-x="1197" 
d="M1172 524q-3 -238 -155 -391.5t-386 -153.5q-94 0 -176.5 34.5t-146.5 100t-100 168.5t-34 231q1 127 26.5 256.5t80 255t130.5 222.5t189 157t245 60q177 0 295 -101.5t125 -261.5h-81q-8 131 -104.5 211t-242.5 80q-221 0 -372.5 -195t-200.5 -528h4
q61 133 186.5 205.5t282.5 72.5q191 0 313.5 -119.5t121.5 -303.5zM723 876q-123 0 -230 -55.5t-171 -152.5t-65 -211q-2 -171 106.5 -288.5t273.5 -117.5q195 0 323.5 130.5t130.5 328.5q1 161 -102 263.5t-266 102.5z" />
    <glyph glyph-name="seven" unicode="7" horiz-adv-x="1074" 
d="M166 0l974 1366l1 5h-822l15 72h911l-16 -76l-976 -1367h-87z" />
    <glyph glyph-name="eight" unicode="8" horiz-adv-x="1200" 
d="M1139 415q0 -194 -151 -315.5t-391 -121.5q-213 0 -345.5 104.5t-132.5 272.5q0 164 118 281.5t305 140.5l1 4q-100 31 -161 109t-61 177q0 170 139.5 283.5t347.5 113.5q185 0 304 -94t119 -240q0 -143 -99 -246.5t-258 -127.5l-1 -4q119 -35 192.5 -128t73.5 -209z
M651 729q-193 0 -321.5 -103t-128.5 -258q0 -145 109 -231.5t291 -86.5q204 0 331 101t127 264q0 138 -114.5 226t-293.5 88zM400 1070q0 -121 98.5 -196.5t256.5 -75.5q171 0 283.5 91t112.5 229q0 123 -96.5 199t-252.5 76q-171 0 -286.5 -93t-115.5 -230z" />
    <glyph glyph-name="nine" unicode="9" horiz-adv-x="1188" 
d="M696 567q116 0 219.5 55.5t169 156.5t65.5 222q1 172 -102 281.5t-267 109.5q-196 0 -325.5 -129t-130.5 -324q-2 -158 104.5 -265t266.5 -107zM245 933q2 230 156 380.5t389 150.5q88 0 167.5 -31t142.5 -90t99 -155t34 -216q-1 -78 -11 -163t-33.5 -183t-58.5 -188.5
t-89.5 -175t-122.5 -146.5t-162.5 -99.5t-204.5 -37.5q-174 0 -289.5 101t-127.5 263h81q14 -133 107.5 -212t235.5 -79q231 0 384 191.5t199 544.5h-4q-54 -134 -178 -213t-278 -79q-187 0 -312.5 126t-123.5 311z" />
    <glyph glyph-name="colon" unicode=":" horiz-adv-x="512" 
d="M216 -8q-28 0 -47.5 19.5t-19.5 47.5q0 27 19.5 46.5t47.5 19.5q27 0 46.5 -19.5t19.5 -46.5q0 -28 -19.5 -47.5t-46.5 -19.5zM381 769q-28 0 -47 19.5t-19 47.5t19 47t47 19t47 -19t19 -47t-19 -47.5t-47 -19.5z" />
    <glyph glyph-name="semicolon" unicode=";" horiz-adv-x="512" 
d="M381 769q-28 0 -47 19.5t-19 47.5t19 47t47 19t47 -19t19 -47t-19 -47.5t-47 -19.5zM97 -260h-67l189 445h82z" />
    <glyph glyph-name="less" unicode="&#x3c;" horiz-adv-x="1192" 
d="M974 39l-17 -85l-728 560l14 65l966 559l-19 -90l-867 -505l-1 -5z" />
    <glyph glyph-name="equal" unicode="=" horiz-adv-x="1192" 
d="M1101 353h-966l15 70h966zM1181 728h-966l15 70h966z" />
    <glyph glyph-name="greater" unicode="&#x3e;" horiz-adv-x="1192" 
d="M344 1053l18 85l728 -560l-14 -66l-966 -559l19 90l867 505l1 6z" />
    <glyph glyph-name="question" unicode="?" horiz-adv-x="921" 
d="M244 1120q36 157 149 249t278 92q163 0 264 -93.5t101 -232.5q0 -128 -76.5 -227t-216.5 -153q-107 -41 -159.5 -97.5t-71.5 -147.5l-21 -101h-80l24 109q24 113 83 178t177 111q258 102 258 320q0 115 -77 189t-211 74q-126 0 -218 -73t-127 -197h-76zM390 -8
q-27 0 -46.5 19.5t-19.5 47.5q0 27 19.5 46.5t46.5 19.5q28 0 47.5 -19.5t19.5 -46.5q0 -28 -19.5 -47.5t-47.5 -19.5z" />
    <glyph glyph-name="at" unicode="@" horiz-adv-x="1742" 
d="M1056 1433q336 0 540.5 -181t204.5 -478q0 -166 -56.5 -303t-155.5 -216t-218 -79q-86 0 -141.5 42t-57.5 109q0 10 2 28l-7 1q-49 -85 -128 -132.5t-170 -47.5q-133 0 -215.5 93.5t-82.5 245.5q0 134 57 249t154.5 183t210.5 68q101 0 173 -58t85 -150h7l38 178h73
l-120 -560q-9 -45 -9 -68q0 -53 37.5 -84.5t102.5 -31.5q97 0 178 70.5t128.5 193t47.5 268.5q0 272 -186.5 434.5t-497.5 162.5q-242 0 -436.5 -108t-304.5 -299t-110 -429q0 -323 204 -515.5t547 -192.5q126 0 194 20l-14 -65q-77 -18 -189 -18q-366 0 -588.5 211
t-222.5 558q0 193 70 360.5t191.5 286t294 186.5t370.5 68zM1223 683q0 125 -59.5 195.5t-164.5 70.5q-145 0 -249 -126t-104 -303q0 -128 63 -203t169 -75q140 0 242.5 131t102.5 310z" />
    <glyph glyph-name="A" unicode="A" horiz-adv-x="1221" 
d="M846 1341l-463 -789h598l-131 789h-4zM1071 0l-79 482h-648l-285 -482h-90l855 1443h81l242 -1443h-76z" />
    <glyph glyph-name="B" unicode="B" horiz-adv-x="1198" 
d="M596 0h-516l307 1443h476q171 0 269.5 -87.5t98.5 -228.5q0 -142 -101 -250t-251 -132l-1 -4q127 -17 204 -98t77 -209q0 -196 -155.5 -315t-407.5 -119zM452 1371l-126 -593h416q169 0 288 97t119 239q0 121 -79 189t-229 68h-389zM176 72h423q213 0 345.5 100
t132.5 256q0 136 -95 207.5t-252 71.5h-419z" />
    <glyph glyph-name="C" unicode="C" horiz-adv-x="1356" 
d="M1356 974v7q-6 182 -131.5 295.5t-328.5 113.5q-180 0 -328 -106.5t-232.5 -292.5t-84.5 -411q0 -238 134.5 -382.5t356.5 -144.5q179 0 314.5 91.5t194.5 253.5h83q-64 -195 -223 -307t-372 -112q-256 0 -412 163.5t-156 431.5q0 249 95 453t262 320.5t371 116.5
q236 0 384 -134t153 -348v-8h-80z" />
    <glyph glyph-name="D" unicode="D" horiz-adv-x="1362" 
d="M387 1443h424q278 0 431 -150.5t153 -412.5q0 -254 -103 -454t-294.5 -313t-439.5 -113h-477zM453 1371l-275 -1299h377q224 0 397.5 103.5t267.5 285t94 410.5q0 238 -132 369t-383 131h-346z" />
    <glyph glyph-name="E" unicode="E" horiz-adv-x="1060" 
d="M937 73l-15 -73h-842l307 1443h842l-16 -73h-761l-126 -594h725l-16 -72h-725l-133 -631h760z" />
    <glyph glyph-name="F" unicode="F" horiz-adv-x="1025" 
d="M160 0h-80l307 1443h830l-15 -73h-750l-128 -603h690l-16 -72h-690z" />
    <glyph glyph-name="G" unicode="G" horiz-adv-x="1374" 
d="M1392 701l-41 -188q-56 -255 -217.5 -394.5t-398.5 -139.5q-255 0 -409.5 164.5t-154.5 430.5q0 178 52.5 340t145 284t229.5 194t297 72q225 0 369 -123.5t162 -327.5v-4h-80q-20 175 -142 278t-312 103q-140 0 -261 -66t-203.5 -177t-129.5 -258.5t-47 -308.5
q0 -237 132.5 -382t354.5 -145q203 0 344.5 123.5t190.5 342.5l24 111h-480l15 71h560z" />
    <glyph glyph-name="H" unicode="H" horiz-adv-x="1338" 
d="M1152 0h-80l150 705h-912l-150 -705h-80l307 1443h80l-141 -666h912l141 666h80z" />
    <glyph glyph-name="I" unicode="I" horiz-adv-x="346" 
d="M160 0h-80l307 1443h80z" />
    <glyph glyph-name="J" unicode="J" horiz-adv-x="957" 
d="M64 303q0 13 1 22h80v-14q0 -116 78.5 -187.5t207.5 -71.5q130 0 218.5 82.5t120.5 234.5l228 1074h80l-233 -1100q-37 -173 -148 -269.5t-275 -96.5q-158 0 -258 92t-100 234z" />
    <glyph glyph-name="K" unicode="K" horiz-adv-x="1143" 
d="M160 0h-80l307 1443h80l-170 -800h4l913 800h109l-715 -629l474 -814h-92l-443 764l-275 -238z" />
    <glyph glyph-name="L" unicode="L" horiz-adv-x="1019" 
d="M932 73l-15 -73h-837l307 1443h80l-291 -1370h756z" />
    <glyph glyph-name="M" unicode="M" horiz-adv-x="1615" 
d="M156 0h-76l307 1443h84l299 -1343h4l866 1343h97l-307 -1443h-77l273 1282h-5l-828 -1279h-75l-285 1279h-4z" />
    <glyph glyph-name="N" unicode="N" horiz-adv-x="1355" 
d="M160 0h-80l307 1443h79l646 -1319h4l280 1319h80l-307 -1443h-79l-646 1319h-4z" />
    <glyph glyph-name="O" unicode="O" horiz-adv-x="1454" 
d="M906 1390q-182 0 -332.5 -105.5t-235.5 -287.5t-85 -402q0 -248 136 -395t361 -147q182 0 332 105.5t235 287.5t85 402q0 248 -136 395t-360 147zM747 -21q-258 0 -416 167t-158 443q0 243 95.5 443.5t264.5 316t376 115.5q257 0 415.5 -167t158.5 -443
q0 -243 -95.5 -443.5t-264.5 -316t-376 -115.5z" />
    <glyph glyph-name="P" unicode="P" horiz-adv-x="1158" 
d="M391 1443h434q190 0 304 -105.5t114 -273.5q0 -221 -160.5 -351.5t-419.5 -130.5h-377l-125 -582h-81zM456 1371l-155 -717h363q220 0 359 108.5t139 295.5q0 140 -95 226.5t-261 86.5h-350z" />
    <glyph glyph-name="Q" unicode="Q" horiz-adv-x="1454" 
d="M1199 -177h-82l-109 211q-126 -55 -261 -55q-258 0 -416 167t-158 443q0 243 95.5 443.5t264.5 316t376 115.5q257 0 415.5 -167t158.5 -443q0 -262 -111 -472.5t-298 -316.5zM750 53q119 0 225 47l-141 272h81l124 -240q166 96 264.5 288t98.5 428q0 248 -136 395
t-360 147q-182 0 -332.5 -105.5t-235.5 -287.5t-85 -402q0 -248 136 -395t361 -147z" />
    <glyph glyph-name="R" unicode="R" horiz-adv-x="1171" 
d="M80 0l311 1443h419q206 0 318.5 -99t112.5 -268q0 -179 -114.5 -299t-311.5 -149l234 -628h-83l-230 619h-30h-412l-133 -619h-81zM456 1371l-147 -680h405q198 0 321.5 105t123.5 274q0 139 -92 220t-261 81h-350z" />
    <glyph glyph-name="S" unicode="S" horiz-adv-x="1196" 
d="M111 406h79q11 -158 135.5 -256t319.5 -98q184 0 297.5 89.5t113.5 238.5q0 103 -65.5 172t-213.5 125l-121 47q-185 70 -267 155t-82 213q0 164 131.5 268t337.5 104t342 -111t145 -290h-79q-11 146 -123.5 237t-284.5 91q-173 0 -280 -83.5t-107 -211.5
q0 -102 69.5 -170.5t231.5 -129.5l125 -48q168 -62 246 -148t78 -211q0 -178 -135.5 -294t-359.5 -116q-229 0 -377.5 117.5t-155.5 309.5z" />
    <glyph glyph-name="T" unicode="T" horiz-adv-x="1159" 
d="M567 0h-81l292 1370h-508l15 73h1096l-15 -73h-508z" />
    <glyph glyph-name="U" unicode="U" horiz-adv-x="1358" 
d="M669 -21q-220 0 -352.5 119t-132.5 309q-1 68 13 140l191 896h81l-191 -895q-15 -62 -13 -136q2 -163 113.5 -261t301.5 -98q197 0 333 111t178 306l208 973h80l-210 -985q-49 -228 -204.5 -353.5t-395.5 -125.5z" />
    <glyph glyph-name="V" unicode="V" horiz-adv-x="1222" 
d="M599 0h-82l-241 1443h77l222 -1333h4l785 1333h90z" />
    <glyph glyph-name="W" unicode="W" horiz-adv-x="1778" 
d="M1108 1297l-654 -1297h-77l-95 1443h76l82 -1302h4l656 1302h73l109 -1302h4l634 1302h85l-708 -1443h-75l-110 1297h-4z" />
    <glyph glyph-name="X" unicode="X" horiz-adv-x="1190" 
d="M-27 0l674 728l-360 715h90l329 -657h2l606 657h104l-672 -727l360 -716h-90l-329 658h-3l-607 -658h-104z" />
    <glyph glyph-name="Y" unicode="Y" horiz-adv-x="1170" 
d="M573 0h-80l133 631l-350 812h85l316 -736h4l625 736h96l-697 -820z" />
    <glyph glyph-name="Z" unicode="Z" horiz-adv-x="1178" 
d="M21 0l13 62l1195 1305v4h-888l15 72h997l-13 -62l-1194 -1305v-4h920l-15 -72h-1030z" />
    <glyph glyph-name="bracketleft" unicode="[" horiz-adv-x="600" 
d="M455 1443h372l-14 -65h-296l-344 -1614h296l-14 -65h-371z" />
    <glyph glyph-name="backslash" unicode="\" horiz-adv-x="600" 
d="M360 -301l-51 1744h68l52 -1744h-69z" />
    <glyph glyph-name="bracketright" unicode="]" horiz-adv-x="600" 
d="M283 -301h-372l13 66h297l343 1613h-296l14 65h372z" />
    <glyph glyph-name="asciicircum" unicode="^" horiz-adv-x="783" 
d="M619 1320l-366 -518h-82l429 603h74l173 -603h-77l-145 518h-6z" />
    <glyph glyph-name="underscore" unicode="_" horiz-adv-x="1024" 
d="M-98 -168l14 68h1044l-14 -68h-1044z" />
    <glyph glyph-name="grave" unicode="`" horiz-adv-x="875" 
d="M821 1241h-70l-184 303h83z" />
    <glyph glyph-name="a" unicode="a" horiz-adv-x="978" 
d="M420 52q143 0 256 88t142 222l38 174l-344 -20q-169 -9 -261 -75t-92 -179q0 -94 72.5 -152t188.5 -58zM405 -16q-141 0 -232.5 76t-91.5 196q0 145 112.5 229.5t318.5 95.5l357 20l19 87q9 42 9 78q0 103 -72 161.5t-199 58.5q-134 0 -224.5 -64.5t-114.5 -175.5h-80
q27 141 142.5 226t282.5 85q155 0 249 -77.5t94 -205.5q0 -45 -10 -89l-145 -685h-76l40 187h-4q-56 -93 -157 -148t-218 -55z" />
    <glyph glyph-name="b" unicode="b" horiz-adv-x="1101" 
d="M573 -16q-146 0 -250 89t-119 227h-4l-64 -300h-74l307 1443h77l-134 -636h3q62 115 168.5 182t228.5 67q175 0 279.5 -120t104.5 -324q0 -171 -66.5 -314.5t-187 -228.5t-269.5 -85zM574 54q124 0 226.5 74.5t160.5 202t58 280.5q0 174 -86 274.5t-236 100.5
q-124 0 -229 -78t-165.5 -210t-60.5 -285q0 -161 91.5 -260t240.5 -99z" />
    <glyph glyph-name="c" unicode="c" horiz-adv-x="1007" 
d="M648 1057q166 0 273 -95t120 -243v-2h-76q-14 120 -100.5 194.5t-217.5 74.5q-125 0 -228 -73t-162 -201.5t-59 -285.5q0 -168 93 -270t244 -102q121 0 215 62t138 168h78q-50 -138 -165.5 -219.5t-266.5 -81.5q-189 0 -301.5 121.5t-112.5 319.5q0 177 68.5 322
t189.5 228t270 83z" />
    <glyph glyph-name="d" unicode="d" horiz-adv-x="1104" 
d="M493 -16q-170 0 -275 117.5t-105 306.5q0 131 43 251t115.5 207t171.5 138.5t207 51.5q145 0 245.5 -87.5t116.5 -225.5h4l150 700h78l-307 -1443h-79l50 234h-4q-62 -114 -174 -182t-237 -68zM509 54q132 0 239.5 79t166.5 210t59 284q0 163 -88.5 261t-236.5 98
q-121 0 -227 -77.5t-169 -210t-63 -284.5q0 -163 87 -261.5t232 -98.5z" />
    <glyph glyph-name="e" unicode="e" horiz-adv-x="1027" 
d="M212 575h740q6 28 6 76q0 151 -83.5 243.5t-230.5 92.5q-161 0 -280 -115t-152 -297zM523 -17q-189 0 -298.5 117t-109.5 312q0 181 68.5 328.5t190 232t272.5 84.5q180 0 285 -110.5t105 -300.5q0 -74 -15 -137h-820q-8 -61 -8 -91q0 -169 90 -267t244 -98
q133 0 229 64.5t139 179.5h79q-47 -144 -167.5 -229t-283.5 -85z" />
    <glyph glyph-name="f" unicode="f" horiz-adv-x="542" 
d="M126 0l206 972h-165l14 68h165l29 142q52 256 292 256q58 0 107 -13l-13 -67q-41 13 -94 13q-84 0 -139 -48.5t-75 -143.5l-29 -139h249l-15 -68h-248l-205 -972h-79z" />
    <glyph glyph-name="g" unicode="g" horiz-adv-x="1097" 
d="M456 -375q-173 0 -286 83t-115 202h80q8 -93 96.5 -155t228.5 -62q151 0 254.5 81.5t135.5 226.5l55 246h-4q-59 -115 -167 -181.5t-234 -66.5q-175 0 -280 115.5t-105 308.5q0 168 69 313t192.5 232.5t272.5 87.5q147 0 244.5 -86.5t111.5 -226.5h5l64 297h77
l-223 -1042q-38 -177 -163.5 -275t-308.5 -98zM515 69q128 0 232.5 75t163 203.5t58.5 282.5q0 162 -88 259t-233 97q-124 0 -229 -76t-165.5 -205t-60.5 -279q0 -165 85.5 -261t236.5 -96z" />
    <glyph glyph-name="h" unicode="h" horiz-adv-x="1056" 
d="M62 0l309 1443h78l-130 -607h4q58 100 155 160t221 60q153 0 248.5 -90t95.5 -227q0 -55 -10 -102l-138 -637h-77l133 622q12 57 12 98q0 120 -78 193t-210 73q-147 0 -256.5 -99t-140.5 -246l-138 -641h-78z" />
    <glyph glyph-name="i" unicode="i" horiz-adv-x="315" 
d="M66 0l221 1040h78l-221 -1040h-78zM382 1249q-25 0 -43 18t-18 43t18 42.5t43 17.5q26 0 44 -17.5t18 -42.5t-18 -43t-44 -18z" />
    <glyph glyph-name="j" unicode="j" horiz-adv-x="316" 
d="M388 1249q-25 0 -43 18t-18 43t18 42.5t43 17.5t43.5 -17.5t18.5 -42.5t-18.5 -43t-43.5 -18zM365 1040l-243 -1147q-27 -129 -97.5 -186.5t-189.5 -57.5q-34 0 -70 3l16 69q29 -3 55 -3q88 0 138.5 44t69.5 139l243 1139h78z" />
    <glyph glyph-name="k" unicode="k" horiz-adv-x="883" 
d="M140 0h-78l307 1443h78l-197 -925h4l686 522h109l-579 -444l375 -596h-89l-349 552l-179 -136z" />
    <glyph glyph-name="l" unicode="l" horiz-adv-x="320" 
d="M68 0l307 1443h78l-307 -1443h-78z" />
    <glyph glyph-name="m" unicode="m" horiz-adv-x="1595" 
d="M61 0l221 1040h75l-42 -199h4q49 103 132 159.5t188 56.5q119 0 199.5 -70.5t90.5 -178.5h4q44 109 138.5 179t216.5 70q129 0 213 -81.5t84 -207.5q0 -61 -11 -123l-138 -645h-78l134 630q13 60 13 119q0 105 -66 171t-174 66q-123 0 -215 -92t-125 -250l-138 -644h-78
l134 630q14 65 14 119q0 105 -66.5 171t-175.5 66q-120 0 -212.5 -92t-125.5 -245l-139 -649h-77z" />
    <glyph glyph-name="n" unicode="n" horiz-adv-x="1047" 
d="M61 0l221 1040h75l-44 -208h4q61 104 158.5 164.5t221.5 60.5q150 0 245 -88t95 -222q0 -53 -12 -110l-136 -637h-78l132 622q14 61 14 107q0 116 -77.5 186.5t-207.5 70.5q-145 0 -255 -99t-141 -246l-138 -641h-77z" />
    <glyph glyph-name="o" unicode="o" horiz-adv-x="1080" 
d="M542 54q194 0 325 160.5t131 398.5q0 169 -94 271t-251 102q-127 0 -231.5 -73t-164 -201t-59.5 -285q0 -169 94 -271t250 -102zM653 1057q192 0 307.5 -121t115.5 -321q0 -178 -69.5 -322.5t-192 -227t-272.5 -82.5q-192 0 -307 121t-115 321q0 177 69.5 322
t191.5 227.5t272 82.5z" />
    <glyph glyph-name="p" unicode="p" horiz-adv-x="1097" 
d="M572 54q124 0 226.5 73t161.5 201t59 282q0 175 -86 275.5t-235 100.5q-125 0 -230.5 -78.5t-165.5 -210.5t-60 -284q0 -161 91 -260t239 -99zM65 -341h-77l294 1381h76l-50 -234h5q63 116 170 183t230 67q175 0 279 -120.5t104 -321.5q0 -176 -69 -320.5t-189.5 -227
t-266.5 -82.5q-145 0 -247.5 88t-119.5 226h-3z" />
    <glyph glyph-name="q" unicode="q" horiz-adv-x="1102" 
d="M509 54q129 0 235.5 75.5t168 207t61.5 290.5q0 165 -88 262t-238 97q-120 0 -226 -78.5t-169 -211t-63 -283.5q0 -161 88 -260t231 -99zM862 -341h-77l124 577h-4q-62 -114 -174 -183t-238 -69q-170 0 -275 118.5t-105 308.5q0 173 72.5 321.5t196.5 236t268 87.5
q146 0 247 -88.5t115 -227.5h4l64 300h76z" />
    <glyph glyph-name="r" unicode="r" horiz-adv-x="621" 
d="M61 0l221 1040h75l-39 -179h4q111 194 299 194q84 0 134 -27l-17 -77q-43 31 -133 31q-119 0 -208.5 -96.5t-124.5 -258.5l-134 -627h-77z" />
    <glyph glyph-name="s" unicode="s" horiz-adv-x="922" 
d="M222 772q0 124 101.5 204t260.5 80q155 0 256.5 -85t111.5 -220h-76q-11 105 -92 171.5t-203 66.5q-123 0 -202.5 -60t-79.5 -151q0 -69 48.5 -115.5t160.5 -83.5l89 -31q142 -49 202.5 -111t60.5 -160q0 -130 -105.5 -212t-272.5 -82q-170 0 -283.5 88.5t-125.5 228.5
h78q16 -112 107.5 -180.5t227.5 -68.5q130 0 212.5 62.5t82.5 160.5q0 74 -48 119.5t-174 88.5l-91 31q-128 43 -187 105t-59 154z" />
    <glyph glyph-name="t" unicode="t" horiz-adv-x="535" 
d="M379 -2q-103 0 -162.5 45t-59.5 130q0 36 11 89l151 710h-151l14 68h152l58 275h78l-58 -275h224l-14 -68h-224l-149 -697q-11 -49 -11 -81q0 -63 42.5 -95t118.5 -32q48 0 62 2l-15 -68q-15 -3 -67 -3z" />
    <glyph glyph-name="u" unicode="u" horiz-adv-x="1048" 
d="M1102 1040l-221 -1040h-74l44 204h-4q-58 -99 -158 -160t-224 -61q-151 0 -244 87t-93 220q0 54 11 115l136 635h77l-132 -622q-13 -57 -13 -108q0 -118 75 -187t206 -69q147 0 258 99.5t142 245.5l138 641h76z" />
    <glyph glyph-name="v" unicode="v" horiz-adv-x="895" 
d="M181 1040h78l152 -958h4l555 958h87l-610 -1040h-95z" />
    <glyph glyph-name="w" unicode="w" horiz-adv-x="1396" 
d="M1555 1040l-520 -1040h-94l-87 941h-3l-485 -941h-96l-79 1040h73l70 -952h4l487 952h90l85 -952h4l470 952h81z" />
    <glyph glyph-name="x" unicode="x" horiz-adv-x="885" 
d="M499 456h-4l-425 -456h-96l489 525l-271 515h85l238 -459h4l427 459h97l-491 -527l269 -513h-84z" />
    <glyph glyph-name="y" unicode="y" horiz-adv-x="895" 
d="M72 -356q-37 0 -69 8l12 68q29 -8 60 -8q67 0 120.5 43t112.5 145l50 88l-177 1052h78l156 -959h4l551 959h87l-681 -1168q-75 -130 -143 -179t-161 -49z" />
    <glyph glyph-name="z" unicode="z" horiz-adv-x="913" 
d="M12 0l13 64l869 904l1 4h-675l15 68h776l-14 -65l-866 -903l-1 -4h674l-14 -68h-778z" />
    <glyph glyph-name="braceleft" unicode="{" horiz-adv-x="600" 
d="M254 291q12 54 12 92q0 73 -42.5 99t-139.5 33l24 112q121 0 177.5 43t82.5 164l68 314q37 170 111.5 232.5t226.5 62.5h53l-15 -67h-44q-118 0 -173.5 -50t-85.5 -188l-70 -327q-26 -124 -87 -173t-183 -61l-3 -18q92 -11 135 -47t43 -114q0 -40 -12 -94l-56 -258
q-14 -67 -14 -114q0 -85 43 -126.5t134 -41.5h29l-13 -65h-34q-112 0 -174.5 56t-62.5 164q0 50 15 123z" />
    <glyph glyph-name="bar" unicode="|" horiz-adv-x="600" 
d="M218 -301h-70l371 1744h70z" />
    <glyph glyph-name="braceright" unicode="}" horiz-adv-x="600" 
d="M484 852q-12 -54 -12 -92q0 -73 42 -99.5t139 -32.5l-24 -112q-121 0 -177.5 -43t-82.5 -164l-68 -314q-37 -171 -111 -233t-227 -62h-52l14 66h45q118 0 173.5 50.5t84.5 187.5l70 328q26 124 87 173t183 61l4 17q-93 12 -136 48t-43 114q0 32 12 94l56 258
q15 70 15 114q0 85 -43 126t-134 41h-30l14 66h33q113 0 175 -55.5t62 -164.5q0 -57 -15 -123z" />
    <glyph glyph-name="asciitilde" unicode="~" horiz-adv-x="1192" 
d="M863 515q-40 0 -77 17.5t-62.5 43.5t-53 56.5t-50 56.5t-51.5 43.5t-59 17.5q-69 0 -115 -59t-62 -156h-76q16 128 85.5 208t170.5 80q40 0 76 -17.5t61.5 -43.5t53 -56.5t50 -56.5t52 -43.5t59.5 -17.5q68 0 112.5 58t60.5 156h76q-19 -132 -85.5 -209.5t-165.5 -77.5z
" />
    <glyph glyph-name="nonbreakingspace" unicode="&#xa0;" horiz-adv-x="498" 
 />
    <glyph glyph-name="exclamdown" unicode="&#xa1;" horiz-adv-x="511" 
d="M174 -340h-87l220 1016h78zM424 1112q28 0 47.5 -19.5t19.5 -46.5q0 -28 -19.5 -47.5t-47.5 -19.5t-47 19.5t-19 47.5q0 27 19 46.5t47 19.5z" />
    <glyph glyph-name="cent" unicode="&#xa2;" horiz-adv-x="1192" 
d="M1092 427q-38 -127 -157.5 -204t-283.5 -80l-45 -211h-77l46 217q-159 22 -253 137t-94 291q0 188 72 342.5t198.5 244t282.5 92.5l42 194h77l-43 -199q132 -14 223 -96.5t110 -202.5q0 -2 0.5 -6.5t0.5 -6.5h-78q-17 110 -106 178.5t-220 68.5q-133 0 -243 -79
t-173 -216t-63 -303q0 -172 93 -273t252 -101q127 0 224.5 58t134.5 155h80z" />
    <glyph glyph-name="sterling" unicode="&#xa3;" horiz-adv-x="1192" 
d="M1096 70l-15 -70h-1064l14 68q193 33 314.5 172t121.5 337q0 27 -6 105h-278l15 67h256q-3 37 -10 94t-11 100.5t-4 77.5q0 215 131 332.5t360 117.5q203 0 352 -83l-10 -76q-150 87 -345 87q-188 0 -297.5 -100t-109.5 -268q0 -42 12 -148t14 -134h451l-14 -67h-432
q5 -46 5 -98q0 -184 -89.5 -321.5t-228.5 -188.5l-1 -4h869z" />
    <glyph glyph-name="currency" unicode="&#xa4;" horiz-adv-x="1192" 
d="M372 655q0 -128 97.5 -221.5t217.5 -93.5q130 0 222.5 93t92.5 222q0 130 -92.5 223t-222.5 93t-222.5 -93t-92.5 -223zM1230 1063l-232 -192q68 -96 68 -216q0 -80 -31.5 -151t-87.5 -124l107 -135l-57 -46l-108 137q-92 -60 -202 -60q-159 0 -271 115l-238 -196l-42 53
l236 196q-64 98 -64 211q0 161 115 273l-110 139l58 46l109 -140q94 62 207 62q157 0 268 -111l234 192z" />
    <glyph glyph-name="yen" unicode="&#xa5;" horiz-adv-x="1192" 
d="M1000 363h-339l-76 -363h-81l77 363h-341l14 66h341l45 208h-342l14 65h308l-333 741h84l322 -718h6l620 718h95l-643 -741h301l-14 -65h-339l-44 -208h339z" />
    <glyph glyph-name="brokenbar" unicode="&#xa6;" horiz-adv-x="600" 
d="M445 765h-70l144 678h70zM218 -301h-69l144 678h70z" />
    <glyph glyph-name="section" unicode="&#xa7;" horiz-adv-x="954" 
d="M445 385l139 -53q129 8 211.5 76.5t82.5 168.5q0 73 -49 124.5t-163 93.5l-109 41q-132 -3 -222.5 -75.5t-90.5 -169.5q0 -68 48 -116.5t153 -89.5zM416 -240q-163 0 -275 80.5t-122 206.5h80q16 -97 104.5 -158t216.5 -61q135 0 222.5 66t87.5 167q0 69 -50.5 122
t-164.5 95l-109 41q-122 46 -182 110.5t-60 155.5q0 114 91 194t216 93l1 6q-160 76 -160 225q0 126 105 208t264 82q150 0 252 -76t115 -195h-76q-13 87 -96.5 144.5t-198.5 57.5q-121 0 -203.5 -62.5t-82.5 -154.5q0 -68 47.5 -116t154.5 -87l101 -38q137 -51 200.5 -117
t63.5 -163q0 -114 -84 -194.5t-207 -97.5l-1 -4q76 -47 110 -100.5t34 -125.5q0 -133 -111.5 -218.5t-282.5 -85.5z" />
    <glyph glyph-name="dieresis" unicode="&#xa8;" horiz-adv-x="875" 
d="M513 1243q-28 0 -47.5 19.5t-19.5 46.5q0 28 19.5 47t47.5 19q27 0 46.5 -19t19.5 -47q0 -27 -19.5 -46.5t-46.5 -19.5zM811 1243q-27 0 -47 19.5t-20 46.5t20 46.5t47 19.5t47 -19.5t20 -46.5t-20 -46.5t-47 -19.5z" />
    <glyph glyph-name="copyright" unicode="&#xa9;" horiz-adv-x="1718" 
d="M915 -145q-163 0 -302 54.5t-236.5 150.5t-152.5 233.5t-55 298.5q0 164 63 313t169.5 257t253.5 171.5t309 63.5q218 0 387.5 -93t263.5 -260.5t94 -383.5q0 -164 -63 -313.5t-169 -257t-253 -171t-309 -63.5zM915 -78q147 0 281.5 58.5t232 157t155 235t57.5 286.5
q0 300 -187.5 485.5t-489.5 185.5q-148 0 -282.5 -58.5t-232 -157t-155 -235.5t-57.5 -287q0 -298 188.5 -484t489.5 -186zM1318 778h-65q-8 100 -83 162.5t-187 62.5q-154 0 -258 -122.5t-104 -303.5q0 -144 78 -230t209 -86q92 0 162.5 42.5t104.5 118.5h69
q-38 -103 -129 -162t-211 -59q-159 0 -255 101.5t-96 269.5q0 136 57.5 249t157 177.5t220.5 64.5q139 0 230.5 -79t99.5 -206z" />
    <glyph glyph-name="ordfeminine" unicode="&#xaa;" horiz-adv-x="700" 
d="M501 1080q-108 -4 -167 -47t-59 -114q0 -61 49.5 -97t123.5 -36q95 0 169.5 56t93.5 141l24 108zM205 912q0 98 76 157.5t216 64.5l248 10l12 57q6 24 6 50q0 66 -48 104t-131 38t-141 -39.5t-76 -107.5h-68q20 94 99.5 150.5t190.5 56.5t178 -53.5t67 -141.5
q0 -22 -7 -59l-98 -463h-68l26 125l-3 1q-37 -60 -107 -96.5t-149 -36.5q-94 0 -158.5 49.5t-64.5 133.5z" />
    <glyph glyph-name="guillemotleft" unicode="&#xab;" horiz-adv-x="1141" 
d="M593 155h-91l-285 409l1 9l449 406h101l-453 -413l-1 -8zM955 156h-90l-284 402l1 10l454 411h102l-459 -418l-2 -8z" />
    <glyph glyph-name="logicalnot" unicode="&#xac;" horiz-adv-x="1192" 
d="M1174 707l-114 -537h-70l99 468h-890l14 69h961z" />
    <glyph glyph-name="registered" unicode="&#xae;" horiz-adv-x="1101" 
d="M566 864h-52l95 449h170q60 0 97 -35t37 -90t-37 -94.5t-99 -49.5l90 -180h-62l-86 176h-115zM652 1266l-39 -183h121q57 0 91 27.5t34 72.5q0 38 -24 60.5t-65 22.5h-118zM713 651q-177 0 -299 120t-122 294q0 184 124 308.5t307 124.5q179 0 300.5 -119t121.5 -294
q0 -185 -124 -309.5t-308 -124.5zM713 703q160 0 268 109.5t108 272.5q-1 152 -107 256.5t-258 104.5q-160 0 -267.5 -109t-108.5 -272q0 -151 106.5 -256.5t258.5 -105.5z" />
    <glyph glyph-name="macron" unicode="&#xaf;" horiz-adv-x="917" 
d="M959 1358l-13 -60h-519l12 60h520z" />
    <glyph glyph-name="degree" unicode="&#xb0;" horiz-adv-x="724" 
d="M562 928q-110 0 -188.5 78t-78.5 189q0 110 78.5 188.5t188.5 78.5q111 0 189.5 -78.5t78.5 -188.5q0 -111 -78.5 -189t-189.5 -78zM562 991q85 0 145 60t60 144t-60 143.5t-145 59.5q-84 0 -144 -59.5t-60 -143.5t60.5 -144t143.5 -60z" />
    <glyph glyph-name="plusminus" unicode="&#xb1;" horiz-adv-x="1192" 
d="M1049 113h-964l15 69h963zM725 682l-75 -350h-73l75 350h-445l13 66h446l71 332h73l-71 -332h445l-14 -66h-445z" />
    <glyph glyph-name="two.sups" unicode="&#xb2;" horiz-adv-x="559" 
d="M349 1627q11 85 77 139.5t158 54.5q86 0 144 -48.5t58 -120.5q0 -60 -40.5 -113.5t-156.5 -149.5l-217 -184l-1 -2h347l-12 -61h-452l12 55l279 234q102 87 134.5 128t32.5 87q0 50 -38 82t-96 32q-59 0 -103.5 -36.5t-56.5 -95.5v-1h-69z" />
    <glyph glyph-name="three.sups" unicode="&#xb3;" horiz-adv-x="564" 
d="M449 1458l11 57h91q70 0 116.5 36.5t46.5 92.5q0 52 -38.5 84.5t-98.5 32.5q-53 0 -95 -29.5t-57 -77.5h-70q18 76 80.5 121.5t147.5 45.5q87 0 144.5 -47.5t57.5 -120.5q0 -65 -46 -112t-119 -57l-1 -3q59 -10 93 -49.5t34 -96.5q0 -89 -71 -147t-181 -58
q-97 0 -161 50.5t-64 126.5q0 17 3 29h69q-2 -9 -2 -17q-1 -55 43.5 -91t113.5 -36q78 0 127.5 40.5t49.5 104.5q0 55 -41.5 88t-110.5 33h-72z" />
    <glyph glyph-name="acute" unicode="&#xb4;" horiz-adv-x="875" 
d="M553 1241h-82l301 303h93z" />
    <glyph glyph-name="mugreek" unicode="&#xb5;" horiz-adv-x="1197" 
d="M22 -341l293 1381h77l-135 -634q-14 -70 -14 -111q0 -115 66 -177t188 -62q148 0 267 106t153 267l129 611h77l-174 -835q-10 -42 -10 -71q0 -37 21 -54.5t68 -17.5q43 0 68 8l-15 -68q-35 -10 -76 -10q-73 0 -108.5 32.5t-34.5 100.5q0 34 16 97h-3q-59 -107 -167 -171
t-229 -64q-106 0 -182 54t-84 138h-4l-111 -520h-76z" />
    <glyph glyph-name="mugreek" unicode="&#x3bc;" horiz-adv-x="1197" 
d="M22 -341l293 1381h77l-135 -634q-14 -70 -14 -111q0 -115 66 -177t188 -62q148 0 267 106t153 267l129 611h77l-174 -835q-10 -42 -10 -71q0 -37 21 -54.5t68 -17.5q43 0 68 8l-15 -68q-35 -10 -76 -10q-73 0 -108.5 32.5t-34.5 100.5q0 34 16 97h-3q-59 -107 -167 -171
t-229 -64q-106 0 -182 54t-84 138h-4l-111 -520h-76z" />
    <glyph glyph-name="paragraph" unicode="&#xb6;" horiz-adv-x="1175" 
d="M683 -162h-80l157 735q-187 14 -299.5 121t-112.5 268q0 143 73.5 254t196 169t270.5 58h136zM857 -162l342 1605h79l-342 -1605h-79z" />
    <glyph glyph-name="periodcentered" unicode="&#xb7;" horiz-adv-x="512" 
d="M313 450q-29 0 -49.5 20.5t-20.5 49.5t20.5 49.5t49.5 20.5t49.5 -20.5t20.5 -49.5t-20.5 -49.5t-49.5 -20.5z" />
    <glyph glyph-name="cedilla" unicode="&#xb8;" horiz-adv-x="875" 
d="M242 -189l10 42l102 159h61l-3 -12l-90 -141q88 -5 136 -43.5t48 -106.5q0 -81 -59 -128.5t-154 -47.5q-94 0 -168 37l13 60q69 -36 153 -36q67 0 107.5 28.5t40.5 80.5q0 94 -145 105z" />
    <glyph glyph-name="one.sups" unicode="&#xb9;" horiz-adv-x="408" 
d="M411 1142l125 593h-2q-17 -9 -103.5 -59.5t-98.5 -57.5l16 74q201 116 205 118h73l-142 -668h-73z" />
    <glyph glyph-name="ordmasculine" unicode="&#xba;" horiz-adv-x="739" 
d="M510 726q-132 0 -212 80.5t-80 213.5q0 184 105.5 308.5t261.5 124.5q133 0 213 -80.5t80 -214.5q0 -185 -105.5 -308.5t-262.5 -123.5zM807 1155q0 109 -61 173.5t-163 64.5q-125 0 -209.5 -107t-84.5 -264q0 -109 60.5 -172.5t163.5 -63.5q125 0 209.5 106t84.5 263z
" />
    <glyph glyph-name="guillemotright" unicode="&#xbb;" horiz-adv-x="1141" 
d="M683 979h91l285 -408l-2 -10l-448 -406h-102l454 413l1 8zM321 978h90l284 -402l-1 -9l-454 -412h-102l459 419l1 8z" />
    <glyph glyph-name="onequarter" unicode="&#xbc;" horiz-adv-x="1350" 
d="M333 775l125 593h-2q-17 -9 -103.5 -59.5t-98.5 -57.5l16 74q201 116 205 118h73l-142 -668h-73zM93 0h-89l709 741l672 702h90l-705 -736zM1094 0l33 150h-343l13 66q110 139 404 452h107l-98 -457h100l-13 -61h-99l-33 -150h-71zM870 211v-2h270l84 396h-1
q-233 -244 -353 -394z" />
    <glyph glyph-name="onehalf" unicode="&#xbd;" horiz-adv-x="1388" 
d="M333 775l125 593h-2q-17 -9 -103.5 -59.5t-98.5 -57.5l16 74q201 116 205 118h73l-142 -668h-73zM93 0h-89l709 741l672 702h90l-705 -736zM935 485q11 85 77 139.5t158 54.5q86 0 144 -48.5t58 -120.5q0 -60 -40.5 -113.5t-156.5 -149.5l-217 -184l-1 -2h347l-12 -61
h-452l12 55l279 234q102 87 134.5 128t32.5 87q0 50 -38 82t-96 32q-59 0 -103.5 -36.5t-56.5 -95.5v-1h-69z" />
    <glyph glyph-name="threequarters" unicode="&#xbe;" horiz-adv-x="1475" 
d="M371 1091l11 57h91q70 0 116.5 36.5t46.5 92.5q0 52 -38.5 84.5t-98.5 32.5q-53 0 -95 -29.5t-57 -77.5h-70q18 76 80.5 121.5t147.5 45.5q87 0 144.5 -47.5t57.5 -120.5q0 -65 -46 -112t-119 -57l-1 -3q59 -10 93 -49.5t34 -96.5q0 -89 -71 -147t-181 -58
q-97 0 -161 50.5t-64 126.5q0 17 3 29h69q-2 -9 -2 -17q-1 -55 43.5 -91t113.5 -36q78 0 127.5 40.5t49.5 104.5q0 55 -41.5 88t-110.5 33h-72zM219 0h-89l709 741l672 702h90l-705 -736zM1219 0l33 150h-343l13 66q110 139 404 452h107l-98 -457h100l-13 -61h-99l-33 -150
h-71zM995 211v-2h270l84 396h-1q-233 -244 -353 -394z" />
    <glyph glyph-name="questiondown" unicode="&#xbf;" horiz-adv-x="921" 
d="M807 -12q-37 -157 -149.5 -249t-277.5 -92q-163 0 -264.5 93.5t-101.5 232.5q0 127 76.5 226.5t216.5 153.5q107 41 160 97.5t71 147.5l22 101h79l-23 -109q-24 -114 -83.5 -178.5t-177.5 -110.5q-258 -102 -258 -320q0 -115 77.5 -189t211.5 -74q126 0 218 73t126 197
h77zM660 1117q27 0 46.5 -19.5t19.5 -46.5q0 -28 -19.5 -47.5t-46.5 -19.5q-28 0 -47.5 19.5t-19.5 47.5q0 27 19.5 46.5t47.5 19.5z" />
    <glyph glyph-name="Agrave" unicode="&#xc0;" horiz-adv-x="1221" 
d="M846 1341l-463 -789h598l-131 789h-4zM1071 0l-79 482h-648l-285 -482h-90l855 1443h81l242 -1443h-76zM840 1556l-184 287h86l171 -287h-73z" />
    <glyph glyph-name="Aacute" unicode="&#xc1;" horiz-adv-x="1221" 
d="M846 1341l-463 -789h598l-131 789h-4zM1071 0l-79 482h-648l-285 -482h-90l855 1443h81l242 -1443h-76zM927 1556h-86l336 287h100z" />
    <glyph glyph-name="Acircumflex" unicode="&#xc2;" horiz-adv-x="1221" 
d="M846 1341l-463 -789h598l-131 789h-4zM1071 0l-79 482h-648l-285 -482h-90l855 1443h81l242 -1443h-76zM974 1845l202 -289h-78l-160 232h-3l-259 -232h-90l324 289h64z" />
    <glyph glyph-name="Atilde" unicode="&#xc3;" horiz-adv-x="1221" 
d="M846 1341l-463 -789h598l-131 789h-4zM1071 0l-79 482h-648l-285 -482h-90l855 1443h81l242 -1443h-76zM1037 1551q-36 0 -67 17t-52 41.5t-41 48.5t-45 41t-53 17q-43 0 -78 -41t-48 -112h-62q17 98 69 155t123 57q37 0 68 -17t52.5 -41.5t41 -48.5t44 -41t52.5 -17
q41 0 74 40t48 113h62q-21 -101 -70.5 -156.5t-117.5 -55.5z" />
    <glyph glyph-name="Adieresis" unicode="&#xc4;" horiz-adv-x="1221" 
d="M846 1341l-463 -789h598l-131 789h-4zM1071 0l-79 482h-648l-285 -482h-90l855 1443h81l242 -1443h-76zM762 1605q-28 0 -47.5 19.5t-19.5 46.5q0 28 19.5 47t47.5 19q27 0 46.5 -19t19.5 -47q0 -27 -19.5 -46.5t-46.5 -19.5zM1060 1605q-27 0 -47 19.5t-20 46.5t20 46.5
t47 19.5t47 -19.5t20 -46.5t-20 -46.5t-47 -19.5z" />
    <glyph glyph-name="Aring" unicode="&#xc5;" horiz-adv-x="1221" 
d="M846 1341l-463 -789h598l-131 789h-4zM1071 0l-79 482h-648l-285 -482h-90l855 1443h81l242 -1443h-76zM922 1564q-70 0 -119.5 48.5t-49.5 119.5q0 73 50 123t121 50q70 0 120 -48.5t50 -119.5q-1 -73 -51 -123t-121 -50zM922 1613q52 0 86.5 35t34.5 88q0 51 -34 85.5
t-85 34.5q-52 0 -86.5 -35t-34.5 -88q0 -51 34.5 -85.5t84.5 -34.5z" />
    <glyph glyph-name="AE" unicode="&#xc6;" horiz-adv-x="1840" 
d="M1203 1373h-180l-625 -881h618zM911 0l90 422h-650l-297 -422h-90l1020 1443h1011l-16 -73h-696l-127 -597h660l-16 -72h-660l-133 -628h696l-15 -73h-777z" />
    <glyph glyph-name="Ccedilla" unicode="&#xc7;" horiz-adv-x="1356" 
d="M600 -147l82 128q-232 19 -371.5 180t-139.5 413q0 249 95 453t262 320.5t371 116.5q236 0 384 -134t153 -348v-8h-80v7q-6 182 -131.5 295.5t-328.5 113.5q-180 0 -328 -106.5t-232.5 -292.5t-84.5 -411q0 -238 134.5 -382.5t356.5 -144.5q179 0 314.5 91.5t194.5 253.5
h83q-63 -193 -220 -305t-367 -114l-77 -120q88 -5 136 -43.5t48 -106.5q0 -81 -59 -128.5t-154 -47.5q-94 0 -168 37l13 60q69 -36 153 -36q67 0 107.5 28.5t40.5 80.5q0 94 -145 105l-52 3z" />
    <glyph glyph-name="Egrave" unicode="&#xc8;" horiz-adv-x="1060" 
d="M937 73l-15 -73h-842l307 1443h842l-16 -73h-761l-126 -594h725l-16 -72h-725l-133 -631h760zM785 1556l-184 287h86l171 -287h-73z" />
    <glyph glyph-name="Eacute" unicode="&#xc9;" horiz-adv-x="1060" 
d="M937 73l-15 -73h-842l307 1443h842l-16 -73h-761l-126 -594h725l-16 -72h-725l-133 -631h760zM872 1556h-86l336 287h100z" />
    <glyph glyph-name="Ecircumflex" unicode="&#xca;" horiz-adv-x="1060" 
d="M937 73l-15 -73h-842l307 1443h842l-16 -73h-761l-126 -594h725l-16 -72h-725l-133 -631h760zM919 1845l202 -289h-78l-160 232h-3l-259 -232h-90l324 289h64z" />
    <glyph glyph-name="Edieresis" unicode="&#xcb;" horiz-adv-x="1060" 
d="M937 73l-15 -73h-842l307 1443h842l-16 -73h-761l-126 -594h725l-16 -72h-725l-133 -631h760zM707 1605q-28 0 -47.5 19.5t-19.5 46.5q0 28 19.5 47t47.5 19q27 0 46.5 -19t19.5 -47q0 -27 -19.5 -46.5t-46.5 -19.5zM1005 1605q-27 0 -47 19.5t-20 46.5t20 46.5t47 19.5
t47 -19.5t20 -46.5t-20 -46.5t-47 -19.5z" />
    <glyph glyph-name="Igrave" unicode="&#xcc;" horiz-adv-x="346" 
d="M160 0h-80l307 1443h80zM404 1556l-184 287h86l171 -287h-73z" />
    <glyph glyph-name="Iacute" unicode="&#xcd;" horiz-adv-x="346" 
d="M160 0h-80l307 1443h80zM491 1556h-86l336 287h100z" />
    <glyph glyph-name="Icircumflex" unicode="&#xce;" horiz-adv-x="346" 
d="M160 0h-80l307 1443h80zM538 1845l202 -289h-78l-160 232h-3l-259 -232h-90l324 289h64z" />
    <glyph glyph-name="Idieresis" unicode="&#xcf;" horiz-adv-x="346" 
d="M160 0h-80l307 1443h80zM326 1605q-28 0 -47.5 19.5t-19.5 46.5q0 28 19.5 47t47.5 19q27 0 46.5 -19t19.5 -47q0 -27 -19.5 -46.5t-46.5 -19.5zM624 1605q-27 0 -47 19.5t-20 46.5t20 46.5t47 19.5t47 -19.5t20 -46.5t-20 -46.5t-47 -19.5z" />
    <glyph glyph-name="Eth" unicode="&#xd0;" horiz-adv-x="1363" 
d="M178 72h377q224 0 397.5 103.5t267.5 285t94 410.5q0 238 -132 369t-383 131h-346l-127 -598h419l-15 -72h-419zM387 1443h424q278 0 431 -150.5t153 -412.5q0 -254 -103 -454t-294.5 -313t-439.5 -113h-477l149 701h-134l16 72h133z" />
    <glyph glyph-name="Ntilde" unicode="&#xd1;" horiz-adv-x="1355" 
d="M160 0h-80l307 1443h79l646 -1319h4l280 1319h80l-307 -1443h-79l-646 1319h-4zM1105 1551q-36 0 -67 17t-52 41.5t-41 48.5t-45 41t-53 17q-43 0 -78 -41t-48 -112h-62q17 98 69 155t123 57q37 0 68 -17t52.5 -41.5t41 -48.5t44 -41t52.5 -17q41 0 74 40t48 113h62
q-21 -101 -70.5 -156.5t-117.5 -55.5z" />
    <glyph glyph-name="Ograve" unicode="&#xd2;" horiz-adv-x="1455" 
d="M906 1390q-182 0 -332.5 -105.5t-235.5 -287.5t-85 -402q0 -248 136 -395t361 -147q182 0 332 105.5t235 287.5t85 402q0 248 -136 395t-360 147zM747 -21q-258 0 -416 167t-158 443q0 243 95.5 443.5t264.5 316t376 115.5q257 0 415.5 -167t158.5 -443
q0 -243 -95.5 -443.5t-264.5 -316t-376 -115.5zM890 1556l-184 287h86l171 -287h-73z" />
    <glyph glyph-name="Oacute" unicode="&#xd3;" horiz-adv-x="1455" 
d="M906 1390q-182 0 -332.5 -105.5t-235.5 -287.5t-85 -402q0 -248 136 -395t361 -147q182 0 332 105.5t235 287.5t85 402q0 248 -136 395t-360 147zM747 -21q-258 0 -416 167t-158 443q0 243 95.5 443.5t264.5 316t376 115.5q257 0 415.5 -167t158.5 -443
q0 -243 -95.5 -443.5t-264.5 -316t-376 -115.5zM977 1556h-86l336 287h100z" />
    <glyph glyph-name="Ocircumflex" unicode="&#xd4;" horiz-adv-x="1455" 
d="M906 1390q-182 0 -332.5 -105.5t-235.5 -287.5t-85 -402q0 -248 136 -395t361 -147q182 0 332 105.5t235 287.5t85 402q0 248 -136 395t-360 147zM747 -21q-258 0 -416 167t-158 443q0 243 95.5 443.5t264.5 316t376 115.5q257 0 415.5 -167t158.5 -443
q0 -243 -95.5 -443.5t-264.5 -316t-376 -115.5zM1025 1845l202 -289h-78l-160 232h-3l-259 -232h-90l324 289h64z" />
    <glyph glyph-name="Otilde" unicode="&#xd5;" horiz-adv-x="1455" 
d="M906 1390q-182 0 -332.5 -105.5t-235.5 -287.5t-85 -402q0 -248 136 -395t361 -147q182 0 332 105.5t235 287.5t85 402q0 248 -136 395t-360 147zM747 -21q-258 0 -416 167t-158 443q0 243 95.5 443.5t264.5 316t376 115.5q257 0 415.5 -167t158.5 -443
q0 -243 -95.5 -443.5t-264.5 -316t-376 -115.5zM1088 1551q-36 0 -67 17t-52 41.5t-41 48.5t-45 41t-53 17q-43 0 -78 -41t-48 -112h-62q17 98 69 155t123 57q37 0 68 -17t52.5 -41.5t41 -48.5t44 -41t52.5 -17q41 0 74 40t48 113h62q-21 -101 -70.5 -156.5t-117.5 -55.5z
" />
    <glyph glyph-name="Odieresis" unicode="&#xd6;" horiz-adv-x="1455" 
d="M906 1390q-182 0 -332.5 -105.5t-235.5 -287.5t-85 -402q0 -248 136 -395t361 -147q182 0 332 105.5t235 287.5t85 402q0 248 -136 395t-360 147zM747 -21q-258 0 -416 167t-158 443q0 243 95.5 443.5t264.5 316t376 115.5q257 0 415.5 -167t158.5 -443
q0 -243 -95.5 -443.5t-264.5 -316t-376 -115.5zM813 1605q-28 0 -47.5 19.5t-19.5 46.5q0 28 19.5 47t47.5 19q27 0 46.5 -19t19.5 -47q0 -27 -19.5 -46.5t-46.5 -19.5zM1111 1605q-27 0 -47 19.5t-20 46.5t20 46.5t47 19.5t47 -19.5t20 -46.5t-20 -46.5t-47 -19.5z" />
    <glyph glyph-name="multiply" unicode="&#xd7;" horiz-adv-x="1192" 
d="M909 211l-250 317l-389 -321l-45 54l390 322l-251 320l58 47l251 -318l390 321l45 -55l-390 -322l249 -317z" />
    <glyph glyph-name="Oslash" unicode="&#xd8;" horiz-adv-x="1455" 
d="M1321 1170l-949 -950q136 -167 378 -167q182 0 332 105.5t235 287.5t85 402q0 186 -81 322zM334 273l950 950q-137 167 -378 167q-182 0 -332.5 -105.5t-235.5 -287.5t-85 -402q0 -186 81 -322zM1543 1392l-164 -164q104 -154 104 -374q0 -243 -95.5 -443.5t-264.5 -316
t-376 -115.5q-273 0 -432 184l-157 -157l-46 45l164 164q-103 155 -103 374q0 243 95.5 443.5t264.5 316t376 115.5q134 0 244.5 -48t186.5 -137l158 158z" />
    <glyph glyph-name="Ugrave" unicode="&#xd9;" horiz-adv-x="1358" 
d="M669 -21q-220 0 -352.5 119t-132.5 309q-1 68 13 140l191 896h81l-191 -895q-15 -62 -13 -136q2 -163 113.5 -261t301.5 -98q197 0 333 111t178 306l208 973h80l-210 -985q-49 -228 -204.5 -353.5t-395.5 -125.5zM906 1556l-184 287h86l171 -287h-73z" />
    <glyph glyph-name="Uacute" unicode="&#xda;" horiz-adv-x="1358" 
d="M669 -21q-220 0 -352.5 119t-132.5 309q-1 68 13 140l191 896h81l-191 -895q-15 -62 -13 -136q2 -163 113.5 -261t301.5 -98q197 0 333 111t178 306l208 973h80l-210 -985q-49 -228 -204.5 -353.5t-395.5 -125.5zM993 1556h-86l336 287h100z" />
    <glyph glyph-name="Ucircumflex" unicode="&#xdb;" horiz-adv-x="1358" 
d="M669 -21q-220 0 -352.5 119t-132.5 309q-1 68 13 140l191 896h81l-191 -895q-15 -62 -13 -136q2 -163 113.5 -261t301.5 -98q197 0 333 111t178 306l208 973h80l-210 -985q-49 -228 -204.5 -353.5t-395.5 -125.5zM1041 1845l202 -289h-78l-160 232h-3l-259 -232h-90
l324 289h64z" />
    <glyph glyph-name="Udieresis" unicode="&#xdc;" horiz-adv-x="1358" 
d="M669 -21q-220 0 -352.5 119t-132.5 309q-1 68 13 140l191 896h81l-191 -895q-15 -62 -13 -136q2 -163 113.5 -261t301.5 -98q197 0 333 111t178 306l208 973h80l-210 -985q-49 -228 -204.5 -353.5t-395.5 -125.5zM829 1605q-28 0 -47.5 19.5t-19.5 46.5q0 28 19.5 47
t47.5 19q27 0 46.5 -19t19.5 -47q0 -27 -19.5 -46.5t-46.5 -19.5zM1127 1605q-27 0 -47 19.5t-20 46.5t20 46.5t47 19.5t47 -19.5t20 -46.5t-20 -46.5t-47 -19.5z" />
    <glyph glyph-name="Yacute" unicode="&#xdd;" horiz-adv-x="1170" 
d="M573 0h-80l133 631l-350 812h85l316 -736h4l625 736h96l-697 -820zM901 1556h-86l336 287h100z" />
    <glyph glyph-name="Thorn" unicode="&#xde;" horiz-adv-x="1147" 
d="M73 0l307 1443h80l-61 -285h386q176 0 282.5 -98t106.5 -242q0 -208 -146 -336.5t-394 -128.5h-406l-75 -353h-80zM384 1085l-140 -660h395q209 0 331 107t122 277q0 119 -86 197.5t-243 78.5h-379z" />
    <glyph glyph-name="germandbls" unicode="&#xdf;" horiz-adv-x="1092" 
d="M167 0h-77l235 1097q34 160 142 250t266 90q157 0 258 -87.5t101 -224.5q0 -141 -97 -244.5t-244 -119.5l-1 -6q141 -17 227.5 -110t86.5 -229q0 -186 -133.5 -307t-336.5 -121q-120 0 -233 37l16 70q107 -35 214 -35q171 0 282 100t111 254q0 137 -99 221.5t-259 84.5
h-95l17 75h114q143 0 247 93.5t104 222.5q0 113 -79 184t-204 71q-126 0 -216 -77t-118 -210z" />
    <glyph glyph-name="agrave" unicode="&#xe0;" horiz-adv-x="978" 
d="M420 52q143 0 256 88t142 222l38 174l-344 -20q-169 -9 -261 -75t-92 -179q0 -94 72.5 -152t188.5 -58zM405 -16q-141 0 -232.5 76t-91.5 196q0 145 112.5 229.5t318.5 95.5l357 20l19 87q9 42 9 78q0 103 -72 161.5t-199 58.5q-134 0 -224.5 -64.5t-114.5 -175.5h-80
q27 141 142.5 226t282.5 85q155 0 249 -77.5t94 -205.5q0 -45 -10 -89l-145 -685h-76l40 187h-4q-56 -93 -157 -148t-218 -55zM719 1241h-70l-184 303h83z" />
    <glyph glyph-name="aacute" unicode="&#xe1;" horiz-adv-x="978" 
d="M420 52q143 0 256 88t142 222l38 174l-344 -20q-169 -9 -261 -75t-92 -179q0 -94 72.5 -152t188.5 -58zM405 -16q-141 0 -232.5 76t-91.5 196q0 145 112.5 229.5t318.5 95.5l357 20l19 87q9 42 9 78q0 103 -72 161.5t-199 58.5q-134 0 -224.5 -64.5t-114.5 -175.5h-80
q27 141 142.5 226t282.5 85q155 0 249 -77.5t94 -205.5q0 -45 -10 -89l-145 -685h-76l40 187h-4q-56 -93 -157 -148t-218 -55zM718 1241h-82l301 303h93z" />
    <glyph glyph-name="acircumflex" unicode="&#xe2;" horiz-adv-x="978" 
d="M420 52q143 0 256 88t142 222l38 174l-344 -20q-169 -9 -261 -75t-92 -179q0 -94 72.5 -152t188.5 -58zM405 -16q-141 0 -232.5 76t-91.5 196q0 145 112.5 229.5t318.5 95.5l357 20l19 87q9 42 9 78q0 103 -72 161.5t-199 58.5q-134 0 -224.5 -64.5t-114.5 -175.5h-80
q27 141 142.5 226t282.5 85q155 0 249 -77.5t94 -205.5q0 -45 -10 -89l-145 -685h-76l40 187h-4q-56 -93 -157 -148t-218 -55zM776 1544l192 -303h-80l-154 248h-3l-261 -248h-88l323 303h71z" />
    <glyph glyph-name="atilde" unicode="&#xe3;" horiz-adv-x="978" 
d="M420 52q143 0 256 88t142 222l38 174l-344 -20q-169 -9 -261 -75t-92 -179q0 -94 72.5 -152t188.5 -58zM405 -16q-141 0 -232.5 76t-91.5 196q0 145 112.5 229.5t318.5 95.5l357 20l19 87q9 42 9 78q0 103 -72 161.5t-199 58.5q-134 0 -224.5 -64.5t-114.5 -175.5h-80
q27 141 142.5 226t282.5 85q155 0 249 -77.5t94 -205.5q0 -45 -10 -89l-145 -685h-76l40 187h-4q-56 -93 -157 -148t-218 -55zM830 1243q-36 0 -67 17t-52 41.5t-41 48.5t-45 41t-53 17q-43 0 -78 -41t-48 -112h-62q17 98 69 155t123 57q37 0 68 -17t52.5 -41.5t41 -48.5
t44 -41t52.5 -17q41 0 74 40t48 113h62q-21 -101 -70.5 -156.5t-117.5 -55.5z" />
    <glyph glyph-name="adieresis" unicode="&#xe4;" horiz-adv-x="978" 
d="M420 52q143 0 256 88t142 222l38 174l-344 -20q-169 -9 -261 -75t-92 -179q0 -94 72.5 -152t188.5 -58zM405 -16q-141 0 -232.5 76t-91.5 196q0 145 112.5 229.5t318.5 95.5l357 20l19 87q9 42 9 78q0 103 -72 161.5t-199 58.5q-134 0 -224.5 -64.5t-114.5 -175.5h-80
q27 141 142.5 226t282.5 85q155 0 249 -77.5t94 -205.5q0 -45 -10 -89l-145 -685h-76l40 187h-4q-56 -93 -157 -148t-218 -55zM543 1243q-28 0 -47.5 19.5t-19.5 46.5q0 28 19.5 47t47.5 19q27 0 46.5 -19t19.5 -47q0 -27 -19.5 -46.5t-46.5 -19.5zM841 1243q-27 0 -47 19.5
t-20 46.5t20 46.5t47 19.5t47 -19.5t20 -46.5t-20 -46.5t-47 -19.5z" />
    <glyph glyph-name="aring" unicode="&#xe5;" horiz-adv-x="978" 
d="M420 52q143 0 256 88t142 222l38 174l-344 -20q-169 -9 -261 -75t-92 -179q0 -94 72.5 -152t188.5 -58zM405 -16q-141 0 -232.5 76t-91.5 196q0 145 112.5 229.5t318.5 95.5l357 20l19 87q9 42 9 78q0 103 -72 161.5t-199 58.5q-134 0 -224.5 -64.5t-114.5 -175.5h-80
q27 141 142.5 226t282.5 85q155 0 249 -77.5t94 -205.5q0 -45 -10 -89l-145 -685h-76l40 187h-4q-56 -93 -157 -148t-218 -55zM695 1161q-70 0 -119.5 48.5t-49.5 119.5q0 73 50 123t121 50q70 0 120 -48.5t50 -119.5q-1 -73 -51 -123t-121 -50zM695 1210q52 0 86.5 35
t34.5 88q0 51 -34 85.5t-85 34.5q-52 0 -86.5 -35t-34.5 -88q0 -51 34.5 -85.5t84.5 -34.5z" />
    <glyph glyph-name="ae" unicode="&#xe6;" horiz-adv-x="1786" 
d="M1278 -17q-154 0 -257 82.5t-132 223.5h-3q-41 -101 -120 -172t-168 -102.5t-182 -31.5q-142 0 -233 77.5t-91 195.5q0 144 111 223.5t318 89.5l369 19l21 100q9 41 9 78q0 102 -72.5 161t-199.5 59q-135 0 -227.5 -65.5t-114.5 -174.5h-80q26 139 143 225t284 86
q143 0 231 -68t100 -183h4q68 117 178.5 184t239.5 67q170 0 279 -116.5t109 -294.5q0 -56 -13 -127h-827q-10 -70 -10 -110q0 -161 91.5 -258t246.5 -97q125 0 217.5 53t135.5 150h78q-43 -125 -161.5 -199.5t-273.5 -74.5zM966 584h744q5 35 5 66q0 145 -88 241t-224 96
q-153 0 -273 -109.5t-164 -293.5zM431 52q147 0 264 89.5t146 220.5l35 161l-357 -19q-169 -10 -259 -71t-90 -171q0 -93 72.5 -151.5t188.5 -58.5z" />
    <glyph glyph-name="ccedilla" unicode="&#xe7;" horiz-adv-x="1007" 
d="M1041 717h-76q-14 120 -100.5 194.5t-217.5 74.5q-125 0 -228 -73t-162 -201.5t-59 -285.5q0 -168 93 -270t244 -102q121 0 215 62t138 168h78q-49 -135 -161 -216t-258 -85l-79 -124q88 -5 136 -43.5t48 -106.5q0 -81 -59 -128.5t-154 -47.5q-94 0 -168 37l13 60
q69 -36 153 -36q67 0 107.5 28.5t40.5 80.5q0 94 -145 105l-52 3l10 42l85 132q-168 17 -265.5 136.5t-97.5 302.5q0 177 68.5 322t189.5 228t270 83q166 0 273 -95t120 -243v-2z" />
    <glyph glyph-name="egrave" unicode="&#xe8;" horiz-adv-x="1027" 
d="M212 575h740q6 28 6 76q0 151 -83.5 243.5t-230.5 92.5q-161 0 -280 -115t-152 -297zM523 -17q-189 0 -298.5 117t-109.5 312q0 181 68.5 328.5t190 232t272.5 84.5q180 0 285 -110.5t105 -300.5q0 -74 -15 -137h-820q-8 -61 -8 -91q0 -169 90 -267t244 -98
q133 0 229 64.5t139 179.5h79q-47 -144 -167.5 -229t-283.5 -85zM762 1241h-70l-184 303h83z" />
    <glyph glyph-name="eacute" unicode="&#xe9;" horiz-adv-x="1027" 
d="M212 575h740q6 28 6 76q0 151 -83.5 243.5t-230.5 92.5q-161 0 -280 -115t-152 -297zM523 -17q-189 0 -298.5 117t-109.5 312q0 181 68.5 328.5t190 232t272.5 84.5q180 0 285 -110.5t105 -300.5q0 -74 -15 -137h-820q-8 -61 -8 -91q0 -169 90 -267t244 -98
q133 0 229 64.5t139 179.5h79q-47 -144 -167.5 -229t-283.5 -85zM761 1241h-82l301 303h93z" />
    <glyph glyph-name="ecircumflex" unicode="&#xea;" horiz-adv-x="1027" 
d="M212 575h740q6 28 6 76q0 151 -83.5 243.5t-230.5 92.5q-161 0 -280 -115t-152 -297zM523 -17q-189 0 -298.5 117t-109.5 312q0 181 68.5 328.5t190 232t272.5 84.5q180 0 285 -110.5t105 -300.5q0 -74 -15 -137h-820q-8 -61 -8 -91q0 -169 90 -267t244 -98
q133 0 229 64.5t139 179.5h79q-47 -144 -167.5 -229t-283.5 -85zM819 1544l192 -303h-80l-154 248h-3l-261 -248h-88l323 303h71z" />
    <glyph glyph-name="edieresis" unicode="&#xeb;" horiz-adv-x="1027" 
d="M212 575h740q6 28 6 76q0 151 -83.5 243.5t-230.5 92.5q-161 0 -280 -115t-152 -297zM523 -17q-189 0 -298.5 117t-109.5 312q0 181 68.5 328.5t190 232t272.5 84.5q180 0 285 -110.5t105 -300.5q0 -74 -15 -137h-820q-8 -61 -8 -91q0 -169 90 -267t244 -98
q133 0 229 64.5t139 179.5h79q-47 -144 -167.5 -229t-283.5 -85zM586 1243q-28 0 -47.5 19.5t-19.5 46.5q0 28 19.5 47t47.5 19q27 0 46.5 -19t19.5 -47q0 -27 -19.5 -46.5t-46.5 -19.5zM884 1243q-27 0 -47 19.5t-20 46.5t20 46.5t47 19.5t47 -19.5t20 -46.5t-20 -46.5
t-47 -19.5z" />
    <glyph glyph-name="igrave" unicode="&#xec;" horiz-adv-x="317" 
d="M67 0l221 1040h78l-221 -1040h-78zM410 1241h-70l-184 303h83z" />
    <glyph glyph-name="iacute" unicode="&#xed;" horiz-adv-x="317" 
d="M67 0l221 1040h78l-221 -1040h-78zM409 1241h-82l301 303h93z" />
    <glyph glyph-name="icircumflex" unicode="&#xee;" horiz-adv-x="317" 
d="M67 0l221 1040h78l-221 -1040h-78zM467 1544l192 -303h-80l-154 248h-3l-261 -248h-88l323 303h71z" />
    <glyph glyph-name="idieresis" unicode="&#xef;" horiz-adv-x="317" 
d="M67 0l221 1040h78l-221 -1040h-78zM234 1243q-28 0 -47.5 19.5t-19.5 46.5q0 28 19.5 47t47.5 19q27 0 46.5 -19t19.5 -47q0 -27 -19.5 -46.5t-46.5 -19.5zM532 1243q-27 0 -47 19.5t-20 46.5t20 46.5t47 19.5t47 -19.5t20 -46.5t-20 -46.5t-47 -19.5z" />
    <glyph glyph-name="eth" unicode="&#xf0;" horiz-adv-x="1053" 
d="M507 -17q-176 0 -286 116t-110 293q0 180 69 323.5t190.5 223.5t271.5 80q129 0 224.5 -66.5t128.5 -173.5h4q1 4 1 39q-1 226 -125 413l-316 -115l-7 59l289 106q-68 82 -161 152h96q69 -52 133 -129l275 104l6 -60l-250 -96q131 -207 131 -459q0 -138 -32 -295
q-50 -240 -192 -377.5t-340 -137.5zM971 623q0 146 -91.5 235t-239.5 89q-191 0 -319.5 -154t-128.5 -387q0 -159 87.5 -255.5t236.5 -96.5q123 0 227.5 76t166 207.5t61.5 285.5z" />
    <glyph glyph-name="ntilde" unicode="&#xf1;" horiz-adv-x="1047" 
d="M61 0l221 1040h75l-44 -208h4q61 104 158.5 164.5t221.5 60.5q150 0 245 -88t95 -222q0 -53 -12 -110l-136 -637h-78l132 622q14 61 14 107q0 116 -77.5 186.5t-207.5 70.5q-145 0 -255 -99t-141 -246l-138 -641h-77zM882 1243q-36 0 -67 17t-52 41.5t-41 48.5t-45 41
t-53 17q-43 0 -78 -41t-48 -112h-62q17 98 69 155t123 57q37 0 68 -17t52.5 -41.5t41 -48.5t44 -41t52.5 -17q41 0 74 40t48 113h62q-21 -101 -70.5 -156.5t-117.5 -55.5z" />
    <glyph glyph-name="ograve" unicode="&#xf2;" horiz-adv-x="1080" 
d="M542 54q194 0 325 160.5t131 398.5q0 169 -94 271t-251 102q-127 0 -231.5 -73t-164 -201t-59.5 -285q0 -169 94 -271t250 -102zM653 1057q192 0 307.5 -121t115.5 -321q0 -178 -69.5 -322.5t-192 -227t-272.5 -82.5q-192 0 -307 121t-115 321q0 177 69.5 322
t191.5 227.5t272 82.5zM773 1241h-70l-184 303h83z" />
    <glyph glyph-name="oacute" unicode="&#xf3;" horiz-adv-x="1080" 
d="M542 54q194 0 325 160.5t131 398.5q0 169 -94 271t-251 102q-127 0 -231.5 -73t-164 -201t-59.5 -285q0 -169 94 -271t250 -102zM653 1057q192 0 307.5 -121t115.5 -321q0 -178 -69.5 -322.5t-192 -227t-272.5 -82.5q-192 0 -307 121t-115 321q0 177 69.5 322
t191.5 227.5t272 82.5zM772 1241h-82l301 303h93z" />
    <glyph glyph-name="ocircumflex" unicode="&#xf4;" horiz-adv-x="1080" 
d="M542 54q194 0 325 160.5t131 398.5q0 169 -94 271t-251 102q-127 0 -231.5 -73t-164 -201t-59.5 -285q0 -169 94 -271t250 -102zM653 1057q192 0 307.5 -121t115.5 -321q0 -178 -69.5 -322.5t-192 -227t-272.5 -82.5q-192 0 -307 121t-115 321q0 177 69.5 322
t191.5 227.5t272 82.5zM830 1544l192 -303h-80l-154 248h-3l-261 -248h-88l323 303h71z" />
    <glyph glyph-name="otilde" unicode="&#xf5;" horiz-adv-x="1080" 
d="M542 54q194 0 325 160.5t131 398.5q0 169 -94 271t-251 102q-127 0 -231.5 -73t-164 -201t-59.5 -285q0 -169 94 -271t250 -102zM653 1057q192 0 307.5 -121t115.5 -321q0 -178 -69.5 -322.5t-192 -227t-272.5 -82.5q-192 0 -307 121t-115 321q0 177 69.5 322
t191.5 227.5t272 82.5zM884 1243q-36 0 -67 17t-52 41.5t-41 48.5t-45 41t-53 17q-43 0 -78 -41t-48 -112h-62q17 98 69 155t123 57q37 0 68 -17t52.5 -41.5t41 -48.5t44 -41t52.5 -17q41 0 74 40t48 113h62q-21 -101 -70.5 -156.5t-117.5 -55.5z" />
    <glyph glyph-name="odieresis" unicode="&#xf6;" horiz-adv-x="1080" 
d="M542 54q194 0 325 160.5t131 398.5q0 169 -94 271t-251 102q-127 0 -231.5 -73t-164 -201t-59.5 -285q0 -169 94 -271t250 -102zM653 1057q192 0 307.5 -121t115.5 -321q0 -178 -69.5 -322.5t-192 -227t-272.5 -82.5q-192 0 -307 121t-115 321q0 177 69.5 322
t191.5 227.5t272 82.5zM597 1243q-28 0 -47.5 19.5t-19.5 46.5q0 28 19.5 47t47.5 19q27 0 46.5 -19t19.5 -47q0 -27 -19.5 -46.5t-46.5 -19.5zM895 1243q-27 0 -47 19.5t-20 46.5t20 46.5t47 19.5t47 -19.5t20 -46.5t-20 -46.5t-47 -19.5z" />
    <glyph glyph-name="divide" unicode="&#xf7;" horiz-adv-x="1192" 
d="M1149 541h-981l15 69h980zM733 832q-35 0 -59 24t-24 59t24 58.5t59 23.5q34 0 58 -23.5t24 -58.5t-24 -59t-58 -24zM583 138q-35 0 -59 24t-24 58q0 35 24 59t59 24q34 0 58 -24t24 -59q0 -34 -24 -58t-58 -24z" />
    <glyph glyph-name="oslash" unicode="&#xf8;" horiz-adv-x="1080" 
d="M946 826l-662 -662q94 -110 258 -110q194 0 325 160.5t131 398.5q0 124 -52 213zM249 214l662 662q-94 110 -258 110q-127 0 -231.5 -73t-164 -201t-59.5 -285q0 -122 51 -213zM1120 1000l-117 -117q73 -112 73 -268q0 -178 -69.5 -322.5t-192 -227t-272.5 -82.5
q-198 0 -312 127l-112 -112l-43 42l118 118q-73 110 -73 267q0 177 69.5 322t191.5 227.5t272 82.5q196 0 313 -126l111 111z" />
    <glyph glyph-name="ugrave" unicode="&#xf9;" horiz-adv-x="1048" 
d="M1102 1040l-221 -1040h-74l44 204h-4q-58 -99 -158 -160t-224 -61q-151 0 -244 87t-93 220q0 54 11 115l136 635h77l-132 -622q-13 -57 -13 -108q0 -118 75 -187t206 -69q147 0 258 99.5t142 245.5l138 641h76zM756 1241h-70l-184 303h83z" />
    <glyph glyph-name="uacute" unicode="&#xfa;" horiz-adv-x="1048" 
d="M1102 1040l-221 -1040h-74l44 204h-4q-58 -99 -158 -160t-224 -61q-151 0 -244 87t-93 220q0 54 11 115l136 635h77l-132 -622q-13 -57 -13 -108q0 -118 75 -187t206 -69q147 0 258 99.5t142 245.5l138 641h76zM755 1241h-82l301 303h93z" />
    <glyph glyph-name="ucircumflex" unicode="&#xfb;" horiz-adv-x="1048" 
d="M1102 1040l-221 -1040h-74l44 204h-4q-58 -99 -158 -160t-224 -61q-151 0 -244 87t-93 220q0 54 11 115l136 635h77l-132 -622q-13 -57 -13 -108q0 -118 75 -187t206 -69q147 0 258 99.5t142 245.5l138 641h76zM813 1544l192 -303h-80l-154 248h-3l-261 -248h-88l323 303
h71z" />
    <glyph glyph-name="udieresis" unicode="&#xfc;" horiz-adv-x="1048" 
d="M1102 1040l-221 -1040h-74l44 204h-4q-58 -99 -158 -160t-224 -61q-151 0 -244 87t-93 220q0 54 11 115l136 635h77l-132 -622q-13 -57 -13 -108q0 -118 75 -187t206 -69q147 0 258 99.5t142 245.5l138 641h76zM580 1243q-28 0 -47.5 19.5t-19.5 46.5q0 28 19.5 47
t47.5 19q27 0 46.5 -19t19.5 -47q0 -27 -19.5 -46.5t-46.5 -19.5zM878 1243q-27 0 -47 19.5t-20 46.5t20 46.5t47 19.5t47 -19.5t20 -46.5t-20 -46.5t-47 -19.5z" />
    <glyph glyph-name="yacute" unicode="&#xfd;" horiz-adv-x="895" 
d="M72 -356q-37 0 -69 8l12 68q29 -8 60 -8q67 0 120.5 43t112.5 145l50 88l-177 1052h78l156 -959h4l551 959h87l-681 -1168q-75 -130 -143 -179t-161 -49zM694 1241h-82l301 303h93z" />
    <glyph glyph-name="thorn" unicode="&#xfe;" horiz-adv-x="1106" 
d="M580 54q124 0 226.5 73t161.5 201t59 282q0 175 -86 275.5t-236 100.5q-124 0 -229.5 -78.5t-165.5 -210.5t-60 -284q0 -161 91 -260t239 -99zM211 299l-142 -669h-78l386 1816h77l-135 -640h3q63 116 169.5 183t229.5 67q175 0 279 -120.5t104 -321.5q0 -176 -69 -320.5
t-189.5 -227t-266.5 -82.5q-145 0 -246.5 88.5t-118.5 226.5h-3z" />
    <glyph glyph-name="ydieresis" unicode="&#xff;" horiz-adv-x="895" 
d="M72 -356q-37 0 -69 8l12 68q29 -8 60 -8q67 0 120.5 43t112.5 145l50 88l-177 1052h78l156 -959h4l551 959h87l-681 -1168q-75 -130 -143 -179t-161 -49zM519 1243q-28 0 -47.5 19.5t-19.5 46.5q0 28 19.5 47t47.5 19q27 0 46.5 -19t19.5 -47q0 -27 -19.5 -46.5
t-46.5 -19.5zM817 1243q-27 0 -47 19.5t-20 46.5t20 46.5t47 19.5t47 -19.5t20 -46.5t-20 -46.5t-47 -19.5z" />
    <glyph glyph-name="Amacron" unicode="&#x100;" horiz-adv-x="1221" 
d="M846 1341l-463 -789h598l-131 789h-4zM1071 0l-79 482h-648l-285 -482h-90l855 1443h81l242 -1443h-76zM1211 1679l-13 -59h-594l13 59h594z" />
    <glyph glyph-name="amacron" unicode="&#x101;" horiz-adv-x="978" 
d="M420 52q143 0 256 88t142 222l38 174l-344 -20q-169 -9 -261 -75t-92 -179q0 -94 72.5 -152t188.5 -58zM405 -16q-141 0 -232.5 76t-91.5 196q0 145 112.5 229.5t318.5 95.5l357 20l19 87q9 42 9 78q0 103 -72 161.5t-199 58.5q-134 0 -224.5 -64.5t-114.5 -175.5h-80
q27 141 142.5 226t282.5 85q155 0 249 -77.5t94 -205.5q0 -45 -10 -89l-145 -685h-76l40 187h-4q-56 -93 -157 -148t-218 -55zM963 1358l-13 -60h-519l12 60h520z" />
    <glyph glyph-name="Abreve" unicode="&#x102;" horiz-adv-x="1221" 
d="M846 1341l-463 -789h598l-131 789h-4zM1071 0l-79 482h-648l-285 -482h-90l855 1443h81l242 -1443h-76zM645 1788h64q-2 -8 -2 -21q0 -73 52 -116t139 -43q88 0 150 49.5t74 130.5h64q-16 -109 -97 -173t-202 -64q-109 0 -177 57t-68 152q0 19 3 28z" />
    <glyph glyph-name="abreve" unicode="&#x103;" horiz-adv-x="978" 
d="M420 52q143 0 256 88t142 222l38 174l-344 -20q-169 -9 -261 -75t-92 -179q0 -94 72.5 -152t188.5 -58zM405 -16q-141 0 -232.5 76t-91.5 196q0 145 112.5 229.5t318.5 95.5l357 20l19 87q9 42 9 78q0 103 -72 161.5t-199 58.5q-134 0 -224.5 -64.5t-114.5 -175.5h-80
q27 141 142.5 226t282.5 85q155 0 249 -77.5t94 -205.5q0 -45 -10 -89l-145 -685h-76l40 187h-4q-56 -93 -157 -148t-218 -55zM437 1491h64q-4 -22 -4 -35q0 -74 51.5 -117t140.5 -43q90 0 151.5 53.5t71.5 141.5h64q-13 -114 -93.5 -183.5t-202.5 -69.5q-111 0 -179.5 58
t-68.5 152q0 21 5 43z" />
    <glyph glyph-name="Aogonek" unicode="&#x104;" horiz-adv-x="1221" 
d="M1068 -318l-13 -61q-30 -14 -82 -14q-71 0 -117 40t-46 102q0 78 66.5 144.5t193.5 116.5l-80 472h-647l-283 -482h-91l854 1443h81l243 -1441l-6 -4q-257 -103 -257 -231q0 -43 32 -70.5t82 -27.5q47 0 70 13zM844 1340l-461 -788h597l-132 788h-4z" />
    <glyph glyph-name="aogonek" unicode="&#x105;" horiz-adv-x="978" 
d="M419 55q146 0 258 87.5t141 219.5l38 174l-345 -20q-168 -9 -260 -75.5t-92 -178.5q0 -92 72 -149.5t188 -57.5zM728 -376q-30 -14 -83 -14q-71 0 -116.5 39t-45.5 101q0 151 265 265l36 172h-4q-55 -91 -156 -145.5t-220 -54.5q-142 0 -232.5 75.5t-90.5 193.5
q0 145 112.5 229.5t319.5 95.5l356 20l19 87q9 41 9 78q0 102 -72.5 160t-199.5 58q-134 0 -224 -64t-114 -174h-80q27 140 142 224t281 84q156 0 250.5 -76.5t94.5 -203.5q0 -44 -10 -89l-147 -690l-2 -1q-259 -109 -259 -227q0 -42 31.5 -68.5t81.5 -26.5q46 0 70 12z" />
    <glyph glyph-name="Cacute" unicode="&#x106;" horiz-adv-x="1356" 
d="M1356 974v7q-6 182 -131.5 295.5t-328.5 113.5q-180 0 -328 -106.5t-232.5 -292.5t-84.5 -411q0 -238 134.5 -382.5t356.5 -144.5q179 0 314.5 91.5t194.5 253.5h83q-64 -195 -223 -307t-372 -112q-256 0 -412 163.5t-156 431.5q0 249 95 453t262 320.5t371 116.5
q236 0 384 -134t153 -348v-8h-80zM984 1557h-86l336 287h100z" />
    <glyph glyph-name="cacute" unicode="&#x107;" horiz-adv-x="1007" 
d="M648 1057q166 0 273 -95t120 -243v-2h-76q-14 120 -100.5 194.5t-217.5 74.5q-125 0 -228 -73t-162 -201.5t-59 -285.5q0 -168 93 -270t244 -102q121 0 215 62t138 168h78q-50 -138 -165.5 -219.5t-266.5 -81.5q-189 0 -301.5 121.5t-112.5 319.5q0 177 68.5 322
t189.5 228t270 83zM771 1241h-82l301 303h93z" />
    <glyph glyph-name="Ccircumflex" unicode="&#x108;" horiz-adv-x="1356" 
d="M1356 974v7q-6 182 -131.5 295.5t-328.5 113.5q-180 0 -328 -106.5t-232.5 -292.5t-84.5 -411q0 -238 134.5 -382.5t356.5 -144.5q179 0 314.5 91.5t194.5 253.5h83q-64 -195 -223 -307t-372 -112q-256 0 -412 163.5t-156 431.5q0 249 95 453t262 320.5t371 116.5
q236 0 384 -134t153 -348v-8h-80zM1031 1846l202 -289h-78l-160 232h-3l-259 -232h-90l324 289h64z" />
    <glyph glyph-name="ccircumflex" unicode="&#x109;" horiz-adv-x="1007" 
d="M648 1057q166 0 273 -95t120 -243v-2h-76q-14 120 -100.5 194.5t-217.5 74.5q-125 0 -228 -73t-162 -201.5t-59 -285.5q0 -168 93 -270t244 -102q121 0 215 62t138 168h78q-50 -138 -165.5 -219.5t-266.5 -81.5q-189 0 -301.5 121.5t-112.5 319.5q0 177 68.5 322
t189.5 228t270 83zM829 1544l192 -303h-80l-154 248h-3l-261 -248h-88l323 303h71z" />
    <glyph glyph-name="Cdotaccent" unicode="&#x10a;" horiz-adv-x="1356" 
d="M1356 974v7q-6 182 -131.5 295.5t-328.5 113.5q-180 0 -328 -106.5t-232.5 -292.5t-84.5 -411q0 -238 134.5 -382.5t356.5 -144.5q179 0 314.5 91.5t194.5 253.5h83q-64 -195 -223 -307t-372 -112q-256 0 -412 163.5t-156 431.5q0 249 95 453t262 320.5t371 116.5
q236 0 384 -134t153 -348v-8h-80zM976 1645q-32 0 -55 23t-23 54q0 32 23 55t55 23t55 -23t23 -55q0 -31 -23 -54t-55 -23z" />
    <glyph glyph-name="cdotaccent" unicode="&#x10b;" horiz-adv-x="1007" 
d="M648 1057q166 0 273 -95t120 -243v-2h-76q-14 120 -100.5 194.5t-217.5 74.5q-125 0 -228 -73t-162 -201.5t-59 -285.5q0 -168 93 -270t244 -102q121 0 215 62t138 168h78q-50 -138 -165.5 -219.5t-266.5 -81.5q-189 0 -301.5 121.5t-112.5 319.5q0 177 68.5 322
t189.5 228t270 83zM745 1241q-31 0 -54 22.5t-23 54.5t23 55t54 23q32 0 55 -23t23 -55t-23 -54.5t-55 -22.5z" />
    <glyph glyph-name="Ccaron" unicode="&#x10c;" horiz-adv-x="1356" 
d="M1356 974v7q-6 182 -131.5 295.5t-328.5 113.5q-180 0 -328 -106.5t-232.5 -292.5t-84.5 -411q0 -238 134.5 -382.5t356.5 -144.5q179 0 314.5 91.5t194.5 253.5h83q-64 -195 -223 -307t-372 -112q-256 0 -412 163.5t-156 431.5q0 249 95 453t262 320.5t371 116.5
q236 0 384 -134t153 -348v-8h-80zM916 1557l-201 289h78l159 -232h4l258 232h90l-324 -289h-64z" />
    <glyph glyph-name="ccaron" unicode="&#x10d;" horiz-adv-x="1007" 
d="M648 1057q166 0 273 -95t120 -243v-2h-76q-14 120 -100.5 194.5t-217.5 74.5q-125 0 -228 -73t-162 -201.5t-59 -285.5q0 -168 93 -270t244 -102q121 0 215 62t138 168h78q-50 -138 -165.5 -219.5t-266.5 -81.5q-189 0 -301.5 121.5t-112.5 319.5q0 177 68.5 322
t189.5 228t270 83zM772 1241h-71l-192 303h78l154 -249h3l262 249h89z" />
    <glyph glyph-name="Dcaron" unicode="&#x10e;" horiz-adv-x="1363" 
d="M387 1443h424q278 0 431 -150.5t153 -412.5q0 -254 -103 -454t-294.5 -313t-439.5 -113h-477zM453 1371l-275 -1299h377q224 0 397.5 103.5t267.5 285t94 410.5q0 238 -132 369t-383 131h-346zM773 1556l-201 289h78l159 -232h4l258 232h90l-324 -289h-64z" />
    <glyph glyph-name="dcaron" unicode="&#x10f;" horiz-adv-x="1239" 
d="M1416 1443h77l-103 -385h-56zM493 -16q-170 0 -275 117.5t-105 306.5q0 131 43 251t115.5 207t171.5 138.5t207 51.5q145 0 245.5 -87.5t116.5 -225.5h4l150 700h78l-307 -1443h-79l50 234h-4q-62 -114 -174 -182t-237 -68zM509 54q132 0 239.5 79t166.5 210t59 284
q0 163 -88.5 261t-236.5 98q-121 0 -227 -77.5t-169 -210t-63 -284.5q0 -163 87 -261.5t232 -98.5z" />
    <glyph glyph-name="Dcroat" unicode="&#x110;" horiz-adv-x="1363" 
d="M178 72h377q224 0 397.5 103.5t267.5 285t94 410.5q0 238 -132 369t-383 131h-346l-127 -598h419l-15 -72h-419zM387 1443h424q278 0 431 -150.5t153 -412.5q0 -254 -103 -454t-294.5 -313t-439.5 -113h-477l149 701h-134l16 72h133z" />
    <glyph glyph-name="dcroat" unicode="&#x111;" horiz-adv-x="1104" 
d="M509 54q132 0 239.5 79t166.5 210t59 284q0 163 -88.5 261t-236.5 98q-121 0 -227 -77.5t-169 -210t-63 -284.5q0 -163 87 -261.5t232 -98.5zM1327 1298l-14 -66h-114l-262 -1232h-79l50 234h-4q-62 -114 -174 -182t-237 -68q-170 0 -275 117.5t-105 306.5q0 131 43 251
t115.5 207t171.5 138.5t207 51.5q145 0 245.5 -87.5t116.5 -225.5h4l105 489h-286l15 66h285l31 145h78l-31 -145h114z" />
    <glyph glyph-name="Emacron" unicode="&#x112;" horiz-adv-x="1060" 
d="M937 73l-15 -73h-842l307 1443h842l-16 -73h-761l-126 -594h725l-16 -72h-725l-133 -631h760zM1156 1679l-13 -59h-594l13 59h594z" />
    <glyph glyph-name="emacron" unicode="&#x113;" horiz-adv-x="1027" 
d="M212 575h740q6 28 6 76q0 151 -83.5 243.5t-230.5 92.5q-161 0 -280 -115t-152 -297zM523 -17q-189 0 -298.5 117t-109.5 312q0 181 68.5 328.5t190 232t272.5 84.5q180 0 285 -110.5t105 -300.5q0 -74 -15 -137h-820q-8 -61 -8 -91q0 -169 90 -267t244 -98
q133 0 229 64.5t139 179.5h79q-47 -144 -167.5 -229t-283.5 -85zM1006 1358l-13 -60h-519l12 60h520z" />
    <glyph glyph-name="Ebreve" unicode="&#x114;" horiz-adv-x="1060" 
d="M937 73l-15 -73h-842l307 1443h842l-16 -73h-761l-126 -594h725l-16 -72h-725l-133 -631h760zM590 1788h64q-2 -8 -2 -21q0 -73 52 -116t139 -43q88 0 150 49.5t74 130.5h64q-16 -109 -97 -173t-202 -64q-109 0 -177 57t-68 152q0 19 3 28z" />
    <glyph glyph-name="ebreve" unicode="&#x115;" horiz-adv-x="1027" 
d="M212 575h740q6 28 6 76q0 151 -83.5 243.5t-230.5 92.5q-161 0 -280 -115t-152 -297zM523 -17q-189 0 -298.5 117t-109.5 312q0 181 68.5 328.5t190 232t272.5 84.5q180 0 285 -110.5t105 -300.5q0 -74 -15 -137h-820q-8 -61 -8 -91q0 -169 90 -267t244 -98
q133 0 229 64.5t139 179.5h79q-47 -144 -167.5 -229t-283.5 -85zM480 1491h64q-4 -22 -4 -35q0 -74 51.5 -117t140.5 -43q90 0 151.5 53.5t71.5 141.5h64q-13 -114 -93.5 -183.5t-202.5 -69.5q-111 0 -179.5 58t-68.5 152q0 21 5 43z" />
    <glyph glyph-name="Edotaccent" unicode="&#x116;" horiz-adv-x="1060" 
d="M937 73l-15 -73h-842l307 1443h842l-16 -73h-761l-126 -594h725l-16 -72h-725l-133 -631h760zM864 1644q-32 0 -55 23t-23 54t23 54.5t55 23.5t55 -23.5t23 -54.5t-23 -54t-55 -23z" />
    <glyph glyph-name="edotaccent" unicode="&#x117;" horiz-adv-x="1027" 
d="M212 575h740q6 28 6 76q0 151 -83.5 243.5t-230.5 92.5q-161 0 -280 -115t-152 -297zM523 -17q-189 0 -298.5 117t-109.5 312q0 181 68.5 328.5t190 232t272.5 84.5q180 0 285 -110.5t105 -300.5q0 -74 -15 -137h-820q-8 -61 -8 -91q0 -169 90 -267t244 -98
q133 0 229 64.5t139 179.5h79q-47 -144 -167.5 -229t-283.5 -85zM735 1241q-31 0 -54 22.5t-23 54.5t23 55t54 23q32 0 55 -23t23 -55t-23 -54.5t-55 -22.5z" />
    <glyph glyph-name="Eogonek" unicode="&#x118;" horiz-adv-x="1060" 
d="M80 0l307 1443h842l-16 -73h-761l-127 -594h726l-16 -72h-725l-134 -631h761l-14 -69l-5 -3q-136 -62 -199 -118.5t-63 -115.5q0 -43 32.5 -70.5t82.5 -27.5q46 0 69 13l-12 -61q-30 -14 -82 -14q-72 0 -117.5 40t-45.5 102q0 144 237 250v1h-740z" />
    <glyph glyph-name="eogonek" unicode="&#x119;" horiz-adv-x="1027" 
d="M522 -390q-70 0 -115 39t-45 101q0 67 50 123.5t157 110.5v1q-18 -2 -47 -2q-190 0 -299.5 117t-109.5 312q0 181 68.5 328.5t190.5 232t273 84.5q179 0 284.5 -110.5t105.5 -300.5q0 -74 -15 -137h-820q-8 -61 -8 -91q0 -168 90 -266.5t243 -98.5q133 0 229 64.5
t139 179.5h79q-32 -100 -98.5 -168t-137.5 -99q-163 -79 -232 -139t-69 -124q0 -42 31 -68.5t81 -26.5t71 12l-13 -60q-28 -14 -83 -14zM211 575h739q7 27 7 76q0 151 -84 243.5t-231 92.5q-161 0 -279.5 -115t-151.5 -297z" />
    <glyph glyph-name="Ecaron" unicode="&#x11a;" horiz-adv-x="1060" 
d="M937 73l-15 -73h-842l307 1443h842l-16 -73h-761l-126 -594h725l-16 -72h-725l-133 -631h760zM804 1556l-201 289h78l159 -232h4l258 232h90l-324 -289h-64z" />
    <glyph glyph-name="ecaron" unicode="&#x11b;" horiz-adv-x="1027" 
d="M212 575h740q6 28 6 76q0 151 -83.5 243.5t-230.5 92.5q-161 0 -280 -115t-152 -297zM523 -17q-189 0 -298.5 117t-109.5 312q0 181 68.5 328.5t190 232t272.5 84.5q180 0 285 -110.5t105 -300.5q0 -74 -15 -137h-820q-8 -61 -8 -91q0 -169 90 -267t244 -98
q133 0 229 64.5t139 179.5h79q-47 -144 -167.5 -229t-283.5 -85zM762 1241h-71l-192 303h78l154 -249h3l262 249h89z" />
    <glyph glyph-name="Gcircumflex" unicode="&#x11c;" horiz-adv-x="1374" 
d="M1392 701l-41 -188q-56 -255 -217.5 -394.5t-398.5 -139.5q-255 0 -409.5 164.5t-154.5 430.5q0 178 52.5 340t145 284t229.5 194t297 72q225 0 369 -123.5t162 -327.5v-4h-80q-20 175 -142 278t-312 103q-140 0 -261 -66t-203.5 -177t-129.5 -258.5t-47 -308.5
q0 -237 132.5 -382t354.5 -145q203 0 344.5 123.5t190.5 342.5l24 111h-480l15 71h560zM1001 1845l202 -289h-78l-160 232h-3l-259 -232h-90l324 289h64z" />
    <glyph glyph-name="gcircumflex" unicode="&#x11d;" horiz-adv-x="1097" 
d="M456 -375q-173 0 -286 83t-115 202h80q8 -93 96.5 -155t228.5 -62q151 0 254.5 81.5t135.5 226.5l55 246h-4q-59 -115 -167 -181.5t-234 -66.5q-175 0 -280 115.5t-105 308.5q0 168 69 313t192.5 232.5t272.5 87.5q147 0 244.5 -86.5t111.5 -226.5h5l64 297h77
l-223 -1042q-38 -177 -163.5 -275t-308.5 -98zM515 69q128 0 232.5 75t163 203.5t58.5 282.5q0 162 -88 259t-233 97q-124 0 -229 -76t-165.5 -205t-60.5 -279q0 -165 85.5 -261t236.5 -96zM841 1544l192 -303h-80l-154 248h-3l-261 -248h-88l323 303h71z" />
    <glyph glyph-name="Gbreve" unicode="&#x11e;" horiz-adv-x="1374" 
d="M1392 701l-41 -188q-56 -255 -217.5 -394.5t-398.5 -139.5q-255 0 -409.5 164.5t-154.5 430.5q0 178 52.5 340t145 284t229.5 194t297 72q225 0 369 -123.5t162 -327.5v-4h-80q-20 175 -142 278t-312 103q-140 0 -261 -66t-203.5 -177t-129.5 -258.5t-47 -308.5
q0 -237 132.5 -382t354.5 -145q203 0 344.5 123.5t190.5 342.5l24 111h-480l15 71h560zM672 1788h64q-2 -8 -2 -21q0 -73 52 -116t139 -43q88 0 150 49.5t74 130.5h64q-16 -109 -97 -173t-202 -64q-109 0 -177 57t-68 152q0 19 3 28z" />
    <glyph glyph-name="gbreve" unicode="&#x11f;" horiz-adv-x="1097" 
d="M456 -375q-173 0 -286 83t-115 202h80q8 -93 96.5 -155t228.5 -62q151 0 254.5 81.5t135.5 226.5l55 246h-4q-59 -115 -167 -181.5t-234 -66.5q-175 0 -280 115.5t-105 308.5q0 168 69 313t192.5 232.5t272.5 87.5q147 0 244.5 -86.5t111.5 -226.5h5l64 297h77
l-223 -1042q-38 -177 -163.5 -275t-308.5 -98zM515 69q128 0 232.5 75t163 203.5t58.5 282.5q0 162 -88 259t-233 97q-124 0 -229 -76t-165.5 -205t-60.5 -279q0 -165 85.5 -261t236.5 -96zM502 1491h64q-4 -22 -4 -35q0 -74 51.5 -117t140.5 -43q90 0 151.5 53.5
t71.5 141.5h64q-13 -114 -93.5 -183.5t-202.5 -69.5q-111 0 -179.5 58t-68.5 152q0 21 5 43z" />
    <glyph glyph-name="Gdotaccent" unicode="&#x120;" horiz-adv-x="1374" 
d="M1392 701l-41 -188q-56 -255 -217.5 -394.5t-398.5 -139.5q-255 0 -409.5 164.5t-154.5 430.5q0 178 52.5 340t145 284t229.5 194t297 72q225 0 369 -123.5t162 -327.5v-4h-80q-20 175 -142 278t-312 103q-140 0 -261 -66t-203.5 -177t-129.5 -258.5t-47 -308.5
q0 -237 132.5 -382t354.5 -145q203 0 344.5 123.5t190.5 342.5l24 111h-480l15 71h560zM946 1644q-32 0 -55 23t-23 54t23 54.5t55 23.5t55 -23.5t23 -54.5t-23 -54t-55 -23z" />
    <glyph glyph-name="gdotaccent" unicode="&#x121;" horiz-adv-x="1097" 
d="M456 -375q-173 0 -286 83t-115 202h80q8 -93 96.5 -155t228.5 -62q151 0 254.5 81.5t135.5 226.5l55 246h-4q-59 -115 -167 -181.5t-234 -66.5q-175 0 -280 115.5t-105 308.5q0 168 69 313t192.5 232.5t272.5 87.5q147 0 244.5 -86.5t111.5 -226.5h5l64 297h77
l-223 -1042q-38 -177 -163.5 -275t-308.5 -98zM515 69q128 0 232.5 75t163 203.5t58.5 282.5q0 162 -88 259t-233 97q-124 0 -229 -76t-165.5 -205t-60.5 -279q0 -165 85.5 -261t236.5 -96zM757 1241q-31 0 -54 22.5t-23 54.5t23 55t54 23q32 0 55 -23t23 -55t-23 -54.5
t-55 -22.5z" />
    <glyph glyph-name="Gcommaaccent" unicode="&#x122;" horiz-adv-x="1374" 
d="M1392 701l-41 -188q-56 -255 -217.5 -394.5t-398.5 -139.5q-255 0 -409.5 164.5t-154.5 430.5q0 178 52.5 340t145 284t229.5 194t297 72q225 0 369 -123.5t162 -327.5v-4h-80q-20 175 -142 278t-312 103q-140 0 -261 -66t-203.5 -177t-129.5 -258.5t-47 -308.5
q0 -237 132.5 -382t354.5 -145q203 0 344.5 123.5t190.5 342.5l24 111h-480l15 71h560zM559 -475h-66l175 341h82z" />
    <glyph glyph-name="gcommaaccent" unicode="&#x123;" horiz-adv-x="1097" 
d="M456 -375q-173 0 -286 83t-115 202h80q8 -93 96.5 -155t228.5 -62q151 0 254.5 81.5t135.5 226.5l55 246h-4q-59 -115 -167 -181.5t-234 -66.5q-175 0 -280 115.5t-105 308.5q0 168 69 313t192.5 232.5t272.5 87.5q147 0 244.5 -86.5t111.5 -226.5h5l64 297h77
l-223 -1042q-38 -177 -163.5 -275t-308.5 -98zM515 69q128 0 232.5 75t163 203.5t58.5 282.5q0 162 -88 259t-233 97q-124 0 -229 -76t-165.5 -205t-60.5 -279q0 -165 85.5 -261t236.5 -96zM981 1515h66l-175 -341h-82z" />
    <glyph glyph-name="Hcircumflex" unicode="&#x124;" horiz-adv-x="1338" 
d="M1152 0h-80l150 705h-912l-150 -705h-80l307 1443h80l-141 -666h912l141 666h80zM1032 1845l202 -289h-78l-160 232h-3l-259 -232h-90l324 289h64z" />
    <glyph glyph-name="hcircumflex" unicode="&#x125;" horiz-adv-x="1056" 
d="M62 0l309 1443h78l-130 -607h4q58 100 155 160t221 60q153 0 248.5 -90t95.5 -227q0 -55 -10 -102l-138 -637h-77l133 622q12 57 12 98q0 120 -78 193t-210 73q-147 0 -256.5 -99t-140.5 -246l-138 -641h-78zM520 1845l202 -289h-78l-160 232h-3l-259 -232h-90l324 289
h64z" />
    <glyph glyph-name="Hbar" unicode="&#x126;" horiz-adv-x="1338" 
d="M1238 777l69 327h-912l-69 -327h912zM1504 1176l-16 -72h-101l-235 -1104h-80l150 705h-912l-150 -705h-80l235 1104h-99l16 72h98l57 267h80l-57 -267h912l57 267h80l-57 -267h102z" />
    <glyph glyph-name="hbar" unicode="&#x127;" horiz-adv-x="1056" 
d="M319 836h4q58 100 155 160t221 60q153 0 248.5 -90t95.5 -227q0 -55 -10 -102l-138 -637h-77l133 622q12 57 12 98q0 120 -78 193t-210 73q-147 0 -256.5 -99t-140.5 -246l-138 -641h-78l264 1234h-116l13 62h117l31 147h78l-31 -147h277l-13 -62h-278z" />
    <glyph glyph-name="Itilde" unicode="&#x128;" horiz-adv-x="346" 
d="M160 0h-80l307 1443h80zM601 1551q-36 0 -67 17t-52 41.5t-41 48.5t-45 41t-53 17q-43 0 -78 -41t-48 -112h-62q17 98 69 155t123 57q37 0 68 -17t52.5 -41.5t41 -48.5t44 -41t52.5 -17q41 0 74 40t48 113h62q-21 -101 -70.5 -156.5t-117.5 -55.5z" />
    <glyph glyph-name="itilde" unicode="&#x129;" horiz-adv-x="317" 
d="M67 0l221 1040h78l-221 -1040h-78zM521 1243q-36 0 -67 17t-52 41.5t-41 48.5t-45 41t-53 17q-43 0 -78 -41t-48 -112h-62q17 98 69 155t123 57q37 0 68 -17t52.5 -41.5t41 -48.5t44 -41t52.5 -17q41 0 74 40t48 113h62q-21 -101 -70.5 -156.5t-117.5 -55.5z" />
    <glyph glyph-name="Imacron" unicode="&#x12a;" horiz-adv-x="346" 
d="M160 0h-80l307 1443h80zM775 1679l-13 -59h-594l13 59h594z" />
    <glyph glyph-name="imacron" unicode="&#x12b;" horiz-adv-x="317" 
d="M67 0l221 1040h78l-221 -1040h-78zM544 1358l-10 -60h-404l10 60h404z" />
    <glyph glyph-name="Ibreve" unicode="&#x12c;" horiz-adv-x="346" 
d="M160 0h-80l307 1443h80zM209 1788h64q-2 -8 -2 -21q0 -73 52 -116t139 -43q88 0 150 49.5t74 130.5h64q-16 -109 -97 -173t-202 -64q-109 0 -177 57t-68 152q0 19 3 28z" />
    <glyph glyph-name="ibreve" unicode="&#x12d;" horiz-adv-x="317" 
d="M67 0l221 1040h78l-221 -1040h-78zM128 1491h64q-4 -22 -4 -35q0 -74 51.5 -117t140.5 -43q90 0 151.5 53.5t71.5 141.5h64q-13 -114 -93.5 -183.5t-202.5 -69.5q-111 0 -179.5 58t-68.5 152q0 21 5 43z" />
    <glyph glyph-name="Iogonek" unicode="&#x12e;" horiz-adv-x="346" 
d="M50 -393q-72 0 -117.5 40t-45.5 102q0 130 193 255l307 1439h80l-306 -1441l-5 -3q-108 -68 -152 -120.5t-44 -110.5q0 -43 32 -71t82 -28t70 13l-13 -61q-28 -14 -81 -14z" />
    <glyph glyph-name="iogonek" unicode="&#x12f;" horiz-adv-x="311" 
d="M101 -376q-30 -14 -83 -14q-71 0 -116.5 39.5t-45.5 100.5q0 139 209 259l220 1031h78l-222 -1041l-7 -4q-204 -115 -204 -228q0 -42 31.5 -68.5t81.5 -26.5t71 12zM380 1249q-26 0 -44 18t-18 43t18 42.5t44 17.5q25 0 43 -17.5t18 -42.5t-18 -43t-43 -18z" />
    <glyph glyph-name="Idotaccent" unicode="&#x130;" horiz-adv-x="346" 
d="M160 0h-80l307 1443h80zM483 1644q-32 0 -55 23t-23 54t23.5 54.5t54.5 23.5t54.5 -23.5t23.5 -54.5t-23 -54t-55 -23z" />
    <glyph glyph-name="dotlessi" unicode="&#x131;" horiz-adv-x="317" 
d="M67 0l221 1040h78l-221 -1040h-78z" />
    <glyph glyph-name="IJ" unicode="&#x132;" horiz-adv-x="1303" 
d="M160 0h-80l307 1443h80zM410 303q0 13 1 22h80v-14q0 -116 78.5 -187.5t207.5 -71.5q130 0 218.5 82.5t120.5 234.5l228 1074h80l-233 -1100q-37 -173 -148 -269.5t-275 -96.5q-158 0 -258 92t-100 234z" />
    <glyph glyph-name="ij" unicode="&#x133;" horiz-adv-x="631" 
d="M66 0l221 1040h78l-221 -1040h-78zM382 1249q-25 0 -43 18t-18 43t18 42.5t43 17.5q26 0 44 -17.5t18 -42.5t-18 -43t-44 -18zM703 1249q-25 0 -43 18t-18 43t18 42.5t43 17.5t43.5 -17.5t18.5 -42.5t-18.5 -43t-43.5 -18zM680 1040l-243 -1147q-27 -129 -97.5 -186.5
t-189.5 -57.5q-34 0 -70 3l16 69q29 -3 55 -3q88 0 138.5 44t69.5 139l243 1139h78z" />
    <glyph glyph-name="Jcircumflex" unicode="&#x134;" horiz-adv-x="957" 
d="M64 303q0 13 1 22h80v-14q0 -116 78.5 -187.5t207.5 -71.5q130 0 218.5 82.5t120.5 234.5l228 1074h80l-233 -1100q-37 -173 -148 -269.5t-275 -96.5q-158 0 -258 92t-100 234zM1149 1845l202 -289h-78l-160 232h-3l-259 -232h-90l324 289h64z" />
    <glyph glyph-name="jcircumflex" unicode="&#x135;" horiz-adv-x="319" 
d="M367 1040l-244 -1147q-27 -129 -97.5 -186.5t-188.5 -57.5q-34 0 -70 3l15 69q29 -3 55 -3q89 0 139 43.5t70 139.5l242 1139h79zM469 1544l192 -303h-80l-154 248h-3l-261 -248h-88l323 303h71z" />
    <glyph glyph-name="Kcommaaccent" unicode="&#x136;" horiz-adv-x="1143" 
d="M160 0h-80l307 1443h80l-170 -800h4l913 800h109l-715 -629l474 -814h-92l-443 764l-275 -238zM381 -475h-66l175 341h82z" />
    <glyph glyph-name="kcommaaccent" unicode="&#x137;" horiz-adv-x="883" 
d="M140 0h-78l307 1443h78l-197 -925h4l686 522h109l-579 -444l375 -596h-89l-349 552l-179 -136zM245 -475h-66l175 341h82z" />
    <glyph glyph-name="Lacute" unicode="&#x139;" horiz-adv-x="1019" 
d="M932 73l-15 -73h-837l307 1443h80l-291 -1370h756zM491 1556h-86l336 287h100z" />
    <glyph glyph-name="lacute" unicode="&#x13a;" horiz-adv-x="320" 
d="M68 0l307 1443h78l-307 -1443h-78zM478 1556h-86l336 287h100z" />
    <glyph glyph-name="Lcommaaccent" unicode="&#x13b;" horiz-adv-x="1019" 
d="M932 73l-15 -73h-837l307 1443h80l-291 -1370h756zM325 -475h-66l175 341h82z" />
    <glyph glyph-name="lcommaaccent" unicode="&#x13c;" horiz-adv-x="320" 
d="M68 0l307 1443h78l-307 -1443h-78zM-67 -475h-66l175 341h82z" />
    <glyph glyph-name="Lcaron" unicode="&#x13d;" horiz-adv-x="1019" 
d="M871 1443h76l-102 -385h-56zM932 73l-15 -73h-837l307 1443h80l-291 -1370h756z" />
    <glyph glyph-name="lcaron" unicode="&#x13e;" horiz-adv-x="448" 
d="M626 1443h76l-103 -385h-56zM68 0l307 1443h78l-307 -1443h-78z" />
    <glyph glyph-name="Lslash" unicode="&#x141;" horiz-adv-x="1019" 
d="M176 73h756l-15 -73h-837l129 608l-147 -69l15 73l148 69l162 762h80l-153 -721l463 216l-15 -73l-464 -216z" />
    <glyph glyph-name="lslash" unicode="&#x142;" horiz-adv-x="320" 
d="M453 1443l-136 -638l127 59l-16 -78l-127 -59l-155 -727h-78l146 686l-127 -59l16 78l128 60l144 678h78z" />
    <glyph glyph-name="Nacute" unicode="&#x143;" horiz-adv-x="1355" 
d="M160 0h-80l307 1443h79l646 -1319h4l280 1319h80l-307 -1443h-79l-646 1319h-4zM994 1556h-86l336 287h100z" />
    <glyph glyph-name="nacute" unicode="&#x144;" horiz-adv-x="1047" 
d="M61 0l221 1040h75l-44 -208h4q61 104 158.5 164.5t221.5 60.5q150 0 245 -88t95 -222q0 -53 -12 -110l-136 -637h-78l132 622q14 61 14 107q0 116 -77.5 186.5t-207.5 70.5q-145 0 -255 -99t-141 -246l-138 -641h-77zM770 1241h-82l301 303h93z" />
    <glyph glyph-name="Ncommaaccent" unicode="&#x145;" horiz-adv-x="1355" 
d="M160 0h-80l307 1443h79l646 -1319h4l280 1319h80l-307 -1443h-79l-646 1319h-4zM450 -475h-66l175 341h82z" />
    <glyph glyph-name="ncommaaccent" unicode="&#x146;" horiz-adv-x="1047" 
d="M61 0l221 1040h75l-44 -208h4q61 104 158.5 164.5t221.5 60.5q150 0 245 -88t95 -222q0 -53 -12 -110l-136 -637h-78l132 622q14 61 14 107q0 116 -77.5 186.5t-207.5 70.5q-145 0 -255 -99t-141 -246l-138 -641h-77zM301 -475h-66l175 341h82z" />
    <glyph glyph-name="Ncaron" unicode="&#x147;" horiz-adv-x="1355" 
d="M160 0h-80l307 1443h79l646 -1319h4l280 1319h80l-307 -1443h-79l-646 1319h-4zM927 1556l-201 289h78l159 -232h4l258 232h90l-324 -289h-64z" />
    <glyph glyph-name="ncaron" unicode="&#x148;" horiz-adv-x="1047" 
d="M61 0l221 1040h75l-44 -208h4q61 104 158.5 164.5t221.5 60.5q150 0 245 -88t95 -222q0 -53 -12 -110l-136 -637h-78l132 622q14 61 14 107q0 116 -77.5 186.5t-207.5 70.5q-145 0 -255 -99t-141 -246l-138 -641h-77zM771 1241h-71l-192 303h78l154 -249h3l262 249h89z
" />
    <glyph glyph-name="Omacron" unicode="&#x14c;" horiz-adv-x="1455" 
d="M906 1390q-182 0 -332.5 -105.5t-235.5 -287.5t-85 -402q0 -248 136 -395t361 -147q182 0 332 105.5t235 287.5t85 402q0 248 -136 395t-360 147zM747 -21q-258 0 -416 167t-158 443q0 243 95.5 443.5t264.5 316t376 115.5q257 0 415.5 -167t158.5 -443
q0 -243 -95.5 -443.5t-264.5 -316t-376 -115.5zM1262 1679l-13 -59h-594l13 59h594z" />
    <glyph glyph-name="omacron" unicode="&#x14d;" horiz-adv-x="1080" 
d="M542 54q194 0 325 160.5t131 398.5q0 169 -94 271t-251 102q-127 0 -231.5 -73t-164 -201t-59.5 -285q0 -169 94 -271t250 -102zM653 1057q192 0 307.5 -121t115.5 -321q0 -178 -69.5 -322.5t-192 -227t-272.5 -82.5q-192 0 -307 121t-115 321q0 177 69.5 322
t191.5 227.5t272 82.5zM1017 1358l-13 -60h-519l12 60h520z" />
    <glyph glyph-name="Obreve" unicode="&#x14e;" horiz-adv-x="1455" 
d="M906 1390q-182 0 -332.5 -105.5t-235.5 -287.5t-85 -402q0 -248 136 -395t361 -147q182 0 332 105.5t235 287.5t85 402q0 248 -136 395t-360 147zM747 -21q-258 0 -416 167t-158 443q0 243 95.5 443.5t264.5 316t376 115.5q257 0 415.5 -167t158.5 -443
q0 -243 -95.5 -443.5t-264.5 -316t-376 -115.5zM696 1788h64q-2 -8 -2 -21q0 -73 52 -116t139 -43q88 0 150 49.5t74 130.5h64q-16 -109 -97 -173t-202 -64q-109 0 -177 57t-68 152q0 19 3 28z" />
    <glyph glyph-name="obreve" unicode="&#x14f;" horiz-adv-x="1080" 
d="M542 54q194 0 325 160.5t131 398.5q0 169 -94 271t-251 102q-127 0 -231.5 -73t-164 -201t-59.5 -285q0 -169 94 -271t250 -102zM653 1057q192 0 307.5 -121t115.5 -321q0 -178 -69.5 -322.5t-192 -227t-272.5 -82.5q-192 0 -307 121t-115 321q0 177 69.5 322
t191.5 227.5t272 82.5zM491 1491h64q-4 -22 -4 -35q0 -74 51.5 -117t140.5 -43q90 0 151.5 53.5t71.5 141.5h64q-13 -114 -93.5 -183.5t-202.5 -69.5q-111 0 -179.5 58t-68.5 152q0 21 5 43z" />
    <glyph glyph-name="Ohungarumlaut" unicode="&#x150;" horiz-adv-x="1455" 
d="M906 1390q-182 0 -332.5 -105.5t-235.5 -287.5t-85 -402q0 -248 136 -395t361 -147q182 0 332 105.5t235 287.5t85 402q0 248 -136 395t-360 147zM747 -21q-258 0 -416 167t-158 443q0 243 95.5 443.5t264.5 316t376 115.5q257 0 415.5 -167t158.5 -443
q0 -243 -95.5 -443.5t-264.5 -316t-376 -115.5zM1114 1556h-83l336 287h98zM845 1556h-84l337 287h97z" />
    <glyph glyph-name="ohungarumlaut" unicode="&#x151;" horiz-adv-x="1080" 
d="M542 54q194 0 325 160.5t131 398.5q0 169 -94 271t-251 102q-127 0 -231.5 -73t-164 -201t-59.5 -285q0 -169 94 -271t250 -102zM653 1057q192 0 307.5 -121t115.5 -321q0 -178 -69.5 -322.5t-192 -227t-272.5 -82.5q-192 0 -307 121t-115 321q0 177 69.5 322
t191.5 227.5t272 82.5zM819 1241l291 303h93l-306 -303h-78zM555 1241l291 303h93l-306 -303h-78z" />
    <glyph glyph-name="OE" unicode="&#x152;" horiz-adv-x="2226" 
d="M1232 0l65 303h-2q-97 -151 -245.5 -237.5t-320.5 -86.5q-257 0 -410.5 169.5t-153.5 453.5q0 178 57 337.5t155 274.5t235 182.5t291 67.5q217 0 359.5 -126t177.5 -347h4l95 452h842l-16 -73h-761l-127 -594h725l-16 -72h-724l-134 -631h761l-15 -73h-842zM1387 842
q0 251 -131.5 399.5t-352.5 148.5q-137 0 -259.5 -61.5t-209.5 -167t-137.5 -251t-50.5 -307.5q0 -252 131.5 -401t352.5 -149q137 0 259.5 62t209.5 167.5t137.5 251t50.5 308.5z" />
    <glyph glyph-name="oe" unicode="&#x153;" horiz-adv-x="1898" 
d="M1389 -17q-159 0 -264.5 86t-126.5 232h-4q-57 -143 -182 -230.5t-276 -87.5q-191 0 -306 120t-115 319q0 174 68.5 319.5t191 230.5t273.5 85q165 0 271 -90t132 -245h4q63 152 188 243.5t275 91.5q169 0 278 -116.5t109 -294.5q0 -71 -14 -134h-827q-8 -48 -8 -103
q0 -163 91.5 -259t245.5 -96q125 0 217.5 53t136.5 150h78q-43 -125 -161.5 -199.5t-274.5 -74.5zM1075 578h747q5 33 5 72q0 145 -88.5 241t-224.5 96q-154 0 -274.5 -113.5t-164.5 -295.5zM194 424q0 -171 93.5 -270.5t250.5 -99.5q128 0 232.5 74.5t163 203t58.5 284.5
q0 170 -94 270t-251 100q-128 0 -232.5 -75.5t-162.5 -204t-58 -282.5z" />
    <glyph glyph-name="Racute" unicode="&#x154;" horiz-adv-x="1171" 
d="M80 0l311 1443h419q206 0 318.5 -99t112.5 -268q0 -179 -114.5 -299t-311.5 -149l234 -628h-83l-230 619h-30h-412l-133 -619h-81zM456 1371l-147 -680h405q198 0 321.5 105t123.5 274q0 139 -92 220t-261 81h-350zM809 1556h-86l336 287h100z" />
    <glyph glyph-name="racute" unicode="&#x155;" horiz-adv-x="621" 
d="M61 0l221 1040h75l-39 -179h4q111 194 299 194q84 0 134 -27l-17 -77q-43 31 -133 31q-119 0 -208.5 -96.5t-124.5 -258.5l-134 -627h-77zM594 1241h-82l301 303h93z" />
    <glyph glyph-name="Rcommaaccent" unicode="&#x156;" horiz-adv-x="1171" 
d="M80 0l311 1443h419q206 0 318.5 -99t112.5 -268q0 -179 -114.5 -299t-311.5 -149l234 -628h-83l-230 619h-30h-412l-133 -619h-81zM456 1371l-147 -680h405q198 0 321.5 105t123.5 274q0 139 -92 220t-261 81h-350zM368 -475h-66l175 341h82z" />
    <glyph glyph-name="rcommaaccent" unicode="&#x157;" horiz-adv-x="621" 
d="M61 0l221 1040h75l-39 -179h4q111 194 299 194q84 0 134 -27l-17 -77q-43 31 -133 31q-119 0 -208.5 -96.5t-124.5 -258.5l-134 -627h-77zM-69 -475h-66l175 341h82z" />
    <glyph glyph-name="Rcaron" unicode="&#x158;" horiz-adv-x="1171" 
d="M80 0l311 1443h419q206 0 318.5 -99t112.5 -268q0 -179 -114.5 -299t-311.5 -149l234 -628h-83l-230 619h-30h-412l-133 -619h-81zM456 1371l-147 -680h405q198 0 321.5 105t123.5 274q0 139 -92 220t-261 81h-350zM741 1556l-201 289h78l159 -232h4l258 232h90
l-324 -289h-64z" />
    <glyph glyph-name="rcaron" unicode="&#x159;" horiz-adv-x="621" 
d="M61 0l221 1040h75l-39 -179h4q111 194 299 194q84 0 134 -27l-17 -77q-43 31 -133 31q-119 0 -208.5 -96.5t-124.5 -258.5l-134 -627h-77zM595 1241h-71l-192 303h78l154 -249h3l262 249h89z" />
    <glyph glyph-name="Sacute" unicode="&#x15a;" horiz-adv-x="1196" 
d="M111 406h79q11 -158 135.5 -256t319.5 -98q184 0 297.5 89.5t113.5 238.5q0 103 -65.5 172t-213.5 125l-121 47q-185 70 -267 155t-82 213q0 164 131.5 268t337.5 104t342 -111t145 -290h-79q-11 146 -123.5 237t-284.5 91q-173 0 -280 -83.5t-107 -211.5
q0 -102 69.5 -170.5t231.5 -129.5l125 -48q168 -62 246 -148t78 -211q0 -178 -135.5 -294t-359.5 -116q-229 0 -377.5 117.5t-155.5 309.5zM850 1556h-86l336 287h100z" />
    <glyph glyph-name="sacute" unicode="&#x15b;" horiz-adv-x="922" 
d="M222 772q0 124 101.5 204t260.5 80q155 0 256.5 -85t111.5 -220h-76q-11 105 -92 171.5t-203 66.5q-123 0 -202.5 -60t-79.5 -151q0 -69 48.5 -115.5t160.5 -83.5l89 -31q142 -49 202.5 -111t60.5 -160q0 -130 -105.5 -212t-272.5 -82q-170 0 -283.5 88.5t-125.5 228.5
h78q16 -112 107.5 -180.5t227.5 -68.5q130 0 212.5 62.5t82.5 160.5q0 74 -48 119.5t-174 88.5l-91 31q-128 43 -187 105t-59 154zM707 1241h-82l301 303h93z" />
    <glyph glyph-name="Scircumflex" unicode="&#x15c;" horiz-adv-x="1196" 
d="M111 406h79q11 -158 135.5 -256t319.5 -98q184 0 297.5 89.5t113.5 238.5q0 103 -65.5 172t-213.5 125l-121 47q-185 70 -267 155t-82 213q0 164 131.5 268t337.5 104t342 -111t145 -290h-79q-11 146 -123.5 237t-284.5 91q-173 0 -280 -83.5t-107 -211.5
q0 -102 69.5 -170.5t231.5 -129.5l125 -48q168 -62 246 -148t78 -211q0 -178 -135.5 -294t-359.5 -116q-229 0 -377.5 117.5t-155.5 309.5zM897 1845l202 -289h-78l-160 232h-3l-259 -232h-90l324 289h64z" />
    <glyph glyph-name="scircumflex" unicode="&#x15d;" horiz-adv-x="922" 
d="M222 772q0 124 101.5 204t260.5 80q155 0 256.5 -85t111.5 -220h-76q-11 105 -92 171.5t-203 66.5q-123 0 -202.5 -60t-79.5 -151q0 -69 48.5 -115.5t160.5 -83.5l89 -31q142 -49 202.5 -111t60.5 -160q0 -130 -105.5 -212t-272.5 -82q-170 0 -283.5 88.5t-125.5 228.5
h78q16 -112 107.5 -180.5t227.5 -68.5q130 0 212.5 62.5t82.5 160.5q0 74 -48 119.5t-174 88.5l-91 31q-128 43 -187 105t-59 154zM765 1544l192 -303h-80l-154 248h-3l-261 -248h-88l323 303h71z" />
    <glyph glyph-name="Scedilla" unicode="&#x15e;" horiz-adv-x="1196" 
d="M1263 1063h-79q-11 146 -123.5 237t-284.5 91q-173 0 -280 -83.5t-107 -211.5q0 -102 69.5 -170.5t231.5 -129.5l125 -48q168 -62 246 -148t78 -211q0 -177 -134.5 -293t-357.5 -117l-77 -120q88 -5 136 -43.5t48 -106.5q0 -81 -59 -128.5t-154 -47.5q-94 0 -168 37
l13 60q69 -36 153 -36q67 0 107.5 28.5t40.5 80.5q0 94 -145 105l-52 3l10 42l82 128q-206 17 -335.5 132t-135.5 293h79q11 -158 135.5 -256t319.5 -98q184 0 297.5 89.5t113.5 238.5q0 103 -65.5 172t-213.5 125l-121 47q-185 70 -267 155t-82 213q0 164 131.5 268
t337.5 104t342 -111t145 -290z" />
    <glyph glyph-name="scedilla" unicode="&#x15f;" horiz-adv-x="922" 
d="M952 751h-76q-11 105 -92 171.5t-203 66.5q-123 0 -202.5 -60t-79.5 -151q0 -69 48.5 -115.5t160.5 -83.5l89 -31q142 -49 202.5 -111t60.5 -160q0 -130 -105.5 -212t-272.5 -82h-8l-79 -124q88 -5 136 -43.5t48 -106.5q0 -81 -59 -128.5t-154 -47.5q-94 0 -168 37l13 60
q69 -36 153 -36q67 0 107.5 28.5t40.5 80.5q0 94 -145 105l-52 3l10 42l86 134q-143 19 -235.5 104t-102.5 209h78q16 -112 107.5 -180.5t227.5 -68.5q130 0 212.5 62.5t82.5 160.5q0 74 -48 119.5t-174 88.5l-91 31q-128 43 -187 105t-59 154q0 124 101.5 204t260.5 80
q155 0 256.5 -85t111.5 -220z" />
    <glyph glyph-name="Scaron" unicode="&#x160;" horiz-adv-x="1196" 
d="M111 406h79q11 -158 135.5 -256t319.5 -98q184 0 297.5 89.5t113.5 238.5q0 103 -65.5 172t-213.5 125l-121 47q-185 70 -267 155t-82 213q0 164 131.5 268t337.5 104t342 -111t145 -290h-79q-11 146 -123.5 237t-284.5 91q-173 0 -280 -83.5t-107 -211.5
q0 -102 69.5 -170.5t231.5 -129.5l125 -48q168 -62 246 -148t78 -211q0 -178 -135.5 -294t-359.5 -116q-229 0 -377.5 117.5t-155.5 309.5zM782 1556l-201 289h78l159 -232h4l258 232h90l-324 -289h-64z" />
    <glyph glyph-name="scaron" unicode="&#x161;" horiz-adv-x="922" 
d="M222 772q0 124 101.5 204t260.5 80q155 0 256.5 -85t111.5 -220h-76q-11 105 -92 171.5t-203 66.5q-123 0 -202.5 -60t-79.5 -151q0 -69 48.5 -115.5t160.5 -83.5l89 -31q142 -49 202.5 -111t60.5 -160q0 -130 -105.5 -212t-272.5 -82q-170 0 -283.5 88.5t-125.5 228.5
h78q16 -112 107.5 -180.5t227.5 -68.5q130 0 212.5 62.5t82.5 160.5q0 74 -48 119.5t-174 88.5l-91 31q-128 43 -187 105t-59 154zM708 1241h-71l-192 303h78l154 -249h3l262 249h89z" />
    <glyph glyph-name="Tcedilla" unicode="&#x162;" horiz-adv-x="1158" 
d="M285 1443h1096l-15 -73h-508l-288 -1358h1l-3 -12l-90 -141q88 -5 136 -43.5t48 -106.5q0 -81 -59 -128.5t-154 -47.5q-94 0 -168 37l13 60q69 -36 153 -36q67 0 107.5 28.5t40.5 80.5q0 94 -145 105l-52 3l10 42l94 147h-16l292 1370h-508z" />
    <glyph glyph-name="tcedilla" unicode="&#x163;" horiz-adv-x="535" 
d="M398 972l-149 -697q-11 -49 -11 -81q0 -63 42.5 -95t118.5 -32q48 0 62 2l-15 -68q-15 -3 -67 -3q-14 0 -38 2l-90 -141q88 -5 136 -43.5t48 -106.5q0 -81 -59 -128.5t-154 -47.5q-94 0 -168 37l13 60q69 -36 153 -36q67 0 107.5 28.5t40.5 80.5q0 94 -145 105l-52 3
l10 42l101 158q-125 37 -125 162q0 36 11 89l151 710h-151l14 68h152l58 275h78l-58 -275h224l-14 -68h-224z" />
    <glyph glyph-name="Tcaron" unicode="&#x164;" horiz-adv-x="1158" 
d="M567 0h-81l292 1370h-508l15 73h1096l-15 -73h-508zM830 1556l-201 289h78l159 -232h4l258 232h90l-324 -289h-64z" />
    <glyph glyph-name="tcaron" unicode="&#x165;" horiz-adv-x="564" 
d="M673 1581h77l-103 -385h-56zM379 -2q-103 0 -162.5 45t-59.5 130q0 36 11 89l151 710h-151l14 68h152l58 275h78l-58 -275h224l-14 -68h-224l-149 -697q-11 -49 -11 -81q0 -63 42.5 -95t118.5 -32q48 0 62 2l-15 -68q-15 -3 -67 -3z" />
    <glyph glyph-name="Tbar" unicode="&#x166;" horiz-adv-x="1158" 
d="M1366 1370h-508l-130 -611h406l-15 -72h-406l-146 -687h-81l146 687h-390l16 72h390l130 611h-508l15 73h1096z" />
    <glyph glyph-name="tbar" unicode="&#x167;" horiz-adv-x="535" 
d="M622 972h-224l-78 -366h255l-14 -68h-256l-56 -263q-11 -49 -11 -81q0 -63 42.5 -95t118.5 -32q48 0 62 2l-15 -68q-15 -3 -67 -3q-103 0 -162.5 45t-59.5 130q0 36 11 89l59 276h-152l16 68h150l78 366h-151l14 68h152l58 275h78l-58 -275h224z" />
    <glyph glyph-name="Utilde" unicode="&#x168;" horiz-adv-x="1358" 
d="M669 -21q-220 0 -352.5 119t-132.5 309q-1 68 13 140l191 896h81l-191 -895q-15 -62 -13 -136q2 -163 113.5 -261t301.5 -98q197 0 333 111t178 306l208 973h80l-210 -985q-49 -228 -204.5 -353.5t-395.5 -125.5zM1104 1551q-36 0 -67 17t-52 41.5t-41 48.5t-45 41
t-53 17q-43 0 -78 -41t-48 -112h-62q17 98 69 155t123 57q37 0 68 -17t52.5 -41.5t41 -48.5t44 -41t52.5 -17q41 0 74 40t48 113h62q-21 -101 -70.5 -156.5t-117.5 -55.5z" />
    <glyph glyph-name="utilde" unicode="&#x169;" horiz-adv-x="1048" 
d="M1102 1040l-221 -1040h-74l44 204h-4q-58 -99 -158 -160t-224 -61q-151 0 -244 87t-93 220q0 54 11 115l136 635h77l-132 -622q-13 -57 -13 -108q0 -118 75 -187t206 -69q147 0 258 99.5t142 245.5l138 641h76zM867 1243q-36 0 -67 17t-52 41.5t-41 48.5t-45 41t-53 17
q-43 0 -78 -41t-48 -112h-62q17 98 69 155t123 57q37 0 68 -17t52.5 -41.5t41 -48.5t44 -41t52.5 -17q41 0 74 40t48 113h62q-21 -101 -70.5 -156.5t-117.5 -55.5z" />
    <glyph glyph-name="Umacron" unicode="&#x16a;" horiz-adv-x="1358" 
d="M669 -21q-220 0 -352.5 119t-132.5 309q-1 68 13 140l191 896h81l-191 -895q-15 -62 -13 -136q2 -163 113.5 -261t301.5 -98q197 0 333 111t178 306l208 973h80l-210 -985q-49 -228 -204.5 -353.5t-395.5 -125.5zM1278 1679l-13 -59h-594l13 59h594z" />
    <glyph glyph-name="umacron" unicode="&#x16b;" horiz-adv-x="1048" 
d="M1102 1040l-221 -1040h-74l44 204h-4q-58 -99 -158 -160t-224 -61q-151 0 -244 87t-93 220q0 54 11 115l136 635h77l-132 -622q-13 -57 -13 -108q0 -118 75 -187t206 -69q147 0 258 99.5t142 245.5l138 641h76zM1000 1358l-13 -60h-519l12 60h520z" />
    <glyph glyph-name="Ubreve" unicode="&#x16c;" horiz-adv-x="1358" 
d="M669 -21q-220 0 -352.5 119t-132.5 309q-1 68 13 140l191 896h81l-191 -895q-15 -62 -13 -136q2 -163 113.5 -261t301.5 -98q197 0 333 111t178 306l208 973h80l-210 -985q-49 -228 -204.5 -353.5t-395.5 -125.5zM712 1788h64q-2 -8 -2 -21q0 -73 52 -116t139 -43
q88 0 150 49.5t74 130.5h64q-16 -109 -97 -173t-202 -64q-109 0 -177 57t-68 152q0 19 3 28z" />
    <glyph glyph-name="ubreve" unicode="&#x16d;" horiz-adv-x="1048" 
d="M1102 1040l-221 -1040h-74l44 204h-4q-58 -99 -158 -160t-224 -61q-151 0 -244 87t-93 220q0 54 11 115l136 635h77l-132 -622q-13 -57 -13 -108q0 -118 75 -187t206 -69q147 0 258 99.5t142 245.5l138 641h76zM474 1491h64q-4 -22 -4 -35q0 -74 51.5 -117t140.5 -43
q90 0 151.5 53.5t71.5 141.5h64q-13 -114 -93.5 -183.5t-202.5 -69.5q-111 0 -179.5 58t-68.5 152q0 21 5 43z" />
    <glyph glyph-name="Uring" unicode="&#x16e;" horiz-adv-x="1358" 
d="M669 -21q-220 0 -352.5 119t-132.5 309q-1 68 13 140l191 896h81l-191 -895q-15 -62 -13 -136q2 -163 113.5 -261t301.5 -98q197 0 333 111t178 306l208 973h80l-210 -985q-49 -228 -204.5 -353.5t-395.5 -125.5zM989 1564q-70 0 -119.5 48.5t-49.5 119.5q0 73 50 123
t121 50q70 0 120 -48.5t50 -119.5q-1 -73 -51 -123t-121 -50zM989 1613q52 0 86.5 35t34.5 88q0 51 -34 85.5t-85 34.5q-52 0 -86.5 -35t-34.5 -88q0 -51 34.5 -85.5t84.5 -34.5z" />
    <glyph glyph-name="uring" unicode="&#x16f;" horiz-adv-x="1048" 
d="M1102 1040l-221 -1040h-74l44 204h-4q-58 -99 -158 -160t-224 -61q-151 0 -244 87t-93 220q0 54 11 115l136 635h77l-132 -622q-13 -57 -13 -108q0 -118 75 -187t206 -69q147 0 258 99.5t142 245.5l138 641h76zM732 1161q-70 0 -119.5 48.5t-49.5 119.5q0 73 50 123
t121 50q70 0 120 -48.5t50 -119.5q-1 -73 -51 -123t-121 -50zM732 1210q52 0 86.5 35t34.5 88q0 51 -34 85.5t-85 34.5q-52 0 -86.5 -35t-34.5 -88q0 -51 34.5 -85.5t84.5 -34.5z" />
    <glyph glyph-name="Uhungarumlaut" unicode="&#x170;" horiz-adv-x="1358" 
d="M669 -21q-220 0 -352.5 119t-132.5 309q-1 68 13 140l191 896h81l-191 -895q-15 -62 -13 -136q2 -163 113.5 -261t301.5 -98q197 0 333 111t178 306l208 973h80l-210 -985q-49 -228 -204.5 -353.5t-395.5 -125.5zM1130 1556h-83l336 287h98zM861 1556h-84l337 287h97z
" />
    <glyph glyph-name="uhungarumlaut" unicode="&#x171;" horiz-adv-x="1048" 
d="M1102 1040l-221 -1040h-74l44 204h-4q-58 -99 -158 -160t-224 -61q-151 0 -244 87t-93 220q0 54 11 115l136 635h77l-132 -622q-13 -57 -13 -108q0 -118 75 -187t206 -69q147 0 258 99.5t142 245.5l138 641h76zM802 1241l291 303h93l-306 -303h-78zM538 1241l291 303h93
l-306 -303h-78z" />
    <glyph glyph-name="Uogonek" unicode="&#x172;" horiz-adv-x="1358" 
d="M814 -379q-28 -14 -81 -14q-72 0 -117.5 40t-45.5 103q0 65 48.5 122t156.5 116v4q-50 -13 -106 -13q-225 0 -355 117t-131 311q0 73 14 136l191 900h81l-191 -899q-14 -67 -14 -131q2 -168 111 -264t305 -96q193 0 331.5 114.5t180.5 309.5l207 966h81l-210 -978
q-61 -285 -304 -420q-17 -10 -50.5 -28.5t-50 -28t-45 -26.5t-43 -27t-37 -25.5t-34 -27t-26 -26.5t-21 -28.5t-11.5 -29t-5 -31.5q0 -43 32 -70.5t82 -27.5q48 0 70 13z" />
    <glyph glyph-name="uogonek" unicode="&#x173;" horiz-adv-x="1049" 
d="M791 -376q-30 -14 -83 -14q-71 0 -116.5 39.5t-45.5 100.5q0 151 264 265l41 189h-4q-58 -99 -158 -160t-224 -61q-151 0 -244 87t-93 220q0 54 11 115l135 635h78l-132 -622q-13 -57 -13 -108q0 -118 75 -187t206 -69q147 0 258 99.5t142 245.5l138 641h76l-222 -1045
l-2 -1q-258 -112 -258 -227q0 -42 31.5 -68.5t81.5 -26.5q46 0 70 12z" />
    <glyph glyph-name="Wcircumflex" unicode="&#x174;" horiz-adv-x="1778" 
d="M1108 1297l-654 -1297h-77l-95 1443h76l82 -1302h4l656 1302h73l109 -1302h4l634 1302h85l-708 -1443h-75l-110 1297h-4zM1249 1845l202 -289h-78l-160 232h-3l-259 -232h-90l324 289h64z" />
    <glyph glyph-name="wcircumflex" unicode="&#x175;" horiz-adv-x="1396" 
d="M1555 1040l-520 -1040h-94l-87 941h-3l-485 -941h-96l-79 1040h73l70 -952h4l487 952h90l85 -952h4l470 952h81zM1010 1544l192 -303h-80l-154 248h-3l-261 -248h-88l323 303h71z" />
    <glyph glyph-name="Ycircumflex" unicode="&#x176;" horiz-adv-x="1170" 
d="M573 0h-80l133 631l-350 812h85l316 -736h4l625 736h96l-697 -820zM949 1845l202 -289h-78l-160 232h-3l-259 -232h-90l324 289h64z" />
    <glyph glyph-name="ycircumflex" unicode="&#x177;" horiz-adv-x="895" 
d="M72 -356q-37 0 -69 8l12 68q29 -8 60 -8q67 0 120.5 43t112.5 145l50 88l-177 1052h78l156 -959h4l551 959h87l-681 -1168q-75 -130 -143 -179t-161 -49zM752 1544l192 -303h-80l-154 248h-3l-261 -248h-88l323 303h71z" />
    <glyph glyph-name="Ydieresis" unicode="&#x178;" horiz-adv-x="1170" 
d="M573 0h-80l133 631l-350 812h85l316 -736h4l625 736h96l-697 -820zM737 1605q-28 0 -47.5 19.5t-19.5 46.5q0 28 19.5 47t47.5 19q27 0 46.5 -19t19.5 -47q0 -27 -19.5 -46.5t-46.5 -19.5zM1035 1605q-27 0 -47 19.5t-20 46.5t20 46.5t47 19.5t47 -19.5t20 -46.5
t-20 -46.5t-47 -19.5z" />
    <glyph glyph-name="Zacute" unicode="&#x179;" horiz-adv-x="1177" 
d="M21 0l13 62l1195 1305v4h-888l15 72h997l-13 -62l-1194 -1305v-4h920l-15 -72h-1030zM904 1556h-86l336 287h100z" />
    <glyph glyph-name="zacute" unicode="&#x17a;" horiz-adv-x="913" 
d="M12 0l13 64l869 904l1 4h-675l15 68h776l-14 -65l-866 -903l-1 -4h674l-14 -68h-778zM705 1241h-82l301 303h93z" />
    <glyph glyph-name="Zdotaccent" unicode="&#x17b;" horiz-adv-x="1177" 
d="M21 0l13 62l1195 1305v4h-888l15 72h997l-13 -62l-1194 -1305v-4h920l-15 -72h-1030zM897 1644q-32 0 -55 23t-23 54t23.5 54.5t54.5 23.5t54.5 -23.5t23.5 -54.5t-23 -54t-55 -23z" />
    <glyph glyph-name="zdotaccent" unicode="&#x17c;" horiz-adv-x="913" 
d="M12 0l13 64l869 904l1 4h-675l15 68h776l-14 -65l-866 -903l-1 -4h674l-14 -68h-778zM679 1241q-31 0 -54 22.5t-23 54.5t23 55t54 23q32 0 55 -23t23 -55t-23 -54.5t-55 -22.5z" />
    <glyph glyph-name="Zcaron" unicode="&#x17d;" horiz-adv-x="1177" 
d="M21 0l13 62l1195 1305v4h-888l15 72h997l-13 -62l-1194 -1305v-4h920l-15 -72h-1030zM837 1556l-201 289h78l159 -232h4l258 232h90l-324 -289h-64z" />
    <glyph glyph-name="zcaron" unicode="&#x17e;" horiz-adv-x="913" 
d="M12 0l13 64l869 904l1 4h-675l15 68h776l-14 -65l-866 -903l-1 -4h674l-14 -68h-778zM706 1241h-71l-192 303h78l154 -249h3l262 249h89z" />
    <glyph glyph-name="uni04D8" unicode="&#x18f;" horiz-adv-x="1395" 
d="M648 -21q-274 0 -406 178.5t-83 489.5q0 27 11 74h1152q3 36 3 40q32 294 -81 460.5t-371 166.5q-157 0 -293.5 -75t-217.5 -208h-84q84 163 247.5 261t352.5 98q294 0 429 -188t99 -513q-18 -174 -85 -321t-167.5 -248.5t-231 -158t-274.5 -56.5zM652 54
q231 0 416.5 165.5t238.5 431.5h-1065q-16 -77 -16 -153q0 -211 109.5 -327.5t316.5 -116.5z" />
    <glyph glyph-name="uni04D8" unicode="&#x4d8;" horiz-adv-x="1395" 
d="M648 -21q-274 0 -406 178.5t-83 489.5q0 27 11 74h1152q3 36 3 40q32 294 -81 460.5t-371 166.5q-157 0 -293.5 -75t-217.5 -208h-84q84 163 247.5 261t352.5 98q294 0 429 -188t99 -513q-18 -174 -85 -321t-167.5 -248.5t-231 -158t-274.5 -56.5zM652 54
q231 0 416.5 165.5t238.5 431.5h-1065q-16 -77 -16 -153q0 -211 109.5 -327.5t316.5 -116.5z" />
    <glyph glyph-name="florin" unicode="&#x192;" horiz-adv-x="1192" 
d="M183 -14q-106 0 -198 37l19 72q80 -36 179 -36q108 0 181.5 56.5t121.5 176.5l185 465h-402l14 68h413l139 348q115 291 383 291q100 0 192 -33l-16 -70q-88 31 -178 31q-105 0 -184.5 -62.5t-124.5 -176.5l-131 -328h425l-14 -68h-436l-193 -485q-112 -286 -375 -286z
" />
    <glyph glyph-name="Ohorn" unicode="&#x1a0;" horiz-adv-x="1455" 
d="M1396 841q0 251 -132 401t-353 150q-137 0 -259 -62t-209 -167.5t-137.5 -251.5t-50.5 -309q0 -252 131 -400.5t353 -148.5q183 0 334 104.5t237 285.5t86 398zM1476 841q0 -238 -97 -435.5t-266.5 -312t-374.5 -114.5q-257 0 -410.5 169t-153.5 453q0 238 96.5 436
t266 313t374.5 115q94 0 172.5 -21.5t121.5 -46.5t96.5 -46.5t103.5 -21.5q118 0 146 140l28 135h74l-32 -158q-18 -88 -70.5 -135.5t-131.5 -47.5q-51 0 -88 22v-4q69 -80 107 -193.5t38 -246.5z" />
    <glyph glyph-name="ohorn" unicode="&#x1a1;" horiz-adv-x="1131" 
d="M1073 618q0 -176 -69 -321.5t-192 -229.5t-274 -84q-191 0 -305.5 120t-114.5 319q0 174 68.5 319.5t191 230.5t273.5 85q73 0 135.5 -20t98.5 -43.5t80.5 -43.5t85.5 -20q56 0 88.5 31t47.5 106l23 109h74l-29 -136q-18 -84 -63.5 -127.5t-114.5 -43.5q-50 0 -75 16v-4
q71 -106 71 -263zM196 424q0 -171 93.5 -270.5t251.5 -99.5q128 0 232.5 74.5t163 203t58.5 284.5q0 170 -94 270t-251 100q-129 0 -233.5 -75.5t-162.5 -204t-58 -282.5z" />
    <glyph glyph-name="Uhorn" unicode="&#x1af;" horiz-adv-x="1502" 
d="M662 -21q-226 0 -356 117t-130 311q-1 61 13 136l192 900h81l-192 -899q-14 -72 -13 -131q2 -168 111 -264t305 -96q192 0 330.5 114.5t180.5 309.5l208 966h131q112 0 136 102l33 157h73l-36 -173q-17 -77 -66.5 -113t-137.5 -36h-66l-196 -915q-50 -228 -208 -357
t-393 -129z" />
    <glyph glyph-name="uhorn" unicode="&#x1b0;" horiz-adv-x="1200" 
d="M847 204q-58 -99 -158 -160t-224 -61q-151 0 -244 87t-93 220q0 54 11 115l135 635h78l-132 -622q-13 -57 -13 -108q0 -118 75 -187t206 -69q147 0 258 99.5t142 245.5l137 641h113q119 0 139 101l26 121h74l-31 -147q-29 -137 -185 -137h-72l-208 -978h-74l44 204h-4z
" />
    <glyph glyph-name="uni01C4" unicode="&#x1c4;" horiz-adv-x="2540" 
d="M387 1443h424q278 0 431 -150.5t153 -412.5q0 -254 -103 -454t-294.5 -313t-439.5 -113h-477zM453 1371l-275 -1299h377q224 0 397.5 103.5t267.5 285t94 410.5q0 238 -132 369t-383 131h-346zM1384 0l13 62l1195 1305v4h-888l15 72h997l-13 -62l-1194 -1305v-4h920
l-15 -72h-1030zM2200 1556l-201 289h78l159 -232h4l258 232h90l-324 -289h-64z" />
    <glyph glyph-name="uni01C5" unicode="&#x1c5;" horiz-adv-x="2276" 
d="M387 1443h424q278 0 431 -150.5t153 -412.5q0 -254 -103 -454t-294.5 -313t-439.5 -113h-477zM453 1371l-275 -1299h377q224 0 397.5 103.5t267.5 285t94 410.5q0 238 -132 369t-383 131h-346zM1375 0l13 64l869 904l1 4h-675l15 68h776l-14 -65l-866 -903l-1 -4h674
l-14 -68h-778zM2069 1241h-71l-192 303h78l154 -249h3l262 249h89z" />
    <glyph glyph-name="uni01C6" unicode="&#x1c6;" horiz-adv-x="2017" 
d="M493 -16q-170 0 -275 117.5t-105 306.5q0 131 43 251t115.5 207t171.5 138.5t207 51.5q145 0 245.5 -87.5t116.5 -225.5h4l150 700h78l-307 -1443h-79l50 234h-4q-62 -114 -174 -182t-237 -68zM509 54q132 0 239.5 79t166.5 210t59 284q0 163 -88.5 261t-236.5 98
q-121 0 -227 -77.5t-169 -210t-63 -284.5q0 -163 87 -261.5t232 -98.5zM1116 0l13 64l869 904l1 4h-675l15 68h776l-14 -65l-866 -903l-1 -4h674l-14 -68h-778zM1810 1241h-71l-192 303h78l154 -249h3l262 249h89z" />
    <glyph glyph-name="uni01C7" unicode="&#x1c7;" horiz-adv-x="1976" 
d="M932 73l-15 -73h-837l307 1443h80l-291 -1370h756zM1083 303q0 13 1 22h80v-14q0 -116 78.5 -187.5t207.5 -71.5q130 0 218.5 82.5t120.5 234.5l228 1074h80l-233 -1100q-37 -173 -148 -269.5t-275 -96.5q-158 0 -258 92t-100 234z" />
    <glyph glyph-name="uni01C8" unicode="&#x1c8;" horiz-adv-x="1335" 
d="M932 73l-15 -73h-837l307 1443h80l-291 -1370h756zM1407 1249q-25 0 -43 18t-18 43t18 42.5t43 17.5t43.5 -17.5t18.5 -42.5t-18.5 -43t-43.5 -18zM1384 1040l-243 -1147q-27 -129 -97.5 -186.5t-189.5 -57.5q-34 0 -70 3l16 69q29 -3 55 -3q88 0 138.5 44t69.5 139
l243 1139h78z" />
    <glyph glyph-name="uni01C9" unicode="&#x1c9;" horiz-adv-x="636" 
d="M68 0l307 1443h78l-307 -1443h-78zM708 1249q-25 0 -43 18t-18 43t18 42.5t43 17.5t43.5 -17.5t18.5 -42.5t-18.5 -43t-43.5 -18zM685 1040l-243 -1147q-27 -129 -97.5 -186.5t-189.5 -57.5q-34 0 -70 3l16 69q29 -3 55 -3q88 0 138.5 44t69.5 139l243 1139h78z" />
    <glyph glyph-name="uni01CA" unicode="&#x1ca;" horiz-adv-x="2312" 
d="M160 0h-80l307 1443h79l646 -1319h4l280 1319h80l-307 -1443h-79l-646 1319h-4zM1419 303q0 13 1 22h80v-14q0 -116 78.5 -187.5t207.5 -71.5q130 0 218.5 82.5t120.5 234.5l228 1074h80l-233 -1100q-37 -173 -148 -269.5t-275 -96.5q-158 0 -258 92t-100 234z" />
    <glyph glyph-name="uni01CB" unicode="&#x1cb;" horiz-adv-x="1671" 
d="M160 0h-80l307 1443h79l646 -1319h4l280 1319h80l-307 -1443h-79l-646 1319h-4zM1743 1249q-25 0 -43 18t-18 43t18 42.5t43 17.5t43.5 -17.5t18.5 -42.5t-18.5 -43t-43.5 -18zM1720 1040l-243 -1147q-27 -129 -97.5 -186.5t-189.5 -57.5q-34 0 -70 3l16 69q28 -3 55 -3
q88 0 138.5 44t69.5 139l243 1139h78z" />
    <glyph glyph-name="uni01CC" unicode="&#x1cc;" horiz-adv-x="1363" 
d="M61 0l221 1040h75l-44 -208h4q61 104 158.5 164.5t221.5 60.5q150 0 245 -88t95 -222q0 -53 -12 -110l-136 -637h-78l132 622q14 61 14 107q0 116 -77.5 186.5t-207.5 70.5q-145 0 -255 -99t-141 -246l-138 -641h-77zM1435 1249q-25 0 -43 18t-18 43t18 42.5t43 17.5
t43.5 -17.5t18.5 -42.5t-18.5 -43t-43.5 -18zM1412 1040l-243 -1147q-27 -129 -97.5 -186.5t-189.5 -57.5q-34 0 -70 3l16 69q28 -3 55 -3q88 0 138.5 44t69.5 139l243 1139h78z" />
    <glyph glyph-name="Acaron" unicode="&#x1cd;" horiz-adv-x="1221" 
d="M846 1341l-463 -789h598l-131 789h-4zM1071 0l-79 482h-648l-285 -482h-90l855 1443h81l242 -1443h-76zM859 1556l-201 289h78l159 -232h4l258 232h90l-324 -289h-64z" />
    <glyph glyph-name="acaron" unicode="&#x1ce;" horiz-adv-x="978" 
d="M420 52q143 0 256 88t142 222l38 174l-344 -20q-169 -9 -261 -75t-92 -179q0 -94 72.5 -152t188.5 -58zM405 -16q-141 0 -232.5 76t-91.5 196q0 145 112.5 229.5t318.5 95.5l357 20l19 87q9 42 9 78q0 103 -72 161.5t-199 58.5q-134 0 -224.5 -64.5t-114.5 -175.5h-80
q27 141 142.5 226t282.5 85q155 0 249 -77.5t94 -205.5q0 -45 -10 -89l-145 -685h-76l40 187h-4q-56 -93 -157 -148t-218 -55zM719 1241h-71l-192 303h78l154 -249h3l262 249h89z" />
    <glyph glyph-name="Icaron" unicode="&#x1cf;" horiz-adv-x="346" 
d="M160 0h-80l307 1443h80zM423 1556l-201 289h78l159 -232h4l258 232h90l-324 -289h-64z" />
    <glyph glyph-name="icaron" unicode="&#x1d0;" horiz-adv-x="317" 
d="M67 0l221 1040h78l-221 -1040h-78zM410 1241h-71l-192 303h78l154 -249h3l262 249h89z" />
    <glyph glyph-name="Ocaron" unicode="&#x1d1;" horiz-adv-x="1455" 
d="M906 1390q-182 0 -332.5 -105.5t-235.5 -287.5t-85 -402q0 -248 136 -395t361 -147q182 0 332 105.5t235 287.5t85 402q0 248 -136 395t-360 147zM747 -21q-258 0 -416 167t-158 443q0 243 95.5 443.5t264.5 316t376 115.5q257 0 415.5 -167t158.5 -443
q0 -243 -95.5 -443.5t-264.5 -316t-376 -115.5zM910 1556l-201 289h78l159 -232h4l258 232h90l-324 -289h-64z" />
    <glyph glyph-name="ocaron" unicode="&#x1d2;" horiz-adv-x="1080" 
d="M542 54q194 0 325 160.5t131 398.5q0 169 -94 271t-251 102q-127 0 -231.5 -73t-164 -201t-59.5 -285q0 -169 94 -271t250 -102zM653 1057q192 0 307.5 -121t115.5 -321q0 -178 -69.5 -322.5t-192 -227t-272.5 -82.5q-192 0 -307 121t-115 321q0 177 69.5 322
t191.5 227.5t272 82.5zM773 1241h-71l-192 303h78l154 -249h3l262 249h89z" />
    <glyph glyph-name="Ucaron" unicode="&#x1d3;" horiz-adv-x="1358" 
d="M669 -21q-220 0 -352.5 119t-132.5 309q-1 68 13 140l191 896h81l-191 -895q-15 -62 -13 -136q2 -163 113.5 -261t301.5 -98q197 0 333 111t178 306l208 973h80l-210 -985q-49 -228 -204.5 -353.5t-395.5 -125.5zM926 1556l-201 289h78l159 -232h4l258 232h90l-324 -289
h-64z" />
    <glyph glyph-name="ucaron" unicode="&#x1d4;" horiz-adv-x="1048" 
d="M1102 1040l-221 -1040h-74l44 204h-4q-58 -99 -158 -160t-224 -61q-151 0 -244 87t-93 220q0 54 11 115l136 635h77l-132 -622q-13 -57 -13 -108q0 -118 75 -187t206 -69q147 0 258 99.5t142 245.5l138 641h76zM756 1241h-71l-192 303h78l154 -249h3l262 249h89z" />
    <glyph glyph-name="Udieresismacron" unicode="&#x1d5;" horiz-adv-x="1358" 
d="M669 -21q-220 0 -352.5 119t-132.5 309q-1 68 13 140l191 896h81l-191 -895q-15 -62 -13 -136q2 -163 113.5 -261t301.5 -98q197 0 333 111t178 306l208 973h80l-210 -985q-49 -228 -204.5 -353.5t-395.5 -125.5zM820 1683q27 0 46 -19t19 -46t-19 -46t-46 -19
q-26 0 -45.5 19t-19.5 46t19.5 46t45.5 19zM1329 1919l-13 -60h-594l13 60h594zM1114 1683q27 0 46 -19t19 -46t-19 -46t-46 -19t-46 19t-19 46t19 46t46 19z" />
    <glyph glyph-name="udieresismacron" unicode="&#x1d6;" horiz-adv-x="1048" 
d="M1102 1040l-221 -1040h-74l44 204h-4q-58 -99 -158 -160t-224 -61q-151 0 -244 87t-93 220q0 54 11 115l136 635h77l-132 -622q-13 -57 -13 -108q0 -118 75 -187t206 -69q147 0 258 99.5t142 245.5l138 641h76zM574 1214q-27 0 -46.5 19.5t-19.5 46.5q0 28 19.5 47
t46.5 19q28 0 47.5 -19t19.5 -47q0 -27 -19.5 -46.5t-47.5 -19.5zM873 1214q-27 0 -47 19.5t-20 46.5t20 46.5t47 19.5t47 -19.5t20 -46.5t-20 -46.5t-47 -19.5zM1054 1617l-13 -60h-519l12 60h520z" />
    <glyph glyph-name="Udieresisacute" unicode="&#x1d7;" horiz-adv-x="1358" 
d="M669 -21q-220 0 -352.5 119t-132.5 309q-1 68 13 140l191 896h81l-191 -895q-15 -62 -13 -136q2 -163 113.5 -261t301.5 -98q197 0 333 111t178 306l208 973h80l-210 -985q-49 -228 -204.5 -353.5t-395.5 -125.5zM934 1771l243 206h93l-251 -206h-85zM820 1553
q-26 0 -45.5 19t-19.5 46t19.5 46t45.5 19q27 0 46 -19t19 -46t-19 -46t-46 -19zM1114 1553q-27 0 -46 19t-19 46t19 46t46 19t46 -19t19 -46t-19 -46t-46 -19z" />
    <glyph glyph-name="udieresisacute" unicode="&#x1d8;" horiz-adv-x="1048" 
d="M1102 1040l-221 -1040h-74l44 204h-4q-58 -99 -158 -160t-224 -61q-151 0 -244 87t-93 220q0 54 11 115l136 635h77l-132 -622q-13 -57 -13 -108q0 -118 75 -187t206 -69q147 0 258 99.5t142 245.5l138 641h76zM723 1487l300 301h90l-310 -301h-80zM576 1214
q-28 0 -47.5 19.5t-19.5 46.5q0 28 19.5 47t47.5 19q27 0 46.5 -19t19.5 -47q0 -27 -19.5 -46.5t-46.5 -19.5zM874 1214q-27 0 -47 19.5t-20 46.5t20 46.5t47 19.5t47 -19.5t20 -46.5t-20 -46.5t-47 -19.5z" />
    <glyph glyph-name="Udieresiscaron" unicode="&#x1d9;" horiz-adv-x="1358" 
d="M669 -21q-220 0 -352.5 119t-132.5 309q-1 68 13 140l191 896h81l-191 -895q-15 -62 -13 -136q2 -163 113.5 -261t301.5 -98q197 0 333 111t178 306l208 973h80l-210 -985q-49 -228 -204.5 -353.5t-395.5 -125.5zM967 1767l-218 210h85l170 -161h3l237 161h98l-306 -210
h-69zM820 1683q27 0 46 -19t19 -46t-19 -46t-46 -19q-26 0 -45.5 19t-19.5 46t19.5 46t45.5 19zM1114 1683q27 0 46 -19t19 -46t-19 -46t-46 -19t-46 19t-19 46t19 46t46 19z" />
    <glyph glyph-name="udieresiscaron" unicode="&#x1da;" horiz-adv-x="1048" 
d="M1102 1040l-221 -1040h-74l44 204h-4q-58 -99 -158 -160t-224 -61q-151 0 -244 87t-93 220q0 54 11 115l136 635h77l-132 -622q-13 -57 -13 -108q0 -118 75 -187t206 -69q147 0 258 99.5t142 245.5l138 641h76zM574 1214q-27 0 -46.5 19.5t-19.5 46.5q0 28 19.5 47
t46.5 19q28 0 47.5 -19t19.5 -47q0 -27 -19.5 -46.5t-47.5 -19.5zM873 1214q-27 0 -47 19.5t-20 46.5t20 46.5t47 19.5t47 -19.5t20 -46.5t-20 -46.5t-47 -19.5zM720 1480l-215 290h78l176 -236h3l277 236h91l-339 -290h-71z" />
    <glyph glyph-name="Udieresisgrave" unicode="&#x1db;" horiz-adv-x="1358" 
d="M669 -21q-220 0 -352.5 119t-132.5 309q-1 68 13 140l191 896h81l-191 -895q-15 -62 -13 -136q2 -163 113.5 -261t301.5 -98q197 0 333 111t178 306l208 973h80l-210 -985q-49 -228 -204.5 -353.5t-395.5 -125.5zM1037 1771h-75l-177 206h84zM821 1553q-27 0 -46 19
t-19 46t19 46t46 19q26 0 45.5 -19t19.5 -46t-19.5 -46t-45.5 -19zM1115 1553q-27 0 -46.5 19t-19.5 46t19.5 46t46.5 19q26 0 45.5 -19t19.5 -46t-19.5 -46t-45.5 -19z" />
    <glyph glyph-name="udieresisgrave" unicode="&#x1dc;" horiz-adv-x="1048" 
d="M1102 1040l-221 -1040h-74l44 204h-4q-58 -99 -158 -160t-224 -61q-151 0 -244 87t-93 220q0 54 11 115l136 635h77l-132 -622q-13 -57 -13 -108q0 -118 75 -187t206 -69q147 0 258 99.5t142 245.5l138 641h76zM802 1487h-68l-186 301h76zM574 1214q-28 0 -47.5 19.5
t-19.5 46.5q0 28 19.5 47t47.5 19q27 0 46.5 -19t19.5 -47q0 -27 -19.5 -46.5t-46.5 -19.5zM872 1214q-27 0 -47 19.5t-20 46.5t20 46.5t47 19.5t47 -19.5t20 -46.5t-20 -46.5t-47 -19.5z" />
    <glyph glyph-name="uni04D9" unicode="&#x1dd;" horiz-adv-x="1044" 
d="M256 743h-79q46 144 166.5 229t282.5 85q191 0 300.5 -117t109.5 -312q0 -181 -68.5 -328.5t-190 -232t-271.5 -84.5q-181 0 -286 110.5t-105 299.5q0 79 14 138h820q8 51 8 91q0 168 -90 266t-244 98q-132 0 -228 -64t-139 -179zM508 53q161 0 279 115t151 297h-739
q-7 -32 -7 -76q0 -152 83.5 -244t232.5 -92z" />
    <glyph glyph-name="uni04D9" unicode="&#x4d9;" horiz-adv-x="1044" 
d="M256 743h-79q46 144 166.5 229t282.5 85q191 0 300.5 -117t109.5 -312q0 -181 -68.5 -328.5t-190 -232t-271.5 -84.5q-181 0 -286 110.5t-105 299.5q0 79 14 138h820q8 51 8 91q0 168 -90 266t-244 98q-132 0 -228 -64t-139 -179zM508 53q161 0 279 115t151 297h-739
q-7 -32 -7 -76q0 -152 83.5 -244t232.5 -92z" />
    <glyph glyph-name="uni04D9" unicode="&#x259;" horiz-adv-x="1044" 
d="M256 743h-79q46 144 166.5 229t282.5 85q191 0 300.5 -117t109.5 -312q0 -181 -68.5 -328.5t-190 -232t-271.5 -84.5q-181 0 -286 110.5t-105 299.5q0 79 14 138h820q8 51 8 91q0 168 -90 266t-244 98q-132 0 -228 -64t-139 -179zM508 53q161 0 279 115t151 297h-739
q-7 -32 -7 -76q0 -152 83.5 -244t232.5 -92z" />
    <glyph glyph-name="Adieresismacron" unicode="&#x1de;" horiz-adv-x="1221" 
d="M846 1341l-463 -789h598l-131 789h-4zM1071 0l-79 482h-648l-285 -482h-90l855 1443h81l242 -1443h-76zM753 1683q27 0 46 -19t19 -46t-19 -46t-46 -19q-26 0 -45.5 19t-19.5 46t19.5 46t45.5 19zM1262 1919l-13 -60h-594l13 60h594zM1047 1683q27 0 46 -19t19 -46
t-19 -46t-46 -19t-46 19t-19 46t19 46t46 19z" />
    <glyph glyph-name="adieresismacron" unicode="&#x1df;" horiz-adv-x="978" 
d="M420 52q143 0 256 88t142 222l38 174l-344 -20q-169 -9 -261 -75t-92 -179q0 -94 72.5 -152t188.5 -58zM405 -16q-141 0 -232.5 76t-91.5 196q0 145 112.5 229.5t318.5 95.5l357 20l19 87q9 42 9 78q0 103 -72 161.5t-199 58.5q-134 0 -224.5 -64.5t-114.5 -175.5h-80
q27 141 142.5 226t282.5 85q155 0 249 -77.5t94 -205.5q0 -45 -10 -89l-145 -685h-76l40 187h-4q-56 -93 -157 -148t-218 -55zM537 1214q-27 0 -46.5 19.5t-19.5 46.5q0 28 19.5 47t46.5 19q28 0 47.5 -19t19.5 -47q0 -27 -19.5 -46.5t-47.5 -19.5zM836 1214q-27 0 -47 19.5
t-20 46.5t20 46.5t47 19.5t47 -19.5t20 -46.5t-20 -46.5t-47 -19.5zM1017 1617l-13 -60h-519l12 60h520z" />
    <glyph glyph-name="Adotmacron" unicode="&#x1e0;" horiz-adv-x="1221" 
d="M846 1341l-463 -789h598l-131 789h-4zM1071 0l-79 482h-648l-285 -482h-90l855 1443h81l242 -1443h-76zM904 1560q-31 0 -54 22.5t-23 53.5t22.5 53.5t54.5 22.5q31 0 53.5 -22.5t22.5 -53.5t-22.5 -53.5t-53.5 -22.5zM1262 1919l-13 -60h-594l13 60h594z" />
    <glyph glyph-name="adotmacron" unicode="&#x1e1;" horiz-adv-x="978" 
d="M420 52q143 0 256 88t142 222l38 174l-344 -20q-169 -9 -261 -75t-92 -179q0 -94 72.5 -152t188.5 -58zM405 -16q-141 0 -232.5 76t-91.5 196q0 145 112.5 229.5t318.5 95.5l357 20l19 87q9 42 9 78q0 103 -72 161.5t-199 58.5q-134 0 -224.5 -64.5t-114.5 -175.5h-80
q27 141 142.5 226t282.5 85q155 0 249 -77.5t94 -205.5q0 -45 -10 -89l-145 -685h-76l40 187h-4q-56 -93 -157 -148t-218 -55zM689 1211q-32 0 -54.5 22.5t-22.5 53.5t22.5 53.5t54.5 22.5q31 0 53.5 -22.5t22.5 -53.5t-22.5 -53.5t-53.5 -22.5zM1017 1617l-13 -60h-519
l12 60h520z" />
    <glyph glyph-name="AEmacron" unicode="&#x1e2;" horiz-adv-x="1840" 
d="M1203 1373h-180l-625 -881h618zM911 0l90 422h-650l-297 -422h-90l1020 1443h1011l-16 -73h-696l-127 -597h660l-16 -72h-660l-133 -628h696l-15 -73h-777zM1781 1679l-13 -59h-594l13 59h594z" />
    <glyph glyph-name="aemacron" unicode="&#x1e3;" horiz-adv-x="1786" 
d="M1278 -17q-154 0 -257 82.5t-132 223.5h-3q-41 -101 -120 -172t-168 -102.5t-182 -31.5q-142 0 -233 77.5t-91 195.5q0 144 111 223.5t318 89.5l369 19l21 100q9 41 9 78q0 102 -72.5 161t-199.5 59q-135 0 -227.5 -65.5t-114.5 -174.5h-80q26 139 143 225t284 86
q143 0 231 -68t100 -183h4q68 117 178.5 184t239.5 67q170 0 279 -116.5t109 -294.5q0 -56 -13 -127h-827q-10 -70 -10 -110q0 -161 91.5 -258t246.5 -97q125 0 217.5 53t135.5 150h78q-43 -125 -161.5 -199.5t-273.5 -74.5zM966 584h744q5 35 5 66q0 145 -88 241t-224 96
q-153 0 -273 -109.5t-164 -293.5zM431 52q147 0 264 89.5t146 220.5l35 161l-357 -19q-169 -10 -259 -71t-90 -171q0 -93 72.5 -151.5t188.5 -58.5zM1363 1358l-13 -60h-519l12 60h520z" />
    <glyph glyph-name="Gcaron" unicode="&#x1e6;" horiz-adv-x="1374" 
d="M1392 701l-41 -188q-56 -255 -217.5 -394.5t-398.5 -139.5q-255 0 -409.5 164.5t-154.5 430.5q0 178 52.5 340t145 284t229.5 194t297 72q225 0 369 -123.5t162 -327.5v-4h-80q-20 175 -142 278t-312 103q-140 0 -261 -66t-203.5 -177t-129.5 -258.5t-47 -308.5
q0 -237 132.5 -382t354.5 -145q203 0 344.5 123.5t190.5 342.5l24 111h-480l15 71h560zM886 1556l-201 289h78l159 -232h4l258 232h90l-324 -289h-64z" />
    <glyph glyph-name="gcaron" unicode="&#x1e7;" horiz-adv-x="1097" 
d="M456 -375q-173 0 -286 83t-115 202h80q8 -93 96.5 -155t228.5 -62q151 0 254.5 81.5t135.5 226.5l55 246h-4q-59 -115 -167 -181.5t-234 -66.5q-175 0 -280 115.5t-105 308.5q0 168 69 313t192.5 232.5t272.5 87.5q147 0 244.5 -86.5t111.5 -226.5h5l64 297h77
l-223 -1042q-38 -177 -163.5 -275t-308.5 -98zM515 69q128 0 232.5 75t163 203.5t58.5 282.5q0 162 -88 259t-233 97q-124 0 -229 -76t-165.5 -205t-60.5 -279q0 -165 85.5 -261t236.5 -96zM784 1241h-71l-192 303h78l154 -249h3l262 249h89z" />
    <glyph glyph-name="Kcaron" unicode="&#x1e8;" horiz-adv-x="1143" 
d="M160 0h-80l307 1443h80l-170 -800h4l913 800h109l-715 -629l474 -814h-92l-443 764l-275 -238zM783 1556l-201 289h78l159 -232h4l258 232h90l-324 -289h-64z" />
    <glyph glyph-name="kcaron" unicode="&#x1e9;" horiz-adv-x="883" 
d="M140 0h-78l307 1443h78l-197 -925h4l686 522h109l-579 -444l375 -596h-89l-349 552l-179 -136zM403 1556l-201 289h78l159 -232h4l258 232h90l-324 -289h-64z" />
    <glyph glyph-name="Oogonek" unicode="&#x1ea;" horiz-adv-x="1455" 
d="M874 -379q-28 -14 -81 -14q-72 0 -117.5 40t-45.5 103q0 67 46.5 121t159.5 116v4q-55 -12 -98 -12q-257 0 -410.5 169.5t-153.5 453.5q0 237 96.5 435t266 312.5t374.5 114.5q257 0 411 -169.5t154 -452.5q0 -258 -120.5 -472t-319.5 -319q-185 -97 -259 -158.5
t-74 -125.5q0 -43 32.5 -70.5t82.5 -27.5q47 0 69 13zM1396 842q0 250 -132 399t-353 149q-137 0 -259 -61.5t-209 -167t-137.5 -251t-50.5 -307.5q0 -252 131 -401t353 -149q137 0 259.5 62t209.5 167.5t137.5 251t50.5 308.5z" />
    <glyph glyph-name="oogonek" unicode="&#x1eb;" horiz-adv-x="1077" 
d="M606 -376q-30 -14 -83 -14q-71 0 -116.5 39t-45.5 101q0 64 47.5 120t152.5 112v4q-12 -2 -22 -2q-191 0 -305.5 119.5t-114.5 318.5q0 177 69.5 322.5t192 229t271.5 83.5q191 0 306.5 -120.5t115.5 -318.5q0 -200 -91.5 -359t-243.5 -233q-164 -77 -234 -138t-70 -121
q0 -42 31.5 -68.5t81.5 -26.5q48 0 70 12zM197 424q0 -170 93 -270t251 -100q128 0 232 73.5t163.5 202.5t59.5 286q0 169 -93.5 269.5t-251.5 100.5q-127 0 -231.5 -74t-163.5 -203t-59 -285z" />
    <glyph glyph-name="Oogonekmacron" unicode="&#x1ec;" horiz-adv-x="1455" 
d="M874 -379q-28 -14 -81 -14q-72 0 -117.5 40t-45.5 103q0 67 46.5 121t159.5 116v4q-55 -12 -98 -12q-257 0 -410.5 169.5t-153.5 453.5q0 237 96.5 435t266 312.5t374.5 114.5q257 0 411 -169.5t154 -452.5q0 -258 -120.5 -472t-319.5 -319q-185 -97 -259 -158.5
t-74 -125.5q0 -43 32.5 -70.5t82.5 -27.5q47 0 69 13zM1396 842q0 250 -132 399t-353 149q-137 0 -259 -61.5t-209 -167t-137.5 -251t-50.5 -307.5q0 -252 131 -401t353 -149q137 0 259.5 62t209.5 167.5t137.5 251t50.5 308.5zM1262 1679l-13 -59h-594l13 59h594z" />
    <glyph glyph-name="oogonekmacron" unicode="&#x1ed;" horiz-adv-x="1077" 
d="M606 -376q-30 -14 -83 -14q-71 0 -116.5 39t-45.5 101q0 64 47.5 120t152.5 112v4q-12 -2 -22 -2q-191 0 -305.5 119.5t-114.5 318.5q0 177 69.5 322.5t192 229t271.5 83.5q191 0 306.5 -120.5t115.5 -318.5q0 -200 -91.5 -359t-243.5 -233q-164 -77 -234 -138t-70 -121
q0 -42 31.5 -68.5t81.5 -26.5q48 0 70 12zM197 424q0 -170 93 -270t251 -100q128 0 232 73.5t163.5 202.5t59.5 286q0 169 -93.5 269.5t-251.5 100.5q-127 0 -231.5 -74t-163.5 -203t-59 -285zM1011 1358l-13 -60h-519l12 60h520z" />
    <glyph glyph-name="uni01F1" unicode="&#x1f1;" horiz-adv-x="2540" 
d="M387 1443h424q278 0 431 -150.5t153 -412.5q0 -254 -103 -454t-294.5 -313t-439.5 -113h-477zM453 1371l-275 -1299h377q224 0 397.5 103.5t267.5 285t94 410.5q0 238 -132 369t-383 131h-346zM1384 0l13 62l1195 1305v4h-888l15 72h997l-13 -62l-1194 -1305v-4h920
l-15 -72h-1030z" />
    <glyph glyph-name="uni01F2" unicode="&#x1f2;" horiz-adv-x="2276" 
d="M387 1443h424q278 0 431 -150.5t153 -412.5q0 -254 -103 -454t-294.5 -313t-439.5 -113h-477zM453 1371l-275 -1299h377q224 0 397.5 103.5t267.5 285t94 410.5q0 238 -132 369t-383 131h-346zM1375 0l13 64l869 904l1 4h-675l15 68h776l-14 -65l-866 -903l-1 -4h674
l-14 -68h-778z" />
    <glyph glyph-name="uni01F3" unicode="&#x1f3;" horiz-adv-x="2017" 
d="M493 -16q-170 0 -275 117.5t-105 306.5q0 131 43 251t115.5 207t171.5 138.5t207 51.5q145 0 245.5 -87.5t116.5 -225.5h4l150 700h78l-307 -1443h-79l50 234h-4q-62 -114 -174 -182t-237 -68zM509 54q132 0 239.5 79t166.5 210t59 284q0 163 -88.5 261t-236.5 98
q-121 0 -227 -77.5t-169 -210t-63 -284.5q0 -163 87 -261.5t232 -98.5zM1116 0l13 64l869 904l1 4h-675l15 68h776l-14 -65l-866 -903l-1 -4h674l-14 -68h-778z" />
    <glyph glyph-name="Gacute" unicode="&#x1f4;" horiz-adv-x="1374" 
d="M1392 701l-41 -188q-56 -255 -217.5 -394.5t-398.5 -139.5q-255 0 -409.5 164.5t-154.5 430.5q0 178 52.5 340t145 284t229.5 194t297 72q225 0 369 -123.5t162 -327.5v-4h-80q-20 175 -142 278t-312 103q-140 0 -261 -66t-203.5 -177t-129.5 -258.5t-47 -308.5
q0 -237 132.5 -382t354.5 -145q203 0 344.5 123.5t190.5 342.5l24 111h-480l15 71h560zM954 1556h-86l336 287h100z" />
    <glyph glyph-name="gacute" unicode="&#x1f5;" horiz-adv-x="1097" 
d="M456 -375q-173 0 -286 83t-115 202h80q8 -93 96.5 -155t228.5 -62q151 0 254.5 81.5t135.5 226.5l55 246h-4q-59 -115 -167 -181.5t-234 -66.5q-175 0 -280 115.5t-105 308.5q0 168 69 313t192.5 232.5t272.5 87.5q147 0 244.5 -86.5t111.5 -226.5h5l64 297h77
l-223 -1042q-38 -177 -163.5 -275t-308.5 -98zM515 69q128 0 232.5 75t163 203.5t58.5 282.5q0 162 -88 259t-233 97q-124 0 -229 -76t-165.5 -205t-60.5 -279q0 -165 85.5 -261t236.5 -96zM783 1241h-82l301 303h93z" />
    <glyph glyph-name="Ngrave" unicode="&#x1f8;" horiz-adv-x="1355" 
d="M160 0h-80l307 1443h79l646 -1319h4l280 1319h80l-307 -1443h-79l-646 1319h-4zM907 1556l-184 287h86l171 -287h-73z" />
    <glyph glyph-name="ngrave" unicode="&#x1f9;" horiz-adv-x="1047" 
d="M61 0l221 1040h75l-44 -208h4q61 104 158.5 164.5t221.5 60.5q150 0 245 -88t95 -222q0 -53 -12 -110l-136 -637h-78l132 622q14 61 14 107q0 116 -77.5 186.5t-207.5 70.5q-145 0 -255 -99t-141 -246l-138 -641h-77zM771 1241h-70l-184 303h83z" />
    <glyph glyph-name="Aringacute" unicode="&#x1fa;" horiz-adv-x="1221" 
d="M846 1341l-463 -789h598l-131 789h-4zM1071 0l-79 482h-648l-285 -482h-90l855 1443h81l242 -1443h-76zM915 1522q-70 0 -119 47.5t-49 118.5t49.5 120.5t120.5 49.5q70 0 119 -47.5t49 -117.5q0 -72 -49.5 -121.5t-120.5 -49.5zM915 1571q52 0 86 34.5t34 86.5
q-1 50 -34.5 83.5t-83.5 33.5q-51 0 -85 -34.5t-34 -86.5q0 -50 33.5 -83.5t83.5 -33.5zM1102 2087h88l-185 -164h-80z" />
    <glyph glyph-name="aringacute" unicode="&#x1fb;" horiz-adv-x="978" 
d="M420 52q143 0 256 88t142 222l38 174l-344 -20q-169 -9 -261 -75t-92 -179q0 -94 72.5 -152t188.5 -58zM405 -16q-141 0 -232.5 76t-91.5 196q0 145 112.5 229.5t318.5 95.5l357 20l19 87q9 42 9 78q0 103 -72 161.5t-199 58.5q-134 0 -224.5 -64.5t-114.5 -175.5h-80
q27 141 142.5 226t282.5 85q155 0 249 -77.5t94 -205.5q0 -45 -10 -89l-145 -685h-76l40 187h-4q-56 -93 -157 -148t-218 -55zM700 1610l186 171h90l-197 -171h-79zM703 1191q-70 0 -119.5 48.5t-49.5 119.5q0 73 50 123t122 50q70 0 119.5 -48.5t49.5 -119.5
q0 -73 -50 -123t-122 -50zM585 1360q0 -51 34 -85.5t84 -34.5q52 0 87 35t35 88q-1 51 -34.5 85.5t-84.5 34.5q-52 0 -86.5 -35t-34.5 -88z" />
    <glyph glyph-name="AEacute" unicode="&#x1fc;" horiz-adv-x="1840" 
d="M1203 1373h-180l-625 -881h618zM911 0l90 422h-650l-297 -422h-90l1020 1443h1011l-16 -73h-696l-127 -597h660l-16 -72h-660l-133 -628h696l-15 -73h-777zM1496 1556h-86l336 287h100z" />
    <glyph glyph-name="aeacute" unicode="&#x1fd;" horiz-adv-x="1786" 
d="M1278 -17q-154 0 -257 82.5t-132 223.5h-3q-41 -101 -120 -172t-168 -102.5t-182 -31.5q-142 0 -233 77.5t-91 195.5q0 144 111 223.5t318 89.5l369 19l21 100q9 41 9 78q0 102 -72.5 161t-199.5 59q-135 0 -227.5 -65.5t-114.5 -174.5h-80q26 139 143 225t284 86
q143 0 231 -68t100 -183h4q68 117 178.5 184t239.5 67q170 0 279 -116.5t109 -294.5q0 -56 -13 -127h-827q-10 -70 -10 -110q0 -161 91.5 -258t246.5 -97q125 0 217.5 53t135.5 150h78q-43 -125 -161.5 -199.5t-273.5 -74.5zM966 584h744q5 35 5 66q0 145 -88 241t-224 96
q-153 0 -273 -109.5t-164 -293.5zM431 52q147 0 264 89.5t146 220.5l35 161l-357 -19q-169 -10 -259 -71t-90 -171q0 -93 72.5 -151.5t188.5 -58.5zM1118 1241h-82l301 303h93z" />
    <glyph glyph-name="Oslashacute" unicode="&#x1fe;" horiz-adv-x="1455" 
d="M1327 1843l-350 -287h-86l336 287h100zM1321 1170l-949 -950q136 -167 378 -167q182 0 332 105.5t235 287.5t85 402q0 186 -81 322zM334 273l950 950q-137 167 -378 167q-182 0 -332.5 -105.5t-235.5 -287.5t-85 -402q0 -186 81 -322zM1543 1392l-164 -164
q104 -154 104 -374q0 -243 -95.5 -443.5t-264.5 -316t-376 -115.5q-273 0 -432 184l-157 -157l-46 45l164 164q-103 155 -103 374q0 243 95.5 443.5t264.5 316t376 115.5q134 0 244.5 -48t186.5 -137l158 158z" />
    <glyph glyph-name="oslashacute" unicode="&#x1ff;" horiz-adv-x="1080" 
d="M1084 1544l-312 -303h-82l301 303h93zM946 826l-662 -662q94 -110 258 -110q194 0 325 160.5t131 398.5q0 124 -52 213zM249 214l662 662q-94 110 -258 110q-127 0 -231.5 -73t-164 -201t-59.5 -285q0 -122 51 -213zM1120 1000l-117 -117q73 -112 73 -268
q0 -178 -69.5 -322.5t-192 -227t-272.5 -82.5q-198 0 -312 127l-112 -112l-43 42l118 118q-73 110 -73 267q0 177 69.5 322t191.5 227.5t272 82.5q196 0 313 -126l111 111z" />
    <glyph glyph-name="Adblgrave" unicode="&#x200;" horiz-adv-x="1221" 
d="M846 1341l-463 -789h598l-131 789h-4zM1071 0l-79 482h-648l-285 -482h-90l855 1443h81l242 -1443h-76zM719 1556l-184 287h86l171 -287h-73zM989 1556l-184 287h85l172 -287h-73z" />
    <glyph glyph-name="adblgrave" unicode="&#x201;" horiz-adv-x="978" 
d="M420 52q143 0 256 88t142 222l38 174l-344 -20q-169 -9 -261 -75t-92 -179q0 -94 72.5 -152t188.5 -58zM405 -16q-141 0 -232.5 76t-91.5 196q0 145 112.5 229.5t318.5 95.5l357 20l19 87q9 42 9 78q0 103 -72 161.5t-199 58.5q-134 0 -224.5 -64.5t-114.5 -175.5h-80
q27 141 142.5 226t282.5 85q155 0 249 -77.5t94 -205.5q0 -45 -10 -89l-145 -685h-76l40 187h-4q-56 -93 -157 -148t-218 -55zM602 1241h-67l-182 303h82zM845 1241h-68l-181 303h81z" />
    <glyph glyph-name="Ainvertedbreve" unicode="&#x202;" horiz-adv-x="1221" 
d="M846 1341l-463 -789h598l-131 789h-4zM1071 0l-79 482h-648l-285 -482h-90l855 1443h81l242 -1443h-76zM1166 1551h-64q4 4 4 27q0 69 -52.5 111t-138.5 42q-90 0 -152.5 -50t-72.5 -130h-64q12 106 94 171.5t203 65.5q108 0 178 -57t70 -146q0 -26 -5 -34z" />
    <glyph glyph-name="ainvertedbreve" unicode="&#x203;" horiz-adv-x="978" 
d="M420 52q143 0 256 88t142 222l38 174l-344 -20q-169 -9 -261 -75t-92 -179q0 -94 72.5 -152t188.5 -58zM405 -16q-141 0 -232.5 76t-91.5 196q0 145 112.5 229.5t318.5 95.5l357 20l19 87q9 42 9 78q0 103 -72 161.5t-199 58.5q-134 0 -224.5 -64.5t-114.5 -175.5h-80
q27 141 142.5 226t282.5 85q155 0 249 -77.5t94 -205.5q0 -45 -10 -89l-145 -685h-76l40 187h-4q-56 -93 -157 -148t-218 -55zM949 1212h-64q4 8 4 29q0 74 -52 120.5t-139 46.5q-90 0 -151.5 -54.5t-72.5 -141.5h-64q14 113 94.5 183t201.5 70q110 0 179 -61.5t69 -155.5
q0 -24 -5 -36z" />
    <glyph glyph-name="Edblgrave" unicode="&#x204;" horiz-adv-x="1060" 
d="M937 73l-15 -73h-842l307 1443h842l-16 -73h-761l-126 -594h725l-16 -72h-725l-133 -631h760zM664 1556l-184 287h86l171 -287h-73zM934 1556l-184 287h85l172 -287h-73z" />
    <glyph glyph-name="edblgrave" unicode="&#x205;" horiz-adv-x="1027" 
d="M212 575h740q6 28 6 76q0 151 -83.5 243.5t-230.5 92.5q-161 0 -280 -115t-152 -297zM523 -17q-189 0 -298.5 117t-109.5 312q0 181 68.5 328.5t190 232t272.5 84.5q180 0 285 -110.5t105 -300.5q0 -74 -15 -137h-820q-8 -61 -8 -91q0 -169 90 -267t244 -98
q133 0 229 64.5t139 179.5h79q-47 -144 -167.5 -229t-283.5 -85zM645 1241h-67l-182 303h82zM888 1241h-68l-181 303h81z" />
    <glyph glyph-name="Einvertedbreve" unicode="&#x206;" horiz-adv-x="1060" 
d="M937 73l-15 -73h-842l307 1443h842l-16 -73h-761l-126 -594h725l-16 -72h-725l-133 -631h760zM1111 1551h-64q4 4 4 27q0 69 -52.5 111t-138.5 42q-90 0 -152.5 -50t-72.5 -130h-64q12 106 94 171.5t203 65.5q108 0 178 -57t70 -146q0 -26 -5 -34z" />
    <glyph glyph-name="einvertedbreve" unicode="&#x207;" horiz-adv-x="1027" 
d="M212 575h740q6 28 6 76q0 151 -83.5 243.5t-230.5 92.5q-161 0 -280 -115t-152 -297zM523 -17q-189 0 -298.5 117t-109.5 312q0 181 68.5 328.5t190 232t272.5 84.5q180 0 285 -110.5t105 -300.5q0 -74 -15 -137h-820q-8 -61 -8 -91q0 -169 90 -267t244 -98
q133 0 229 64.5t139 179.5h79q-47 -144 -167.5 -229t-283.5 -85zM992 1212h-64q4 8 4 29q0 74 -52 120.5t-139 46.5q-90 0 -151.5 -54.5t-72.5 -141.5h-64q14 113 94.5 183t201.5 70q110 0 179 -61.5t69 -155.5q0 -24 -5 -36z" />
    <glyph glyph-name="Idblgrave" unicode="&#x208;" horiz-adv-x="346" 
d="M160 0h-80l307 1443h80zM283 1556l-184 287h86l171 -287h-73zM553 1556l-184 287h85l172 -287h-73z" />
    <glyph glyph-name="idblgrave" unicode="&#x209;" horiz-adv-x="317" 
d="M67 0l221 1040h78l-221 -1040h-78zM293 1241h-67l-182 303h82zM536 1241h-68l-181 303h81z" />
    <glyph glyph-name="Iinvertedbreve" unicode="&#x20a;" horiz-adv-x="346" 
d="M160 0h-80l307 1443h80zM730 1551h-64q4 4 4 27q0 69 -52.5 111t-138.5 42q-90 0 -152.5 -50t-72.5 -130h-64q12 106 94 171.5t203 65.5q108 0 178 -57t70 -146q0 -26 -5 -34z" />
    <glyph glyph-name="iinvertedbreve" unicode="&#x20b;" horiz-adv-x="317" 
d="M67 0l221 1040h78l-221 -1040h-78zM640 1212h-64q4 8 4 29q0 74 -52 120.5t-139 46.5q-90 0 -151.5 -54.5t-72.5 -141.5h-64q14 113 94.5 183t201.5 70q110 0 179 -61.5t69 -155.5q0 -24 -5 -36z" />
    <glyph glyph-name="Odblgrave" unicode="&#x20c;" horiz-adv-x="1455" 
d="M906 1390q-182 0 -332.5 -105.5t-235.5 -287.5t-85 -402q0 -248 136 -395t361 -147q182 0 332 105.5t235 287.5t85 402q0 248 -136 395t-360 147zM747 -21q-258 0 -416 167t-158 443q0 243 95.5 443.5t264.5 316t376 115.5q257 0 415.5 -167t158.5 -443
q0 -243 -95.5 -443.5t-264.5 -316t-376 -115.5zM770 1556l-184 287h86l171 -287h-73zM1040 1556l-184 287h85l172 -287h-73z" />
    <glyph glyph-name="odblgrave" unicode="&#x20d;" horiz-adv-x="1080" 
d="M542 54q194 0 325 160.5t131 398.5q0 169 -94 271t-251 102q-127 0 -231.5 -73t-164 -201t-59.5 -285q0 -169 94 -271t250 -102zM653 1057q192 0 307.5 -121t115.5 -321q0 -178 -69.5 -322.5t-192 -227t-272.5 -82.5q-192 0 -307 121t-115 321q0 177 69.5 322
t191.5 227.5t272 82.5zM656 1241h-67l-182 303h82zM899 1241h-68l-181 303h81z" />
    <glyph glyph-name="Oinvertedbreve" unicode="&#x20e;" horiz-adv-x="1455" 
d="M906 1390q-182 0 -332.5 -105.5t-235.5 -287.5t-85 -402q0 -248 136 -395t361 -147q182 0 332 105.5t235 287.5t85 402q0 248 -136 395t-360 147zM747 -21q-258 0 -416 167t-158 443q0 243 95.5 443.5t264.5 316t376 115.5q257 0 415.5 -167t158.5 -443
q0 -243 -95.5 -443.5t-264.5 -316t-376 -115.5zM1217 1551h-64q4 4 4 27q0 69 -52.5 111t-138.5 42q-90 0 -152.5 -50t-72.5 -130h-64q12 106 94 171.5t203 65.5q108 0 178 -57t70 -146q0 -26 -5 -34z" />
    <glyph glyph-name="oinvertedbreve" unicode="&#x20f;" horiz-adv-x="1080" 
d="M542 54q194 0 325 160.5t131 398.5q0 169 -94 271t-251 102q-127 0 -231.5 -73t-164 -201t-59.5 -285q0 -169 94 -271t250 -102zM653 1057q192 0 307.5 -121t115.5 -321q0 -178 -69.5 -322.5t-192 -227t-272.5 -82.5q-192 0 -307 121t-115 321q0 177 69.5 322
t191.5 227.5t272 82.5zM1004 1212h-64q4 8 4 29q0 74 -52 120.5t-139 46.5q-90 0 -151.5 -54.5t-72.5 -141.5h-64q14 113 94.5 183t201.5 70q110 0 179 -61.5t69 -155.5q0 -24 -5 -36z" />
    <glyph glyph-name="Rdblgrave" unicode="&#x210;" horiz-adv-x="1171" 
d="M80 0l311 1443h419q206 0 318.5 -99t112.5 -268q0 -179 -114.5 -299t-311.5 -149l234 -628h-83l-230 619h-30h-412l-133 -619h-81zM456 1371l-147 -680h405q198 0 321.5 105t123.5 274q0 139 -92 220t-261 81h-350zM601 1556l-184 287h86l171 -287h-73zM871 1556
l-184 287h85l172 -287h-73z" />
    <glyph glyph-name="rdblgrave" unicode="&#x211;" horiz-adv-x="621" 
d="M61 0l221 1040h75l-39 -179h4q111 194 299 194q84 0 134 -27l-17 -77q-43 31 -133 31q-119 0 -208.5 -96.5t-124.5 -258.5l-134 -627h-77zM478 1241h-67l-182 303h82zM721 1241h-68l-181 303h81z" />
    <glyph glyph-name="Rinvertedbreve" unicode="&#x212;" horiz-adv-x="1171" 
d="M80 0l311 1443h419q206 0 318.5 -99t112.5 -268q0 -179 -114.5 -299t-311.5 -149l234 -628h-83l-230 619h-30h-412l-133 -619h-81zM456 1371l-147 -680h405q198 0 321.5 105t123.5 274q0 139 -92 220t-261 81h-350zM1048 1551h-64q4 4 4 27q0 69 -52.5 111t-138.5 42
q-90 0 -152.5 -50t-72.5 -130h-64q12 106 94 171.5t203 65.5q108 0 178 -57t70 -146q0 -26 -5 -34z" />
    <glyph glyph-name="rinvertedbreve" unicode="&#x213;" horiz-adv-x="621" 
d="M61 0l221 1040h75l-39 -179h4q111 194 299 194q84 0 134 -27l-17 -77q-43 31 -133 31q-119 0 -208.5 -96.5t-124.5 -258.5l-134 -627h-77zM826 1212h-64q4 8 4 29q0 74 -52 120.5t-139 46.5q-90 0 -151.5 -54.5t-72.5 -141.5h-64q14 113 94.5 183t201.5 70
q110 0 179 -61.5t69 -155.5q0 -24 -5 -36z" />
    <glyph glyph-name="Udblgrave" unicode="&#x214;" horiz-adv-x="1358" 
d="M669 -21q-220 0 -352.5 119t-132.5 309q-1 68 13 140l191 896h81l-191 -895q-15 -62 -13 -136q2 -163 113.5 -261t301.5 -98q197 0 333 111t178 306l208 973h80l-210 -985q-49 -228 -204.5 -353.5t-395.5 -125.5zM785 1556l-184 287h86l171 -287h-73zM1055 1556l-184 287
h85l172 -287h-73z" />
    <glyph glyph-name="udblgrave" unicode="&#x215;" horiz-adv-x="1048" 
d="M1102 1040l-221 -1040h-74l44 204h-4q-58 -99 -158 -160t-224 -61q-151 0 -244 87t-93 220q0 54 11 115l136 635h77l-132 -622q-13 -57 -13 -108q0 -118 75 -187t206 -69q147 0 258 99.5t142 245.5l138 641h76zM639 1241h-67l-182 303h82zM882 1241h-68l-181 303h81z" />
    <glyph glyph-name="Uinvertedbreve" unicode="&#x216;" horiz-adv-x="1358" 
d="M669 -21q-220 0 -352.5 119t-132.5 309q-1 68 13 140l191 896h81l-191 -895q-15 -62 -13 -136q2 -163 113.5 -261t301.5 -98q197 0 333 111t178 306l208 973h80l-210 -985q-49 -228 -204.5 -353.5t-395.5 -125.5zM1233 1551h-64q4 4 4 27q0 69 -52.5 111t-138.5 42
q-90 0 -152.5 -50t-72.5 -130h-64q12 106 94 171.5t203 65.5q108 0 178 -57t70 -146q0 -26 -5 -34z" />
    <glyph glyph-name="uinvertedbreve" unicode="&#x217;" horiz-adv-x="1048" 
d="M1102 1040l-221 -1040h-74l44 204h-4q-58 -99 -158 -160t-224 -61q-151 0 -244 87t-93 220q0 54 11 115l136 635h77l-132 -622q-13 -57 -13 -108q0 -118 75 -187t206 -69q147 0 258 99.5t142 245.5l138 641h76zM986 1212h-64q4 8 4 29q0 74 -52 120.5t-139 46.5
q-90 0 -151.5 -54.5t-72.5 -141.5h-64q14 113 94.5 183t201.5 70q110 0 179 -61.5t69 -155.5q0 -24 -5 -36z" />
    <glyph glyph-name="Scommaaccent" unicode="&#x218;" horiz-adv-x="1196" 
d="M111 406h79q11 -158 135.5 -256t319.5 -98q184 0 297.5 89.5t113.5 238.5q0 103 -65.5 172t-213.5 125l-121 47q-185 70 -267 155t-82 213q0 164 131.5 268t337.5 104t342 -111t145 -290h-79q-11 146 -123.5 237t-284.5 91q-173 0 -280 -83.5t-107 -211.5
q0 -102 69.5 -170.5t231.5 -129.5l125 -48q168 -62 246 -148t78 -211q0 -178 -135.5 -294t-359.5 -116q-229 0 -377.5 117.5t-155.5 309.5zM451 -475h-66l175 341h82z" />
    <glyph glyph-name="scommaaccent" unicode="&#x219;" horiz-adv-x="922" 
d="M222 772q0 124 101.5 204t260.5 80q155 0 256.5 -85t111.5 -220h-76q-11 105 -92 171.5t-203 66.5q-123 0 -202.5 -60t-79.5 -151q0 -69 48.5 -115.5t160.5 -83.5l89 -31q142 -49 202.5 -111t60.5 -160q0 -130 -105.5 -212t-272.5 -82q-170 0 -283.5 88.5t-125.5 228.5
h78q16 -112 107.5 -180.5t227.5 -68.5q130 0 212.5 62.5t82.5 160.5q0 74 -48 119.5t-174 88.5l-91 31q-128 43 -187 105t-59 154zM276 -475h-66l175 341h82z" />
    <glyph glyph-name="Tcommaaccent" unicode="&#x21a;" horiz-adv-x="1158" 
d="M567 0h-81l292 1370h-508l15 73h1096l-15 -73h-508zM353 -475h-66l175 341h82z" />
    <glyph glyph-name="tcommaaccent" unicode="&#x21b;" horiz-adv-x="535" 
d="M379 -2q-103 0 -162.5 45t-59.5 130q0 36 11 89l151 710h-151l14 68h152l58 275h78l-58 -275h224l-14 -68h-224l-149 -697q-11 -49 -11 -81q0 -63 42.5 -95t118.5 -32q48 0 62 2l-15 -68q-15 -3 -67 -3zM132 -475h-66l175 341h82z" />
    <glyph glyph-name="Hcaron" unicode="&#x21e;" horiz-adv-x="1338" 
d="M1152 0h-80l150 705h-912l-150 -705h-80l307 1443h80l-141 -666h912l141 666h80zM917 1556l-201 289h78l159 -232h4l258 232h90l-324 -289h-64z" />
    <glyph glyph-name="hcaron" unicode="&#x21f;" horiz-adv-x="1056" 
d="M62 0l309 1443h78l-130 -607h4q58 100 155 160t221 60q153 0 248.5 -90t95.5 -227q0 -55 -10 -102l-138 -637h-77l133 622q12 57 12 98q0 120 -78 193t-210 73q-147 0 -256.5 -99t-140.5 -246l-138 -641h-78zM405 1556l-201 289h78l159 -232h4l258 232h90l-324 -289h-64z
" />
    <glyph glyph-name="Adotaccent" unicode="&#x226;" horiz-adv-x="1221" 
d="M846 1341l-463 -789h598l-131 789h-4zM1071 0l-79 482h-648l-285 -482h-90l855 1443h81l242 -1443h-76zM919 1644q-32 0 -55 23t-23 54t23.5 54.5t54.5 23.5t54.5 -23.5t23.5 -54.5t-23 -54t-55 -23z" />
    <glyph glyph-name="adotaccent" unicode="&#x227;" horiz-adv-x="978" 
d="M420 52q143 0 256 88t142 222l38 174l-344 -20q-169 -9 -261 -75t-92 -179q0 -94 72.5 -152t188.5 -58zM405 -16q-141 0 -232.5 76t-91.5 196q0 145 112.5 229.5t318.5 95.5l357 20l19 87q9 42 9 78q0 103 -72 161.5t-199 58.5q-134 0 -224.5 -64.5t-114.5 -175.5h-80
q27 141 142.5 226t282.5 85q155 0 249 -77.5t94 -205.5q0 -45 -10 -89l-145 -685h-76l40 187h-4q-56 -93 -157 -148t-218 -55zM692 1241q-32 0 -54.5 22.5t-22.5 54.5t23 55t54 23q32 0 55 -23t23 -55t-23 -54.5t-55 -22.5z" />
    <glyph glyph-name="Ecedilla" unicode="&#x228;" horiz-adv-x="1060" 
d="M1213 1370h-761l-126 -594h725l-16 -72h-725l-133 -631h760l-15 -73h-366l-90 -141q88 -5 136 -43.5t48 -106.5q0 -81 -59 -128.5t-154 -47.5q-94 0 -168 37l13 60q69 -36 153 -36q67 0 107.5 28.5t40.5 80.5q0 94 -145 105l-52 3l10 42l94 147h-410l307 1443h842z" />
    <glyph glyph-name="ecedilla" unicode="&#x229;" horiz-adv-x="1027" 
d="M212 575h740q6 28 6 76q0 151 -83.5 243.5t-230.5 92.5q-161 0 -280 -115t-152 -297zM1021 509h-820q-8 -61 -8 -91q0 -169 90 -267t244 -98q133 0 229 64.5t139 179.5h79q-47 -144 -167.5 -229t-283.5 -85h-5l-79 -124q88 -5 136 -43.5t48 -106.5q0 -81 -59 -128.5
t-154 -47.5q-94 0 -168 37l13 60q69 -36 153 -36q67 0 107.5 28.5t40.5 80.5q0 94 -145 105l-52 3l10 42l86 134q-159 21 -249.5 135t-90.5 290q0 181 68.5 328.5t190 232t272.5 84.5q180 0 285 -110.5t105 -300.5q0 -74 -15 -137z" />
    <glyph glyph-name="Odieresismacron" unicode="&#x22a;" horiz-adv-x="1455" 
d="M906 1390q-182 0 -332.5 -105.5t-235.5 -287.5t-85 -402q0 -248 136 -395t361 -147q182 0 332 105.5t235 287.5t85 402q0 248 -136 395t-360 147zM747 -21q-258 0 -416 167t-158 443q0 243 95.5 443.5t264.5 316t376 115.5q257 0 415.5 -167t158.5 -443
q0 -243 -95.5 -443.5t-264.5 -316t-376 -115.5zM804 1683q27 0 46 -19t19 -46t-19 -46t-46 -19q-26 0 -45.5 19t-19.5 46t19.5 46t45.5 19zM1313 1919l-13 -60h-594l13 60h594zM1098 1683q27 0 46 -19t19 -46t-19 -46t-46 -19t-46 19t-19 46t19 46t46 19z" />
    <glyph glyph-name="odieresismacron" unicode="&#x22b;" horiz-adv-x="1080" 
d="M542 54q194 0 325 160.5t131 398.5q0 169 -94 271t-251 102q-127 0 -231.5 -73t-164 -201t-59.5 -285q0 -169 94 -271t250 -102zM653 1057q192 0 307.5 -121t115.5 -321q0 -178 -69.5 -322.5t-192 -227t-272.5 -82.5q-192 0 -307 121t-115 321q0 177 69.5 322
t191.5 227.5t272 82.5zM592 1214q-27 0 -46.5 19.5t-19.5 46.5q0 28 19.5 47t46.5 19q28 0 47.5 -19t19.5 -47q0 -27 -19.5 -46.5t-47.5 -19.5zM891 1214q-27 0 -47 19.5t-20 46.5t20 46.5t47 19.5t47 -19.5t20 -46.5t-20 -46.5t-47 -19.5zM1072 1617l-13 -60h-519l12 60
h520z" />
    <glyph glyph-name="Otildemacron" unicode="&#x22c;" horiz-adv-x="1455" 
d="M906 1390q-182 0 -332.5 -105.5t-235.5 -287.5t-85 -402q0 -248 136 -395t361 -147q182 0 332 105.5t235 287.5t85 402q0 248 -136 395t-360 147zM747 -21q-258 0 -416 167t-158 443q0 243 95.5 443.5t264.5 316t376 115.5q257 0 415.5 -167t158.5 -443
q0 -243 -95.5 -443.5t-264.5 -316t-376 -115.5zM1313 1919l-13 -60h-594l13 60h594zM1063 1550q-34 0 -60 15.5t-42.5 38t-32 44.5t-35.5 37.5t-45 15.5q-39 0 -73.5 -37.5t-46.5 -94.5h-59q18 85 69 136.5t117 51.5q34 0 60 -15.5t42 -37.5t31.5 -44.5t35.5 -38t45 -15.5
q40 0 73 36.5t47 95.5h59q-19 -85 -70 -136.5t-115 -51.5z" />
    <glyph glyph-name="otildemacron" unicode="&#x22d;" horiz-adv-x="1080" 
d="M542 54q194 0 325 160.5t131 398.5q0 169 -94 271t-251 102q-127 0 -231.5 -73t-164 -201t-59.5 -285q0 -169 94 -271t250 -102zM653 1057q192 0 307.5 -121t115.5 -321q0 -178 -69.5 -322.5t-192 -227t-272.5 -82.5q-192 0 -307 121t-115 321q0 177 69.5 322
t191.5 227.5t272 82.5zM875 1188q-36 0 -67 17t-52 41t-41 48.5t-45 41.5t-53 17q-43 0 -78 -41t-48 -112h-62q17 98 69 155t123 57q37 0 68 -17t52.5 -41t41 -48.5t44 -41.5t52.5 -17q41 0 74 40t48 113h62q-21 -101 -70.5 -156.5t-117.5 -55.5zM1072 1617l-13 -60h-519
l12 60h520z" />
    <glyph glyph-name="Odotaccent" unicode="&#x22e;" horiz-adv-x="1455" 
d="M906 1390q-182 0 -332.5 -105.5t-235.5 -287.5t-85 -402q0 -248 136 -395t361 -147q182 0 332 105.5t235 287.5t85 402q0 248 -136 395t-360 147zM747 -21q-258 0 -416 167t-158 443q0 243 95.5 443.5t264.5 316t376 115.5q257 0 415.5 -167t158.5 -443
q0 -243 -95.5 -443.5t-264.5 -316t-376 -115.5zM970 1644q-32 0 -55 23t-23 54t23 54.5t55 23.5t55 -23.5t23 -54.5t-23 -54t-55 -23z" />
    <glyph glyph-name="odotaccent" unicode="&#x22f;" horiz-adv-x="1080" 
d="M542 54q194 0 325 160.5t131 398.5q0 169 -94 271t-251 102q-127 0 -231.5 -73t-164 -201t-59.5 -285q0 -169 94 -271t250 -102zM653 1057q192 0 307.5 -121t115.5 -321q0 -178 -69.5 -322.5t-192 -227t-272.5 -82.5q-192 0 -307 121t-115 321q0 177 69.5 322
t191.5 227.5t272 82.5zM746 1241q-32 0 -54.5 22.5t-22.5 54.5t23 55t54 23q32 0 55 -23t23 -55t-23 -54.5t-55 -22.5z" />
    <glyph glyph-name="Odotaccentmacron" unicode="&#x230;" horiz-adv-x="1455" 
d="M906 1390q-182 0 -332.5 -105.5t-235.5 -287.5t-85 -402q0 -248 136 -395t361 -147q182 0 332 105.5t235 287.5t85 402q0 248 -136 395t-360 147zM747 -21q-258 0 -416 167t-158 443q0 243 95.5 443.5t264.5 316t376 115.5q257 0 415.5 -167t158.5 -443
q0 -243 -95.5 -443.5t-264.5 -316t-376 -115.5zM955 1560q-31 0 -54 22.5t-23 53.5t22.5 53.5t54.5 22.5q31 0 53.5 -22.5t22.5 -53.5t-22.5 -53.5t-53.5 -22.5zM1313 1919l-13 -60h-594l13 60h594z" />
    <glyph glyph-name="odotaccentmacron" unicode="&#x231;" horiz-adv-x="1080" 
d="M542 54q194 0 325 160.5t131 398.5q0 169 -94 271t-251 102q-127 0 -231.5 -73t-164 -201t-59.5 -285q0 -169 94 -271t250 -102zM653 1057q192 0 307.5 -121t115.5 -321q0 -178 -69.5 -322.5t-192 -227t-272.5 -82.5q-192 0 -307 121t-115 321q0 177 69.5 322
t191.5 227.5t272 82.5zM744 1211q-32 0 -54.5 22.5t-22.5 53.5t22.5 53.5t54.5 22.5t54 -22.5t22 -53.5t-22 -53.5t-54 -22.5zM1072 1617l-13 -60h-519l12 60h520z" />
    <glyph glyph-name="Ymacron" unicode="&#x232;" horiz-adv-x="1170" 
d="M573 0h-80l133 631l-350 812h85l316 -736h4l625 736h96l-697 -820zM1186 1679l-13 -59h-594l13 59h594z" />
    <glyph glyph-name="ymacron" unicode="&#x233;" horiz-adv-x="895" 
d="M72 -356q-37 0 -69 8l12 68q29 -8 60 -8q67 0 120.5 43t112.5 145l50 88l-177 1052h78l156 -959h4l551 959h87l-681 -1168q-75 -130 -143 -179t-161 -49zM939 1358l-13 -60h-519l12 60h520z" />
    <glyph glyph-name="dotlessj" unicode="&#x237;" horiz-adv-x="319" 
d="M367 1040l-244 -1147q-27 -129 -97.5 -186.5t-188.5 -57.5q-34 0 -70 3l15 69q29 -3 55 -3q89 0 139 43.5t70 139.5l242 1139h79z" />
    <glyph glyph-name="quoteright" unicode="&#x2bc;" horiz-adv-x="404" 
d="M339 998h-66l189 445h82z" />
    <glyph glyph-name="quoteright" unicode="&#x2019;" horiz-adv-x="404" 
d="M339 998h-66l189 445h82z" />
    <glyph glyph-name="circumflex" unicode="&#x2c6;" horiz-adv-x="875" 
d="M749 1544l192 -303h-80l-154 248h-3l-261 -248h-88l323 303h71z" />
    <glyph glyph-name="caron" unicode="&#x2c7;" horiz-adv-x="875" 
d="M682 1241h-71l-192 303h78l154 -249h3l262 249h89z" />
    <glyph glyph-name="breve" unicode="&#x2d8;" horiz-adv-x="916" 
d="M452 1491h64q-4 -22 -4 -35q0 -74 51.5 -117t140.5 -43q90 0 151.5 53.5t71.5 141.5h64q-13 -114 -93.5 -183.5t-202.5 -69.5q-111 0 -179.5 58t-68.5 152q0 21 5 43z" />
    <glyph glyph-name="dotaccent" unicode="&#x2d9;" horiz-adv-x="917" 
d="M686 1241q-32 0 -54.5 22.5t-22.5 54.5t23 55t54 23q32 0 55 -23t23 -55t-23 -54.5t-55 -22.5z" />
    <glyph glyph-name="ring" unicode="&#x2da;" horiz-adv-x="875" 
d="M665 1161q-70 0 -119.5 48.5t-49.5 119.5q0 73 50 123t121 50q70 0 120 -48.5t50 -119.5q-1 -73 -51 -123t-121 -50zM665 1210q52 0 86.5 35t34.5 88q0 51 -34 85.5t-85 34.5q-52 0 -86.5 -35t-34.5 -88q0 -51 34.5 -85.5t84.5 -34.5z" />
    <glyph glyph-name="ogonek" unicode="&#x2db;" horiz-adv-x="687" 
d="M373 -329l-13 -61q-34 -16 -87 -16q-79 0 -130.5 43.5t-51.5 121.5q0 77 56 144.5t147 113.5l62 -12q-82 -43 -135.5 -103t-53.5 -130q0 -54 35.5 -84t94.5 -30q47 0 76 13z" />
    <glyph glyph-name="tilde" unicode="&#x2dc;" horiz-adv-x="875" 
d="M803 1243q-36 0 -67 17t-52 41.5t-41 48.5t-45 41t-53 17q-43 0 -78 -41t-48 -112h-62q17 98 69 155t123 57q37 0 68 -17t52.5 -41.5t41 -48.5t44 -41t52.5 -17q41 0 74 40t48 113h62q-21 -101 -70.5 -156.5t-117.5 -55.5z" />
    <glyph glyph-name="hungarumlaut" unicode="&#x2dd;" horiz-adv-x="875" 
d="M613 1241l291 303h93l-306 -303h-78zM349 1241l291 303h93l-306 -303h-78z" />
    <glyph glyph-name="gravecmb" unicode="&#x300;" 
d="M251 1241h-70l-184 303h83z" />
    <glyph glyph-name="acutecmb" unicode="&#x301;" 
d="M250 1241h-82l301 303h93z" />
    <glyph glyph-name="circumflexcmb" unicode="&#x302;" 
d="M308 1544l192 -303h-80l-154 248h-3l-261 -248h-88l323 303h71z" />
    <glyph glyph-name="tildecmb" unicode="&#x303;" 
d="M362 1243q-36 0 -67 17t-52 41.5t-41 48.5t-45 41t-53 17q-43 0 -78 -41t-48 -112h-62q17 98 69 155t123 57q37 0 68 -17t52.5 -41.5t41 -48.5t44 -41t52.5 -17q41 0 74 40t48 113h62q-21 -101 -70.5 -156.5t-117.5 -55.5z" />
    <glyph glyph-name="macroncmb" unicode="&#x304;" 
d="M495 1358l-13 -60h-519l12 60h520z" />
    <glyph glyph-name="brevecmb" unicode="&#x306;" 
d="M-31 1491h64q-4 -22 -4 -35q0 -74 51.5 -117t140.5 -43q90 0 151.5 53.5t71.5 141.5h64q-13 -114 -93.5 -183.5t-202.5 -69.5q-111 0 -179.5 58t-68.5 152q0 21 5 43z" />
    <glyph glyph-name="dotaccentcmb" unicode="&#x307;" 
d="M224 1241q-32 0 -54.5 22.5t-22.5 54.5t23 55t54 23q32 0 55 -23t23 -55t-23 -54.5t-55 -22.5z" />
    <glyph glyph-name="dieresiscmb" unicode="&#x308;" 
d="M75 1243q-28 0 -47.5 19.5t-19.5 46.5q0 28 19.5 47t47.5 19q27 0 46.5 -19t19.5 -47q0 -27 -19.5 -46.5t-46.5 -19.5zM373 1243q-27 0 -47 19.5t-20 46.5t20 46.5t47 19.5t47 -19.5t20 -46.5t-20 -46.5t-47 -19.5z" />
    <glyph glyph-name="hookabovecmb" unicode="&#x309;" 
d="M107 1443l12 57q37 23 103 23q64 0 105.5 -35t41.5 -89q0 -59 -40.5 -105.5t-107.5 -67.5l-27 45q52 16 80.5 47.5t28.5 70.5q0 35 -25.5 56.5t-68.5 21.5q-60 0 -102 -24z" />
    <glyph glyph-name="ringcmb" unicode="&#x30a;" 
d="M227 1161q-70 0 -119.5 48.5t-49.5 119.5q0 73 50 123t121 50q70 0 120 -48.5t50 -119.5q-1 -73 -51 -123t-121 -50zM227 1210q52 0 86.5 35t34.5 88q0 51 -34 85.5t-85 34.5q-52 0 -86.5 -35t-34.5 -88q0 -51 34.5 -85.5t84.5 -34.5z" />
    <glyph glyph-name="hungarumlautcmb" unicode="&#x30b;" 
d="M297 1241l291 303h93l-306 -303h-78zM33 1241l291 303h93l-306 -303h-78z" />
    <glyph glyph-name="caroncmb" unicode="&#x30c;" 
d="M251 1241h-71l-192 303h78l154 -249h3l262 249h89z" />
    <glyph glyph-name="dblgravecmb" unicode="&#x30f;" 
d="M134 1241h-67l-182 303h82zM377 1241h-68l-181 303h81z" />
    <glyph glyph-name="invertedbrevecmb" unicode="&#x311;" 
d="M487 1238h-64q4 8 4 29q0 74 -52 120.5t-139 46.5q-90 0 -151.5 -54.5t-72.5 -141.5h-64q14 113 94.5 183t201.5 70q110 0 179 -61.5t69 -155.5q0 -24 -5 -36z" />
    <glyph glyph-name="horncmb" unicode="&#x31b;" 
d="M19 1002l14 66q23 -20 76 -20q139 0 175 165l26 123h72l-30 -141q-46 -214 -248 -214q-51 0 -85 21z" />
    <glyph glyph-name="dotbelowcmb" unicode="&#x323;" 
d="M-105 -309q-32 0 -55 23t-23 54q0 32 23.5 55t54.5 23t54.5 -23t23.5 -55q0 -31 -23 -54t-55 -23z" />
    <glyph glyph-name="dieresisbelowcmb" unicode="&#x324;" 
d="M-260 -340q-27 0 -47 19.5t-20 46.5t20 46.5t47 19.5t47 -19.5t20 -46.5t-20 -46.5t-47 -19.5zM38 -340q-27 0 -46.5 19.5t-19.5 46.5q0 28 19.5 47t46.5 19q28 0 47.5 -19t19.5 -47q0 -27 -19.5 -46.5t-47.5 -19.5z" />
    <glyph glyph-name="ringbelowcmb" unicode="&#x325;" 
d="M-114 -444q-70 0 -119.5 48.5t-49.5 119.5q0 73 50 123t121 50q70 0 120 -48.5t50 -119.5q-1 -73 -51 -123t-121 -50zM-114 -395q52 0 86.5 35t34.5 88q0 51 -34 85.5t-85 34.5q-52 0 -86.5 -35t-34.5 -88q0 -51 34.5 -85.5t84.5 -34.5z" />
    <glyph glyph-name="commabelowcmb" unicode="&#x326;" 
d="M-227 -475h-66l175 341h82z" />
    <glyph glyph-name="cedillacmb" unicode="&#x327;" 
d="M-188 -189l10 42l102 159h61l-3 -12l-90 -141q88 -5 136 -43.5t48 -106.5q0 -81 -59 -128.5t-154 -47.5q-94 0 -168 37l13 60q69 -36 153 -36q67 0 107.5 28.5t40.5 80.5q0 94 -145 105z" />
    <glyph glyph-name="ogonekcmb" unicode="&#x328;" 
d="M12 -329l-13 -61q-34 -16 -87 -16q-79 0 -130.5 43.5t-51.5 121.5q0 77 56 144.5t147 113.5l62 -12q-82 -43 -135.5 -103t-53.5 -130q0 -54 35.5 -84t94.5 -30q47 0 76 13z" />
    <glyph glyph-name="circumflexbelowcmb" unicode="&#x32d;" 
d="M-62 -165l202 -289h-78l-160 232h-3l-259 -232h-90l324 289h64z" />
    <glyph glyph-name="brevebelowcmb" unicode="&#x32e;" 
d="M-377 -155h64q-2 -8 -2 -21q0 -73 52 -116t139 -43q88 0 150 49t74 131h64q-16 -109 -97 -173.5t-202 -64.5q-109 0 -177 57t-68 152q0 20 3 29z" />
    <glyph glyph-name="tildebelowcmb" unicode="&#x330;" 
d="M16 -387q-36 0 -67 17t-52 41.5t-41 48.5t-45 41t-53 17q-43 0 -78 -41t-48 -112h-62q17 98 69 155t123 57q37 0 68 -17t52.5 -41t41 -48.5t44 -41.5t52.5 -17q41 0 74 40t48 113h62q-21 -101 -70.5 -156.5t-117.5 -55.5z" />
    <glyph glyph-name="macronbelowcmb" unicode="&#x331;" 
d="M196 -231l-13 -59h-594l13 59h594z" />
    <glyph glyph-name="macronbelowcmb" unicode="&#x332;" 
d="M196 -231l-13 -59h-594l13 59h594z" />
    <glyph glyph-name="greekquestionmark" unicode="&#x37e;" horiz-adv-x="512" 
d="M381 769q-28 0 -47 19.5t-19 47.5t19 47t47 19t47 -19t19 -47t-19 -47.5t-47 -19.5zM97 -260h-67l189 445h82z" />
    <glyph glyph-name="tonosgreek" unicode="&#x384;" horiz-adv-x="781" 
d="M501 1188l144 296h100l-176 -296h-68z" />
    <glyph glyph-name="dieresistonosgreek" unicode="&#x385;" horiz-adv-x="1000" 
d="M706 1241h-64l116 316h97zM918 1244q-28 0 -48 19.5t-20 47.5t20 47t48 19q27 0 47 -19.5t20 -46.5q0 -28 -19.5 -47.5t-47.5 -19.5zM522 1244q-28 0 -47.5 19.5t-19.5 47.5q-1 27 19 46.5t48 19.5q27 0 47 -19.5t20 -46.5q0 -28 -19.5 -47.5t-47.5 -19.5z" />
    <glyph glyph-name="Alphatonosgreek" unicode="&#x386;" horiz-adv-x="1221" 
d="M846 1341l-463 -789h598l-131 789h-4zM1071 0l-79 482h-648l-285 -482h-90l855 1443h81l242 -1443h-76zM411 1148l144 295h101l-177 -295h-68z" />
    <glyph glyph-name="anoteleia" unicode="&#x387;" horiz-adv-x="512" 
d="M390 814q-28 0 -47.5 19.5t-19.5 47.5q0 27 19.5 46.5t47.5 19.5q27 0 46.5 -19.5t19.5 -46.5q0 -28 -19.5 -47.5t-46.5 -19.5z" />
    <glyph glyph-name="Epsilontonosgreek" unicode="&#x388;" horiz-adv-x="1226" 
d="M191 1148l144 295h101l-177 -295h-68zM1103 73l-15 -73h-842l307 1443h842l-16 -73h-761l-126 -594h725l-16 -72h-725l-133 -631h760z" />
    <glyph glyph-name="Etatonosgreek" unicode="&#x389;" horiz-adv-x="1504" 
d="M191 1148l144 295h101l-177 -295h-68zM1318 0h-80l150 705h-912l-150 -705h-80l307 1443h80l-141 -666h912l141 666h80z" />
    <glyph glyph-name="Iotatonosgreek" unicode="&#x38a;" horiz-adv-x="528" 
d="M191 1148l144 295h101l-177 -295h-68zM326 0h-80l307 1443h80z" />
    <glyph glyph-name="Omicrontonosgreek" unicode="&#x38c;" horiz-adv-x="1534" 
d="M191 1148l144 295h101l-177 -295h-68zM985 1390q-182 0 -332.5 -105.5t-235.5 -287.5t-85 -402q0 -248 136 -395t361 -147q182 0 332 105.5t235 287.5t85 402q0 248 -136 395t-360 147zM826 -21q-258 0 -416 167t-158 443q0 243 95.5 443.5t264.5 316t376 115.5
q257 0 415.5 -167t158.5 -443q0 -243 -95.5 -443.5t-264.5 -316t-376 -115.5z" />
    <glyph glyph-name="Upsilontonosgreek" unicode="&#x38e;" horiz-adv-x="1476" 
d="M283 1148l144 295h101l-177 -295h-68zM879 0h-80l133 631l-350 812h85l316 -736h4l625 736h96l-697 -820z" />
    <glyph glyph-name="Omegatonosgreek" unicode="&#x38f;" horiz-adv-x="1630" 
d="M191 1148l144 295h101l-177 -295h-68zM935 0l22 102q259 92 413.5 302t154.5 480q0 226 -135.5 366.5t-356.5 140.5q-148 0 -276 -60.5t-215 -162t-136.5 -236t-49.5 -282.5q0 -194 84 -325.5t266 -222.5l-21 -102h-509l14 73h421l1 5q-173 93 -255 231t-82 338
q0 131 34.5 253t102 224t159 178.5t213 119t257.5 42.5q256 0 410 -156t154 -412q0 -278 -150.5 -497t-413.5 -321v-5h452l-14 -73h-544z" />
    <glyph glyph-name="iotadieresistonosgreek" unicode="&#x390;" horiz-adv-x="519" 
d="M382 1040l-163 -765q-10 -52 -10 -81q0 -63 42.5 -98.5t118.5 -35.5q48 0 82 9l-15 -68q-50 -10 -89 -10q-102 0 -161 48.5t-59 133.5q0 40 10 89l166 778h78zM387 1215h-64l116 316h97zM599 1218q-28 0 -48 19.5t-20 47.5t20 47t48 19q27 0 47 -19.5t20 -46.5
q0 -28 -19.5 -47.5t-47.5 -19.5zM203 1218q-28 0 -47.5 19.5t-19.5 47.5q-1 27 19 46.5t48 19.5q27 0 47 -19.5t20 -46.5q0 -28 -19.5 -47.5t-47.5 -19.5z" />
    <glyph glyph-name="Alphagreek" unicode="&#x391;" horiz-adv-x="1221" 
d="M846 1341l-463 -789h598l-131 789h-4zM1071 0l-79 482h-648l-285 -482h-90l855 1443h81l242 -1443h-76z" />
    <glyph glyph-name="Betagreek" unicode="&#x392;" horiz-adv-x="1198" 
d="M596 0h-516l307 1443h476q171 0 269.5 -87.5t98.5 -228.5q0 -142 -101 -250t-251 -132l-1 -4q127 -17 204 -98t77 -209q0 -196 -155.5 -315t-407.5 -119zM452 1371l-126 -593h416q169 0 288 97t119 239q0 121 -79 189t-229 68h-389zM176 72h423q213 0 345.5 100
t132.5 256q0 136 -95 207.5t-252 71.5h-419z" />
    <glyph glyph-name="Gammagreek" unicode="&#x393;" horiz-adv-x="1102" 
d="M202 0h-80l307 1443h810l-15 -73h-730z" />
    <glyph glyph-name="Deltagreek" unicode="&#x394;" horiz-adv-x="1319" 
d="M1187 0h-1161l12 58l834 1385h81l246 -1385zM894 1341l-755 -1264l-1 -4h982l1 3l-223 1265h-4z" />
    <glyph glyph-name="Deltagreek" unicode="&#x2206;" horiz-adv-x="1319" 
d="M1187 0h-1161l12 58l834 1385h81l246 -1385zM894 1341l-755 -1264l-1 -4h982l1 3l-223 1265h-4z" />
    <glyph glyph-name="Epsilongreek" unicode="&#x395;" horiz-adv-x="1060" 
d="M937 73l-15 -73h-842l307 1443h842l-16 -73h-761l-126 -594h725l-16 -72h-725l-133 -631h760z" />
    <glyph glyph-name="Zetagreek" unicode="&#x396;" horiz-adv-x="1177" 
d="M21 0l13 62l1195 1305v4h-888l15 72h997l-13 -62l-1194 -1305v-4h920l-15 -72h-1030z" />
    <glyph glyph-name="Etagreek" unicode="&#x397;" horiz-adv-x="1338" 
d="M1152 0h-80l150 705h-912l-150 -705h-80l307 1443h80l-141 -666h912l141 666h80z" />
    <glyph glyph-name="Thetagreek" unicode="&#x398;" horiz-adv-x="1547" 
d="M1216 691h-686l16 72h685zM797 -21q-258 0 -416.5 167t-158.5 443q0 182 56.5 344t154 278.5t234.5 184.5t292 68q258 0 416.5 -167t158.5 -443q0 -182 -56.5 -344t-154 -278.5t-234.5 -184.5t-292 -68zM1454 848q0 248 -136.5 395t-361.5 147q-182 0 -332.5 -105.5
t-236 -287.5t-85.5 -402q0 -248 136.5 -395t361.5 -147q182 0 332.5 105.5t236 287.5t85.5 402z" />
    <glyph glyph-name="Iotagreek" unicode="&#x399;" horiz-adv-x="346" 
d="M160 0h-80l307 1443h80z" />
    <glyph glyph-name="Kappagreek" unicode="&#x39a;" horiz-adv-x="1143" 
d="M160 0h-80l307 1443h80l-170 -800h4l913 800h109l-715 -629l474 -814h-92l-443 764l-275 -238z" />
    <glyph glyph-name="Lambdagreek" unicode="&#x39b;" horiz-adv-x="1216" 
d="M843 1341l-774 -1341h-90l842 1443h81l229 -1443h-76l-208 1341h-4z" />
    <glyph glyph-name="Mugreek" unicode="&#x39c;" horiz-adv-x="1615" 
d="M156 0h-76l307 1443h84l299 -1343h4l866 1343h97l-307 -1443h-77l273 1282h-5l-828 -1279h-75l-285 1279h-4z" />
    <glyph glyph-name="Nugreek" unicode="&#x39d;" horiz-adv-x="1355" 
d="M160 0h-80l307 1443h79l646 -1319h4l280 1319h80l-307 -1443h-79l-646 1319h-4z" />
    <glyph glyph-name="Xigreek" unicode="&#x39e;" horiz-adv-x="1271" 
d="M379 1443h1020l-16 -77h-1020zM1177 703h-890l16 77h891zM89 77h1020l-16 -77h-1020z" />
    <glyph glyph-name="Omicrongreek" unicode="&#x39f;" horiz-adv-x="1455" 
d="M906 1390q-182 0 -332.5 -105.5t-235.5 -287.5t-85 -402q0 -248 136 -395t361 -147q182 0 332 105.5t235 287.5t85 402q0 248 -136 395t-360 147zM747 -21q-258 0 -416 167t-158 443q0 243 95.5 443.5t264.5 316t376 115.5q257 0 415.5 -167t158.5 -443
q0 -243 -95.5 -443.5t-264.5 -316t-376 -115.5z" />
    <glyph glyph-name="Pigreek" unicode="&#x3a0;" horiz-adv-x="1402" 
d="M1174 0h-80l292 1370h-892l-292 -1370h-80l307 1443h1052z" />
    <glyph glyph-name="Rhogreek" unicode="&#x3a1;" horiz-adv-x="1158" 
d="M391 1443h434q190 0 304 -105.5t114 -273.5q0 -221 -160.5 -351.5t-419.5 -130.5h-377l-125 -582h-81zM456 1371l-155 -717h363q220 0 359 108.5t139 295.5q0 140 -95 226.5t-261 86.5h-350z" />
    <glyph glyph-name="Sigmagreek" unicode="&#x3a3;" horiz-adv-x="1252" 
d="M188 76l-1 -4h909l-15 -72h-1016l13 62l596 695l-294 621l13 65h975l-16 -72h-879l-1 -4l290 -609l-4 -15z" />
    <glyph glyph-name="Taugreek" unicode="&#x3a4;" horiz-adv-x="1158" 
d="M567 0h-81l292 1370h-508l15 73h1096l-15 -73h-508z" />
    <glyph glyph-name="Upsilongreek" unicode="&#x3a5;" horiz-adv-x="1170" 
d="M573 0h-80l133 631l-350 812h85l316 -736h4l625 736h96l-697 -820z" />
    <glyph glyph-name="Phigreek" unicode="&#x3a6;" horiz-adv-x="1633" 
d="M710 -59l28 130q-280 14 -434 159.5t-154 384.5q0 128 37 242t110.5 208t176.5 162.5t241.5 106.5t299.5 39l25 119h81l-25 -119q280 -14 434 -159t154 -385q0 -159 -59 -296.5t-168 -240t-273.5 -161.5t-364.5 -60l-28 -130h-81zM754 144l246 1157q-180 -3 -326.5 -56
t-242.5 -144t-148 -213.5t-52 -265.5q0 -212 132.5 -340.5t390.5 -137.5zM834 144q180 3 326.5 55.5t242.5 144t148 214.5t52 266q0 211 -132.5 339.5t-390.5 137.5z" />
    <glyph glyph-name="Chigreek" unicode="&#x3a7;" horiz-adv-x="1190" 
d="M-27 0l674 728l-360 715h90l329 -657h2l606 657h104l-672 -727l360 -716h-90l-329 658h-3l-607 -658h-104z" />
    <glyph glyph-name="Psigreek" unicode="&#x3a8;" horiz-adv-x="1551" 
d="M764 0h-81l75 353q-222 7 -346 118t-124 304q0 65 15 137l113 531h80l-112 -530q-16 -78 -16 -135q0 -166 106 -257.5t299 -93.5l217 1016h80l-216 -1016q268 5 407 128t196 391l105 497h81l-107 -501q-66 -313 -229.5 -448.5t-468.5 -140.5z" />
    <glyph glyph-name="Omegagreek" unicode="&#x3a9;" horiz-adv-x="1555" 
d="M860 0l22 102q259 92 413.5 302t154.5 480q0 226 -135.5 366.5t-356.5 140.5q-148 0 -276 -60.5t-215 -162t-136.5 -236t-49.5 -282.5q0 -194 84 -325.5t266 -222.5l-21 -102h-509l14 73h421l1 5q-173 93 -255 231t-82 338q0 131 34.5 253t102 224t159 178.5t213 119
t257.5 42.5q256 0 410 -156t154 -412q0 -278 -150.5 -497t-413.5 -321v-5h452l-14 -73h-544z" />
    <glyph glyph-name="Omegagreek" unicode="&#x2126;" horiz-adv-x="1555" 
d="M860 0l22 102q259 92 413.5 302t154.5 480q0 226 -135.5 366.5t-356.5 140.5q-148 0 -276 -60.5t-215 -162t-136.5 -236t-49.5 -282.5q0 -194 84 -325.5t266 -222.5l-21 -102h-509l14 73h421l1 5q-173 93 -255 231t-82 338q0 131 34.5 253t102 224t159 178.5t213 119
t257.5 42.5q256 0 410 -156t154 -412q0 -278 -150.5 -497t-413.5 -321v-5h452l-14 -73h-544z" />
    <glyph glyph-name="Iotadieresisgreek" unicode="&#x3aa;" horiz-adv-x="346" 
d="M160 0h-80l307 1443h80zM326 1605q-28 0 -47.5 19.5t-19.5 46.5q0 28 19.5 47t47.5 19q27 0 46.5 -19t19.5 -47q0 -27 -19.5 -46.5t-46.5 -19.5zM624 1605q-27 0 -47 19.5t-20 46.5t20 46.5t47 19.5t47 -19.5t20 -46.5t-20 -46.5t-47 -19.5z" />
    <glyph glyph-name="Upsilondieresisgreek" unicode="&#x3ab;" horiz-adv-x="1170" 
d="M573 0h-80l133 631l-350 812h85l316 -736h4l625 736h96l-697 -820zM737 1605q-28 0 -47.5 19.5t-19.5 46.5q0 28 19.5 47t47.5 19q27 0 46.5 -19t19.5 -47q0 -27 -19.5 -46.5t-46.5 -19.5zM1035 1605q-27 0 -47 19.5t-20 46.5t20 46.5t47 19.5t47 -19.5t20 -46.5
t-20 -46.5t-47 -19.5z" />
    <glyph glyph-name="alphatonosgreek" unicode="&#x3ac;" horiz-adv-x="1234" 
d="M507 -16q-164 0 -265.5 116t-101.5 305q0 176 70.5 326t192 237.5t265.5 87.5t242 -91t109 -227h4l64 302h76l-164 -773q-22 -102 -22 -129q0 -41 20.5 -58.5t68.5 -17.5q40 0 65 8l-15 -68q-36 -10 -72 -10q-75 0 -111.5 31.5t-36.5 100.5q0 21 21 114h-4
q-63 -116 -173 -185t-233 -69zM523 53q125 0 231 79t166.5 210.5t60.5 282.5q0 162 -86.5 261.5t-228.5 99.5q-122 0 -225.5 -78.5t-163.5 -211t-60 -286.5q0 -162 83.5 -259.5t222.5 -97.5zM781 1188l144 296h100l-176 -296h-68z" />
    <glyph glyph-name="epsilontonosgreek" unicode="&#x3ad;" horiz-adv-x="1063" 
d="M509 -14q-170 0 -271 71.5t-101 199.5q0 113 72.5 187.5t197.5 94.5v3q-74 14 -120.5 68t-46.5 127q0 147 114.5 232t303.5 85q190 0 298 -88.5t107 -236.5h-76q0 116 -90 185.5t-243 69.5t-243 -63.5t-90 -170.5q0 -83 66 -132t188 -49h144l-15 -70h-154
q-159 0 -245 -61.5t-86 -174.5q0 -95 80.5 -151t217.5 -56q148 0 263.5 68.5t159.5 178.5h79q-44 -141 -183.5 -229t-326.5 -88zM762 1188l144 296h100l-176 -296h-68z" />
    <glyph glyph-name="etatonosgreek" unicode="&#x3ae;" horiz-adv-x="1220" 
d="M869 -341l206 963q13 57 13 102q0 117 -78 188.5t-207 71.5q-148 0 -258.5 -99.5t-142.5 -249.5l-135 -635h-78l177 833q8 40 8 62q0 44 -20 63.5t-69 19.5q-37 0 -66 -8l15 68q30 10 72 10q72 0 107 -29.5t37 -92.5q0 -34 -14 -96h4q63 104 163 164t224 60
q151 0 246 -87.5t95 -226.5q0 -49 -13 -109l-208 -972h-78zM932 1188l144 296h100l-176 -296h-68z" />
    <glyph glyph-name="iotatonosgreek" unicode="&#x3af;" horiz-adv-x="519" 
d="M382 1040l-163 -765q-10 -52 -10 -81q0 -63 42.5 -98.5t118.5 -35.5q48 0 82 9l-15 -68q-50 -10 -89 -10q-102 0 -161 48.5t-59 133.5q0 40 10 89l166 778h78zM426 1188l144 296h100l-176 -296h-68z" />
    <glyph glyph-name="upsilondieresistonosgreek" unicode="&#x3b0;" horiz-adv-x="1045" 
d="M929 1040h79q17 -105 17 -242q0 -386 -145 -600.5t-408 -214.5q-150 0 -234 77t-84 212q0 66 15 134l135 634h77l-128 -603q-20 -96 -20 -158q0 -107 63 -166t179 -59q224 0 348 197.5t124 552.5q0 123 -18 236zM714 1215h-64l116 316h97zM926 1218q-28 0 -48 19.5
t-20 47.5t20 47t48 19q27 0 47 -19.5t20 -46.5q0 -28 -19.5 -47.5t-47.5 -19.5zM530 1218q-28 0 -47.5 19.5t-19.5 47.5q-1 27 19 46.5t48 19.5q27 0 47 -19.5t20 -46.5q0 -28 -19.5 -47.5t-47.5 -19.5z" />
    <glyph glyph-name="alphagreek" unicode="&#x3b1;" horiz-adv-x="1234" 
d="M507 -16q-164 0 -265.5 116t-101.5 305q0 176 70.5 326t192 237.5t265.5 87.5t242 -91t109 -227h4l64 302h76l-164 -773q-22 -102 -22 -129q0 -41 20.5 -58.5t68.5 -17.5q40 0 65 8l-15 -68q-36 -10 -72 -10q-75 0 -111.5 31.5t-36.5 100.5q0 21 21 114h-4
q-63 -116 -173 -185t-233 -69zM523 53q125 0 231 79t166.5 210.5t60.5 282.5q0 162 -86.5 261.5t-228.5 99.5q-122 0 -225.5 -78.5t-163.5 -211t-60 -286.5q0 -162 83.5 -259.5t222.5 -97.5z" />
    <glyph glyph-name="betagreek" unicode="&#x3b2;" horiz-adv-x="1159" 
d="M309 995q52 246 161.5 355.5t300.5 109.5q160 0 253.5 -84.5t93.5 -228.5q0 -142 -79.5 -238.5t-220.5 -127.5v-4q141 -29 214.5 -113.5t73.5 -216.5q0 -205 -127 -334t-345 -129q-150 0 -260.5 89t-131.5 228h-3l-136 -642h-78zM546 741l16 71h114q164 0 266.5 88.5
t102.5 232.5q0 123 -72 189.5t-209 66.5q-147 0 -241 -96t-138 -302l-96 -451q-15 -72 -15 -134q0 -155 104 -253.5t264 -98.5q170 0 278.5 106.5t108.5 276.5q0 143 -97 223.5t-266 80.5h-120z" />
    <glyph glyph-name="gammagreek" unicode="&#x3b3;" horiz-adv-x="1000" 
d="M1045 1040q-7 -115 -36 -222q-48 -183 -176 -369.5t-392 -462.5l-65 -313h-78l66 314l-148 1053h78l132 -969h1q225 236 343.5 412t163.5 345q27 102 34 212h77z" />
    <glyph glyph-name="deltagreek" unicode="&#x3b4;" horiz-adv-x="1102" 
d="M559 -17q-87 0 -164.5 28.5t-138 81.5t-96 138.5t-35.5 191.5q0 229 140 376t363 155h23l1 3q-207 94 -207 240q0 117 104 188.5t277 71.5q91 0 174 -19.5t122 -50.5l-16 -70q-101 70 -290 70q-134 0 -213.5 -51t-79.5 -139q0 -61 49 -107t187 -113q324 -159 324 -451
q0 -230 -147 -386.5t-377 -156.5zM568 53q185 0 310.5 134t125.5 336q0 158 -102 267t-251 109q-193 0 -320.5 -131t-127.5 -341q0 -95 31.5 -169t85 -117.5t116.5 -65.5t132 -22z" />
    <glyph glyph-name="epsilongreek" unicode="&#x3b5;" horiz-adv-x="1063" 
d="M509 -14q-170 0 -271 71.5t-101 199.5q0 113 72.5 187.5t197.5 94.5v3q-74 14 -120.5 68t-46.5 127q0 147 114.5 232t303.5 85q190 0 298 -88.5t107 -236.5h-76q0 116 -90 185.5t-243 69.5t-243 -63.5t-90 -170.5q0 -83 66 -132t188 -49h144l-15 -70h-154
q-159 0 -245 -61.5t-86 -174.5q0 -95 80.5 -151t217.5 -56q148 0 263.5 68.5t159.5 178.5h79q-44 -141 -183.5 -229t-326.5 -88z" />
    <glyph glyph-name="zetagreek" unicode="&#x3b6;" horiz-adv-x="867" 
d="M681 -385l-63 22q52 56 74.5 93.5t22.5 80.5q0 56 -41.5 95t-156.5 91q-209 92 -295.5 190t-86.5 252q0 239 208 485t568 443l1 4h-549l16 72h672l4 -72q-380 -189 -609.5 -443t-229.5 -484q0 -130 68.5 -208t258.5 -166q145 -66 198 -117.5t53 -130.5q0 -105 -113 -207z
" />
    <glyph glyph-name="etagreek" unicode="&#x3b7;" horiz-adv-x="1220" 
d="M869 -341l206 963q13 57 13 102q0 117 -78 188.5t-207 71.5q-148 0 -258.5 -99.5t-142.5 -249.5l-135 -635h-78l177 833q8 40 8 62q0 44 -20 63.5t-69 19.5q-37 0 -66 -8l15 68q30 10 72 10q72 0 107 -29.5t37 -92.5q0 -34 -14 -96h4q63 104 163 164t224 60
q151 0 246 -87.5t95 -226.5q0 -49 -13 -109l-208 -972h-78z" />
    <glyph glyph-name="thetagreek" unicode="&#x3b8;" horiz-adv-x="1109" 
d="M513 -17q-183 0 -277.5 115.5t-94.5 347.5q0 120 27 282q127 731 569 731q185 0 279.5 -121t94.5 -355q0 -127 -27 -287q-64 -363 -205.5 -538t-365.5 -175zM518 54q189 0 306.5 152.5t177.5 476.5h-762q-21 -135 -21 -237q0 -191 75 -291.5t224 -100.5zM251 752h763
q19 113 19 228q0 409 -305 409q-359 0 -477 -637z" />
    <glyph glyph-name="iotagreek" unicode="&#x3b9;" horiz-adv-x="519" 
d="M382 1040l-163 -765q-10 -52 -10 -81q0 -63 42.5 -98.5t118.5 -35.5q48 0 82 9l-15 -68q-50 -10 -89 -10q-102 0 -161 48.5t-59 133.5q0 40 10 89l166 778h78z" />
    <glyph glyph-name="kappagreek" unicode="&#x3ba;" horiz-adv-x="1086" 
d="M1040 1048q45 0 75 -10l-15 -68q-30 8 -59 8q-43 0 -79.5 -20.5t-85.5 -70.5l-210 -209l296 -678h-83l-269 624l-381 -379l-51 -245h-78l219 1040h78l-141 -668h2l556 555q70 70 117.5 95.5t108.5 25.5z" />
    <glyph glyph-name="lambdagreek" unicode="&#x3bb;" horiz-adv-x="1061" 
d="M928 62q29 0 59 8l-15 -68q-40 -10 -70 -10q-71 0 -108.5 34t-47.5 109l-106 757h-3l-528 -892h-89l604 1005l-27 182q-17 113 -53 156.5t-105 43.5q-47 0 -74 -10l14 68q34 12 80 12q95 0 144 -56.5t69 -198.5l146 -1042q8 -55 32 -76.5t78 -21.5z" />
    <glyph glyph-name="nugreek" unicode="&#x3bd;" horiz-adv-x="1005" 
d="M1045 1040q-7 -121 -40 -233q-49 -178 -174 -359t-376 -448h-93l-146 1040h78l132 -969h4q221 234 337.5 405.5t162.5 338.5q31 107 38 225h77z" />
    <glyph glyph-name="xigreek" unicode="&#x3be;" horiz-adv-x="905" 
d="M699 -385l-63 22q53 57 75 95t22 79q0 57 -41.5 95.5t-157.5 90.5q-223 100 -312 190.5t-89 217.5q0 146 102.5 244.5t289.5 119.5l1 4q-228 59 -228 245q0 270 383 350v4h-313l14 72h653l4 -67l-119 -10q-262 -20 -405.5 -108t-143.5 -230q0 -221 379 -221h90l-15 -72
h-82q-265 0 -397 -87t-132 -240q0 -101 74 -174t271 -165q145 -66 199 -117.5t54 -129.5q0 -106 -113 -208z" />
    <glyph glyph-name="omicrongreek" unicode="&#x3bf;" horiz-adv-x="1080" 
d="M542 54q194 0 325 160.5t131 398.5q0 169 -94 271t-251 102q-127 0 -231.5 -73t-164 -201t-59.5 -285q0 -169 94 -271t250 -102zM653 1057q192 0 307.5 -121t115.5 -321q0 -178 -69.5 -322.5t-192 -227t-272.5 -82.5q-192 0 -307 121t-115 321q0 177 69.5 322
t191.5 227.5t272 82.5z" />
    <glyph glyph-name="pigreek" unicode="&#x3c0;" horiz-adv-x="1229" 
d="M849 206l162 763h-542l-206 -969h-75l205 969h-201l15 71h1105l-14 -71h-211l-161 -760q-10 -52 -10 -71q0 -42 20 -60t73 -18q33 0 63 9l-14 -68q-32 -10 -70 -10q-151 0 -151 128q0 34 12 87z" />
    <glyph glyph-name="rhogreek" unicode="&#x3c1;" horiz-adv-x="1150" 
d="M584 54q191 0 322 159t131 406q0 169 -90 268t-252 99q-79 0 -149 -32t-121.5 -87.5t-89 -128t-56.5 -154t-19 -164.5q0 -160 92 -263t232 -103zM700 1057q189 0 301.5 -121t112.5 -314q0 -181 -71 -328t-191 -228.5t-263 -81.5q-149 0 -247.5 89t-118.5 228h-3
l-136 -642h-78l187 876q56 263 191.5 392.5t315.5 129.5z" />
    <glyph glyph-name="sigmafinalgreek" unicode="&#x3c2;" horiz-adv-x="1073" 
d="M808 -174q0 -109 -113 -211l-62 22q51 55 73.5 93.5t22.5 81.5q0 55 -43 95t-149 87q-213 95 -299.5 203t-86.5 279q0 162 68 295t190 209.5t274 76.5q167 0 273 -89.5t124 -225.5h-78q-17 111 -103 177.5t-217 66.5q-135 0 -240 -73.5t-158.5 -188.5t-53.5 -246
q0 -149 74 -237t258 -173q139 -64 192.5 -116.5t53.5 -125.5z" />
    <glyph glyph-name="sigmagreek" unicode="&#x3c3;" horiz-adv-x="1169" 
d="M531 -17q-182 0 -286.5 112.5t-104.5 304.5q0 185 68.5 330t196 227.5t293.5 82.5h572l-16 -71h-359l-2 -2q91 -49 133 -132t42 -213q0 -179 -68 -325t-191.5 -230t-277.5 -84zM532 54q200 0 329 162.5t129 408.5q0 163 -81.5 254t-225.5 91q-201 0 -333 -159t-132 -407
q0 -164 83.5 -257t230.5 -93z" />
    <glyph glyph-name="taugreek" unicode="&#x3c4;" horiz-adv-x="921" 
d="M709 69l-14 -68q-38 -10 -99 -10q-104 0 -163 46t-59 126q0 43 10 87l151 719h-355l15 71h845l-16 -71h-411l-148 -704q-10 -40 -10 -80q0 -62 43.5 -93.5t125.5 -31.5q52 0 85 9z" />
    <glyph glyph-name="upsilongreek" unicode="&#x3c5;" horiz-adv-x="1045" 
d="M929 1040h79q17 -105 17 -242q0 -386 -145 -600.5t-408 -214.5q-150 0 -234 77t-84 212q0 66 15 134l135 634h77l-128 -603q-20 -96 -20 -158q0 -107 63 -166t179 -59q224 0 348 197.5t124 552.5q0 123 -18 236z" />
    <glyph glyph-name="phigreek" unicode="&#x3c6;" horiz-adv-x="1423" 
d="M549 -341l70 327q-217 20 -341 138t-124 306q0 279 189 451t501 173l55 261h77l-56 -261q218 -21 340.5 -140.5t122.5 -307.5q0 -277 -188.5 -448.5t-499.5 -171.5l-70 -327h-76zM633 54l196 933q-177 -1 -312.5 -71t-209.5 -194.5t-74 -283.5q0 -163 107.5 -266
t292.5 -118zM710 53q267 3 431 153t164 391q0 163 -108.5 269.5t-291.5 119.5z" />
    <glyph glyph-name="chigreek" unicode="&#x3c7;" horiz-adv-x="1092" 
d="M913 -349q-76 0 -114 30.5t-62 111.5l-137 465h-7l-452 -599h-88l520 681l-154 522q-18 62 -48 89t-83 27q-35 0 -62 -8l14 68q40 10 70 10q69 0 111.5 -33t65.5 -108l147 -499h7l461 632h87l-528 -713l144 -491q19 -65 47 -90t82 -25q26 0 61 8l-14 -68q-38 -10 -68 -10
z" />
    <glyph glyph-name="psigreek" unicode="&#x3c8;" horiz-adv-x="1290" 
d="M561 -341h-77l70 327q-197 2 -298.5 76t-101.5 220q0 48 17 131l134 627h77l-135 -635q-13 -72 -13 -114q0 -119 81.5 -176t253.5 -59l265 1260h77l-266 -1260q551 26 551 750q0 105 -18 234h79q17 -100 17 -241q0 -183 -35.5 -326.5t-110 -253t-200.5 -169.5t-298 -64z
" />
    <glyph glyph-name="omegagreek" unicode="&#x3c9;" horiz-adv-x="1453" 
d="M1400 628q0 -281 -117.5 -463t-298.5 -182q-113 0 -183 66t-75 183h-3q-44 -116 -127 -182.5t-188 -66.5q-135 0 -207.5 94.5t-72.5 268.5q0 198 89.5 393.5t218.5 300.5h89q-139 -115 -229 -308t-90 -382q0 -139 56 -217.5t156 -78.5q111 0 187 86.5t111 251.5l68 327
h77l-66 -314q-12 -58 -12 -110q0 -117 54.5 -179t156.5 -62q94 0 169 73.5t117 205t42 296.5q0 132 -23 239t-59 172h88q72 -141 72 -412z" />
    <glyph glyph-name="iotadieresisgreek" unicode="&#x3ca;" horiz-adv-x="519" 
d="M382 1040l-163 -765q-10 -52 -10 -81q0 -63 42.5 -98.5t118.5 -35.5q48 0 82 9l-15 -68q-50 -10 -89 -10q-102 0 -161 48.5t-59 133.5q0 40 10 89l166 778h78zM229 1243q-28 0 -47.5 19.5t-19.5 46.5q0 28 19.5 47t47.5 19q27 0 46.5 -19t19.5 -47q0 -27 -19.5 -46.5
t-46.5 -19.5zM527 1243q-27 0 -47 19.5t-20 46.5t20 46.5t47 19.5t47 -19.5t20 -46.5t-20 -46.5t-47 -19.5z" />
    <glyph glyph-name="upsilondieresisgreek" unicode="&#x3cb;" horiz-adv-x="1045" 
d="M929 1040h79q17 -105 17 -242q0 -386 -145 -600.5t-408 -214.5q-150 0 -234 77t-84 212q0 66 15 134l135 634h77l-128 -603q-20 -96 -20 -158q0 -107 63 -166t179 -59q224 0 348 197.5t124 552.5q0 123 -18 236zM555 1243q-28 0 -47.5 19.5t-19.5 46.5q0 28 19.5 47
t47.5 19q27 0 46.5 -19t19.5 -47q0 -27 -19.5 -46.5t-46.5 -19.5zM853 1243q-27 0 -47 19.5t-20 46.5t20 46.5t47 19.5t47 -19.5t20 -46.5t-20 -46.5t-47 -19.5z" />
    <glyph glyph-name="omicrontonosgreek" unicode="&#x3cc;" horiz-adv-x="1080" 
d="M542 54q194 0 325 160.5t131 398.5q0 169 -94 271t-251 102q-127 0 -231.5 -73t-164 -201t-59.5 -285q0 -169 94 -271t250 -102zM653 1057q192 0 307.5 -121t115.5 -321q0 -178 -69.5 -322.5t-192 -227t-272.5 -82.5q-192 0 -307 121t-115 321q0 177 69.5 322
t191.5 227.5t272 82.5zM794 1188l144 296h100l-176 -296h-68z" />
    <glyph glyph-name="upsilontonosgreek" unicode="&#x3cd;" horiz-adv-x="1045" 
d="M929 1040h79q17 -105 17 -242q0 -386 -145 -600.5t-408 -214.5q-150 0 -234 77t-84 212q0 66 15 134l135 634h77l-128 -603q-20 -96 -20 -158q0 -107 63 -166t179 -59q224 0 348 197.5t124 552.5q0 123 -18 236zM752 1188l144 296h100l-176 -296h-68z" />
    <glyph glyph-name="omegatonosgreek" unicode="&#x3ce;" horiz-adv-x="1453" 
d="M1400 628q0 -281 -117.5 -463t-298.5 -182q-113 0 -183 66t-75 183h-3q-44 -116 -127 -182.5t-188 -66.5q-135 0 -207.5 94.5t-72.5 268.5q0 198 89.5 393.5t218.5 300.5h89q-139 -115 -229 -308t-90 -382q0 -139 56 -217.5t156 -78.5q111 0 187 86.5t111 251.5l68 327
h77l-66 -314q-12 -58 -12 -110q0 -117 54.5 -179t156.5 -62q94 0 169 73.5t117 205t42 296.5q0 132 -23 239t-59 172h88q72 -141 72 -412zM977 1188l144 296h100l-176 -296h-68z" />
    <glyph glyph-name="uni0400" unicode="&#x400;" horiz-adv-x="1070" 
d="M942 73l-15 -73h-842l307 1443h842l-16 -73h-761l-126 -594h725l-16 -72h-725l-133 -631h760zM790 1556l-184 287h86l171 -287h-73z" />
    <glyph glyph-name="Iocyrillic" unicode="&#x401;" horiz-adv-x="1070" 
d="M942 73l-15 -73h-842l307 1443h842l-16 -73h-761l-126 -594h725l-16 -72h-725l-133 -631h760zM712 1605q-28 0 -47.5 19.5t-19.5 46.5q0 28 19.5 47t47.5 19q27 0 46.5 -19t19.5 -47q0 -27 -19.5 -46.5t-46.5 -19.5zM1010 1605q-27 0 -47 19.5t-20 46.5t20 46.5t47 19.5
t47 -19.5t20 -46.5t-20 -46.5t-47 -19.5z" />
    <glyph glyph-name="Djecyrillic" unicode="&#x402;" horiz-adv-x="1615" 
d="M532 0l291 1371h-507l16 73h1095l-15 -73h-509l-139 -655h9q79 71 178.5 111t203.5 40q191 0 296 -103t105 -286q0 -213 -137 -351.5t-348 -138.5q-87 0 -118 13l16 72q30 -10 107 -10q169 0 284 117.5t115 290.5q0 155 -84 239.5t-243 84.5q-106 0 -218 -52t-188 -132
l-130 -611h-80z" />
    <glyph glyph-name="Gjecyrillic" unicode="&#x403;" horiz-adv-x="1040" 
d="M165 0h-80l307 1443h828l-16 -73h-747zM857 1556h-86l336 287h100z" />
    <glyph glyph-name="Ecyrillic" unicode="&#x404;" horiz-adv-x="1379" 
d="M1344 422q-64 -210 -228 -328t-392 -118q-264 0 -414 177t-126 473q11 236 111.5 428t270 302.5t374.5 110.5q135 0 249.5 -56t185 -157t78.5 -226q1 -14 1 -33h-80q-2 172 -127.5 285t-312.5 113q-236 0 -417 -171t-237 -445h745l-15 -72h-744q-29 -192 19.5 -341
t164 -231.5t280.5 -82.5q193 0 332.5 99t199.5 273h82z" />
    <glyph glyph-name="Dzecyrillic" unicode="&#x405;" horiz-adv-x="1206" 
d="M116 406h79q11 -158 135.5 -256t319.5 -98q184 0 297.5 89.5t113.5 238.5q0 103 -65.5 172t-213.5 125l-121 47q-185 70 -267 155t-82 213q0 164 131.5 268t337.5 104t342 -111t145 -290h-79q-11 146 -123.5 237t-284.5 91q-173 0 -280 -83.5t-107 -211.5
q0 -102 69.5 -170.5t231.5 -129.5l125 -48q168 -62 246 -148t78 -211q0 -178 -135.5 -294t-359.5 -116q-229 0 -377.5 117.5t-155.5 309.5z" />
    <glyph glyph-name="Icyrillic" unicode="&#x406;" horiz-adv-x="356" 
d="M165 0h-80l307 1443h80z" />
    <glyph glyph-name="Yicyrillic" unicode="&#x407;" horiz-adv-x="356" 
d="M165 0h-80l307 1443h80zM331 1605q-28 0 -47.5 19.5t-19.5 46.5q0 28 19.5 47t47.5 19q27 0 46.5 -19t19.5 -47q0 -27 -19.5 -46.5t-46.5 -19.5zM629 1605q-27 0 -47 19.5t-20 46.5t20 46.5t47 19.5t47 -19.5t20 -46.5t-20 -46.5t-47 -19.5z" />
    <glyph glyph-name="Jecyrillic" unicode="&#x408;" horiz-adv-x="967" 
d="M69 303q0 13 1 22h80v-14q0 -116 78.5 -187.5t207.5 -71.5q130 0 218.5 82.5t120.5 234.5l228 1074h80l-233 -1100q-37 -173 -148 -269.5t-275 -96.5q-158 0 -258 92t-100 234z" />
    <glyph glyph-name="Ljecyrillic" unicode="&#x409;" horiz-adv-x="2074" 
d="M420 470q-67 -244 -159.5 -361.5t-232.5 -117.5q-33 0 -56 9l15 73q19 -8 52 -8q101 0 174 103.5t130 308.5l263 966h784l-123 -582h345q192 0 310 -100.5t118 -265.5q0 -214 -150.5 -354.5t-390.5 -140.5h-496l292 1370h-629zM1599 789h-347l-153 -717h395
q204 0 334 115.5t130 297.5q0 143 -97 223.5t-262 80.5z" />
    <glyph glyph-name="Njecyrillic" unicode="&#x40a;" horiz-adv-x="2075" 
d="M1038 0l150 705h-875l-150 -705h-80l307 1443h80l-142 -666h876l141 666h80l-141 -666h345q185 0 298.5 -92.5t113.5 -244.5q0 -190 -145.5 -315t-379.5 -125h-478zM1134 72h377q201 0 325 100t124 259q0 128 -93.5 201t-250.5 73h-347z" />
    <glyph glyph-name="Tshecyrillic" unicode="&#x40b;" horiz-adv-x="1627" 
d="M1125 795q-74 0 -145.5 -19t-125 -49.5t-91.5 -59.5t-62 -56l-130 -611h-80l291 1370h-507l16 73h1095l-15 -73h-509l-139 -654h10q75 65 178.5 108t224.5 43q205 0 302 -129.5t49 -351.5l-82 -386h-80l82 389q42 193 -37.5 299.5t-244.5 106.5z" />
    <glyph glyph-name="Kjecyrillic" unicode="&#x40c;" horiz-adv-x="1158" 
d="M1214 1843l-350 -287h-86l336 287h100zM1340 1443l-931 -709l683 -734h-102l-666 714h-7l-152 -714h-80l307 1443h80l-144 -679h7l891 679h114z" />
    <glyph glyph-name="uni040D" unicode="&#x40d;" horiz-adv-x="1361" 
d="M1091 0l278 1304h-8l-1196 -1304h-80l307 1443h80l-278 -1302h8l1196 1302h80l-307 -1443h-80zM913 1556l-184 287h86l171 -287h-73z" />
    <glyph glyph-name="Ushortcyrillic" unicode="&#x40e;" horiz-adv-x="1145" 
d="M208 -9q-41 0 -69 10l15 73q23 -9 67 -9q88 0 159.5 59t183.5 224l-277 1095h82l251 -1004h7l649 1004h91l-701 -1074q-145 -222 -237.5 -300t-220.5 -78zM609 1793h72q-18 -85 28.5 -134t138.5 -49q91 0 159.5 49.5t86.5 133.5h72q-24 -115 -111.5 -178.5t-212.5 -63.5
q-127 0 -192.5 64t-40.5 178z" />
    <glyph glyph-name="Dzhecyrillic" unicode="&#x40f;" horiz-adv-x="1334" 
d="M1143 0h-464l-61 -285h-72l61 285h-522l307 1443h79l-291 -1370h899l291 1370h80z" />
    <glyph glyph-name="Acyrillic" unicode="&#x410;" horiz-adv-x="1231" 
d="M851 1341l-463 -789h598l-131 789h-4zM1076 0l-79 482h-648l-285 -482h-90l855 1443h81l242 -1443h-76z" />
    <glyph glyph-name="Becyrillic" unicode="&#x411;" horiz-adv-x="1146" 
d="M581 0h-496l307 1443h815l-16 -73h-734l-115 -540h352q196 0 311.5 -97.5t115.5 -252.5q0 -206 -149.5 -343t-390.5 -137zM181 72h395q204 0 334 111.5t130 285.5q0 132 -95.5 210.5t-263.5 78.5h-355z" />
    <glyph glyph-name="Vecyrillic" unicode="&#x412;" horiz-adv-x="1208" 
d="M601 0h-516l307 1443h476q171 0 269.5 -87.5t98.5 -228.5q0 -142 -101 -250t-251 -132l-1 -4q127 -17 204 -98t77 -209q0 -196 -155.5 -315t-407.5 -119zM457 1371l-126 -593h416q169 0 288 97t119 239q0 121 -79 189t-229 68h-389zM181 72h423q213 0 345.5 100
t132.5 256q0 136 -95 207.5t-252 71.5h-419z" />
    <glyph glyph-name="Gecyrillic" unicode="&#x413;" horiz-adv-x="1040" 
d="M165 0h-80l307 1443h828l-16 -73h-747z" />
    <glyph glyph-name="Decyrillic" unicode="&#x414;" horiz-adv-x="1385" 
d="M406 467q-38 -139 -85 -234.5t-116 -150.5l-2 -9h855l276 1297h-681zM51 0l-61 -286h-76l76 359h97q152 68 242 399l265 971h836l-292 -1370h188l-77 -359h-75l61 286h-1184z" />
    <glyph glyph-name="Iecyrillic" unicode="&#x415;" horiz-adv-x="1070" 
d="M942 73l-15 -73h-842l307 1443h842l-16 -73h-761l-126 -594h725l-16 -72h-725l-133 -631h760z" />
    <glyph glyph-name="Zhecyrillic" unicode="&#x416;" horiz-adv-x="1792" 
d="M959 719l-883 -719h-114l928 753l-544 690h94l529 -678h7l144 678h79l-145 -679h7l818 679h109l-856 -709l591 -734h-95l-576 718h-7l-153 -718h-79l153 719h-7z" />
    <glyph glyph-name="Zecyrillic" unicode="&#x417;" horiz-adv-x="1163" 
d="M467 712l16 72h212q175 0 291.5 91t116.5 229q0 136 -93 213.5t-250 77.5q-142 0 -250.5 -82t-149.5 -215h-79q44 168 176 267.5t309 99.5q187 0 301.5 -95.5t114.5 -257.5q0 -143 -103 -245.5t-265 -121.5l-1 -4q133 -24 212 -109t79 -218q0 -186 -146 -311t-376 -125
q-112 0 -206 34.5t-153.5 91t-91.5 125t-30 138.5h78q-3 -123 111.5 -220.5t296.5 -97.5q191 0 313.5 102.5t122.5 256.5q0 141 -101 222.5t-271 81.5h-184z" />
    <glyph glyph-name="Iicyrillic" unicode="&#x418;" horiz-adv-x="1361" 
d="M1091 0l278 1304h-8l-1196 -1304h-80l307 1443h80l-278 -1302h8l1196 1302h80l-307 -1443h-80z" />
    <glyph glyph-name="Iishortcyrillic" unicode="&#x419;" horiz-adv-x="1361" 
d="M1091 0l278 1304h-8l-1196 -1304h-80l307 1443h80l-278 -1302h8l1196 1302h80l-307 -1443h-80zM728 1793h72q-18 -85 28.5 -134t138.5 -49q91 0 159.5 49.5t86.5 133.5h72q-24 -115 -111.5 -178.5t-212.5 -63.5q-127 0 -192.5 64t-40.5 178z" />
    <glyph glyph-name="Kacyrillic" unicode="&#x41a;" horiz-adv-x="1158" 
d="M1340 1443l-931 -709l683 -734h-102l-666 714h-7l-152 -714h-80l307 1443h80l-144 -679h7l891 679h114z" />
    <glyph glyph-name="Elcyrillic" unicode="&#x41b;" horiz-adv-x="1291" 
d="M1100 0h-80l291 1370h-645l-246 -900q-24 -86 -48.5 -153.5t-59.5 -130.5t-74.5 -104.5t-93 -66t-116.5 -24.5q-20 0 -56 9l15 73q24 -8 52 -8q56 0 102.5 30.5t83.5 89.5t64.5 129t53.5 163l263 966h801z" />
    <glyph glyph-name="Emcyrillic" unicode="&#x41c;" horiz-adv-x="1625" 
d="M161 0h-76l307 1443h84l299 -1343h4l866 1343h97l-307 -1443h-77l273 1282h-5l-828 -1279h-75l-285 1279h-4z" />
    <glyph glyph-name="Encyrillic" unicode="&#x41d;" horiz-adv-x="1348" 
d="M1157 0h-80l150 705h-912l-150 -705h-80l307 1443h80l-141 -666h912l141 666h80z" />
    <glyph glyph-name="Ocyrillic" unicode="&#x41e;" horiz-adv-x="1465" 
d="M911 1390q-182 0 -332.5 -105.5t-235.5 -287.5t-85 -402q0 -248 136 -395t361 -147q182 0 332 105.5t235 287.5t85 402q0 248 -136 395t-360 147zM752 -21q-258 0 -416 167t-158 443q0 243 95.5 443.5t264.5 316t376 115.5q257 0 415.5 -167t158.5 -443
q0 -243 -95.5 -443.5t-264.5 -316t-376 -115.5z" />
    <glyph glyph-name="Pecyrillic" unicode="&#x41f;" horiz-adv-x="1334" 
d="M1143 0h-79l292 1370h-900l-291 -1370h-80l307 1443h1058z" />
    <glyph glyph-name="Ercyrillic" unicode="&#x420;" horiz-adv-x="1168" 
d="M396 1443h434q190 0 304 -105.5t114 -273.5q0 -221 -160.5 -351.5t-419.5 -130.5h-377l-125 -582h-81zM461 1371l-155 -717h363q220 0 359 108.5t139 295.5q0 140 -95 226.5t-261 86.5h-350z" />
    <glyph glyph-name="Escyrillic" unicode="&#x421;" horiz-adv-x="1366" 
d="M1361 974v7q-6 182 -131.5 295.5t-328.5 113.5q-180 0 -328 -106.5t-232.5 -292.5t-84.5 -411q0 -238 134.5 -382.5t356.5 -144.5q179 0 314.5 91.5t194.5 253.5h83q-64 -195 -223 -307t-372 -112q-256 0 -412 163.5t-156 431.5q0 249 95 453t262 320.5t371 116.5
q236 0 384 -134t153 -348v-8h-80z" />
    <glyph glyph-name="Tecyrillic" unicode="&#x422;" horiz-adv-x="1168" 
d="M572 0h-81l292 1370h-508l15 73h1096l-15 -73h-508z" />
    <glyph glyph-name="Ucyrillic" unicode="&#x423;" horiz-adv-x="1146" 
d="M208 -9q-41 0 -69 10l15 73q23 -9 67 -9q88 0 159.5 59t183.5 224l-277 1095h82l251 -1004h7l649 1004h91l-701 -1074q-145 -222 -237.5 -300t-220.5 -78z" />
    <glyph glyph-name="Efcyrillic" unicode="&#x424;" horiz-adv-x="1532" 
d="M750 -13h-79l34 158q-260 3 -404 128t-144 348q0 195 100.5 349.5t282 241.5t411.5 89l32 155h79l-33 -155q260 -3 404 -128t144 -348q0 -195 -100.5 -349.5t-282 -242t-411.5 -88.5zM238 623q0 -192 127 -298t355 -108l215 1012q-201 -2 -360 -80t-248 -216t-89 -310z
M1496 823q0 192 -127 298t-355 108l-215 -1012q305 3 501 173.5t196 432.5z" />
    <glyph glyph-name="Xacyrillic" unicode="&#x425;" horiz-adv-x="1200" 
d="M-22 0l674 728l-360 715h90l329 -657h2l606 657h104l-672 -727l360 -716h-90l-329 658h-3l-607 -658h-104z" />
    <glyph glyph-name="Tsecyrillic" unicode="&#x426;" horiz-adv-x="1406" 
d="M1261 -285h-76l61 285h-1163l307 1443h81l-292 -1370h890l291 1370h81l-291 -1370h187z" />
    <glyph glyph-name="Checyrillic" unicode="&#x427;" horiz-adv-x="1214" 
d="M1023 0h-80l152 712h-6q-68 -55 -178.5 -95.5t-256.5 -40.5q-216 0 -323 134.5t-60 354.5l80 378h81l-81 -380q-41 -190 47 -301.5t267 -111.5q147 0 263 46t186 110l136 637h80z" />
    <glyph glyph-name="Shacyrillic" unicode="&#x428;" horiz-adv-x="1771" 
d="M85 0l307 1443h80l-291 -1370h627l292 1370h80l-292 -1370h628l292 1370h80l-307 -1443h-1496z" />
    <glyph glyph-name="Shchacyrillic" unicode="&#x429;" horiz-adv-x="1843" 
d="M1707 -285h-76l61 285h-1607l307 1443h80l-291 -1370h627l292 1370h80l-292 -1370h628l292 1370h80l-292 -1370h187z" />
    <glyph glyph-name="Hardsigncyrillic" unicode="&#x42a;" horiz-adv-x="1453" 
d="M847 0h-496l292 1370h-352l16 73h432l-125 -588h345q196 0 312 -101.5t116 -262.5q0 -217 -150 -354t-390 -137zM946 783h-347l-152 -711h395q204 0 333.5 115t129.5 298q0 137 -95.5 217.5t-263.5 80.5z" />
    <glyph glyph-name="Yericyrillic" unicode="&#x42b;" horiz-adv-x="1501" 
d="M680 783h-347l-152 -711h395q204 0 333.5 115t129.5 298q0 139 -97 218.5t-262 79.5zM85 0l307 1443h80l-124 -588h345q191 0 309 -99.5t118 -264.5q0 -219 -150.5 -355t-388.5 -136h-496zM1315 0h-80l307 1443h80z" />
    <glyph glyph-name="Softsigncyrillic" unicode="&#x42c;" horiz-adv-x="1155" 
d="M680 783h-347l-152 -711h395q204 0 333.5 115t129.5 298q0 139 -97 218.5t-262 79.5zM85 0l307 1443h80l-124 -588h345q191 0 309 -99.5t118 -264.5q0 -219 -150.5 -355t-388.5 -136h-496z" />
    <glyph glyph-name="Ereversedcyrillic" unicode="&#x42d;" horiz-adv-x="1374" 
d="M643 -21q-139 0 -254 57.5t-183.5 159.5t-75.5 228h81q13 -163 136 -267t302 -104q244 0 425.5 180.5t229.5 471.5h-731l15 72h726q20 179 -31.5 318t-164.5 216.5t-269 77.5q-193 0 -333 -103t-206 -293h-82q66 222 231.5 346.5t395.5 124.5q261 0 409.5 -178.5
t127.5 -467.5q-9 -179 -70 -335t-159 -266.5t-233 -174t-287 -63.5z" />
    <glyph glyph-name="IUcyrillic" unicode="&#x42e;" horiz-adv-x="1905" 
d="M1189 53q181 0 332 105t238.5 291t87.5 412q0 241 -129 385t-346 144q-185 0 -337 -109.5t-236.5 -294.5t-84.5 -404q0 -240 129.5 -384.5t345.5 -144.5zM331 777h321q27 146 92 272t157.5 218t214.5 144.5t257 52.5q253 0 404 -166t151 -434q0 -185 -58 -350
t-156.5 -282t-235.5 -185t-290 -68q-253 0 -403.5 165t-150.5 434q0 68 7 127h-326l-150 -705h-80l307 1443h80z" />
    <glyph glyph-name="IAcyrillic" unicode="&#x42f;" horiz-adv-x="1222" 
d="M742 677h353l148 694h-395q-205 0 -335 -111t-130 -285q0 -137 95.5 -217.5t263.5 -80.5zM701 606l-541 -606h-103l551 618q-143 28 -224.5 121.5t-81.5 225.5q0 205 149.5 341.5t390.5 136.5h496l-307 -1443h-80l128 605h-345q-6 0 -17 0.5t-16 0.5z" />
    <glyph glyph-name="acyrillic" unicode="&#x430;" horiz-adv-x="978" 
d="M420 52q143 0 256 88t142 222l38 174l-344 -20q-169 -9 -261 -75t-92 -179q0 -94 72.5 -152t188.5 -58zM405 -16q-141 0 -232.5 76t-91.5 196q0 145 112.5 229.5t318.5 95.5l357 20l19 87q9 42 9 78q0 103 -72 161.5t-199 58.5q-134 0 -224.5 -64.5t-114.5 -175.5h-80
q27 141 142.5 226t282.5 85q155 0 249 -77.5t94 -205.5q0 -45 -10 -89l-145 -685h-76l40 187h-4q-56 -93 -157 -148t-218 -55z" />
    <glyph glyph-name="becyrillic" unicode="&#x431;" horiz-adv-x="1090" 
d="M673 1040q185 0 297 -118.5t112 -313.5q0 -177 -68 -319.5t-190.5 -224t-275.5 -81.5q-192 0 -306.5 124.5t-114.5 333.5q0 130 55 334q43 160 94.5 269.5t128.5 192.5t185 123t254 42q88 0 170 8q115 8 182 36l-15 -71q-55 -25 -176 -36q-80 -8 -175 -8
q-118 -1 -207 -33t-155 -98.5t-112 -157.5t-86 -223h7q67 108 170.5 164.5t225.5 56.5zM554 54q125 0 228 72.5t161.5 197t58.5 273.5q0 172 -92.5 272t-250.5 100q-130 0 -234.5 -72.5t-162 -197t-57.5 -275.5q0 -170 95 -270t254 -100z" />
    <glyph glyph-name="vecyrillic" unicode="&#x432;" horiz-adv-x="947" 
d="M66 0l221 1040h375q130 0 203.5 -60.5t73.5 -159.5q0 -108 -71 -182t-180 -95l-1 -7q91 -9 148 -60.5t57 -139.5q0 -145 -119 -240.5t-312 -95.5h-395zM549 502h-298l-94 -435h316q152 0 246.5 77t94.5 188q0 170 -265 170zM648 972h-298l-86 -403h294q130 0 215 69
t85 170q0 80 -54 122t-156 42z" />
    <glyph glyph-name="gecyrillic" unicode="&#x433;" horiz-adv-x="820" 
d="M921 972h-570l-207 -972h-78l221 1040h648z" />
    <glyph glyph-name="decyrillic" unicode="&#x434;" horiz-adv-x="1180" 
d="M855 68l193 904h-523q-91 -341 -153 -536q-42 -135 -83 -223.5t-97 -137.5l-1 -7h664zM11 -275h-74l73 343h82q117 68 207 373q71 224 171 599h670l-207 -972h172l-74 -343h-73l58 275h-946z" />
    <glyph glyph-name="iecyrillic" unicode="&#x435;" horiz-adv-x="1037" 
d="M217 575h740q6 28 6 76q0 151 -83.5 243.5t-230.5 92.5q-161 0 -280 -115t-152 -297zM528 -17q-189 0 -298.5 117t-109.5 312q0 181 68.5 328.5t190 232t272.5 84.5q180 0 285 -110.5t105 -300.5q0 -74 -15 -137h-820q-8 -61 -8 -91q0 -169 90 -267t244 -98
q133 0 229 64.5t139 179.5h79q-47 -144 -167.5 -229t-283.5 -85z" />
    <glyph glyph-name="zhecyrillic" unicode="&#x436;" horiz-adv-x="1365" 
d="M1488 1040l-628 -505l438 -535h-95l-420 514h-4l-110 -514h-78l110 516h-4l-626 -516h-111l669 551l-405 489h93l390 -476h3l102 476h78l-101 -477h4l588 477h107z" />
    <glyph glyph-name="zecyrillic" unicode="&#x437;" horiz-adv-x="939" 
d="M862 313q-1 -149 -120 -240.5t-294 -91.5q-169 0 -263.5 83t-102.5 216h77q7 -99 83.5 -164.5t209.5 -65.5q140 0 236 73.5t96 186.5q0 97 -69 144t-195 47h-165l14 66h167q134 0 220 63.5t86 160.5q1 94 -65 143.5t-188 49.5q-117 0 -205.5 -65t-122.5 -172h-77
q42 138 149 222.5t265 84.5q152 0 238 -68.5t86 -183.5q-1 -104 -74 -175.5t-178 -88.5l-2 -3q87 -14 141 -71t53 -151z" />
    <glyph glyph-name="iicyrillic" unicode="&#x438;" horiz-adv-x="1055" 
d="M145 0h-79l221 1040h78l-194 -911h6l849 911h78l-221 -1040h-78l195 911h-6z" />
    <glyph glyph-name="iishortcyrillic" unicode="&#x439;" horiz-adv-x="1055" 
d="M145 0h-79l221 1040h78l-194 -911h6l849 911h78l-221 -1040h-78l195 911h-6zM513 1496h71q-19 -91 25 -145t139 -54q96 0 162.5 54.5t85.5 144.5h74q-26 -120 -111.5 -189t-218.5 -69q-123 0 -187.5 71t-39.5 187z" />
    <glyph glyph-name="kacyrillic" unicode="&#x43a;" horiz-adv-x="901" 
d="M1021 1040l-677 -502l488 -538h-101l-472 515h-5l-110 -515h-78l221 1040h78l-101 -477h5l641 477h111z" />
    <glyph glyph-name="elcyrillic" unicode="&#x43b;" horiz-adv-x="1051" 
d="M359 436q-26 -86 -49 -148.5t-53.5 -121.5t-63 -95.5t-75.5 -58t-93 -21.5q-35 0 -55 10l15 71q36 -9 50 -9q79 0 137.5 96.5t113.5 280.5q75 250 168 600h645l-222 -1040h-78l207 972h-496q-106 -389 -151 -536z" />
    <glyph glyph-name="emcyrillic" unicode="&#x43c;" horiz-adv-x="1325" 
d="M144 0h-78l221 1040h89l253 -936h4l646 936h96l-221 -1040h-78l190 894h-5l-615 -886h-61l-246 886h-5z" />
    <glyph glyph-name="encyrillic" unicode="&#x43d;" horiz-adv-x="1041" 
d="M66 0l221 1040h79l-101 -468h648l100 468h78l-222 -1040h-77l107 505h-648l-107 -505h-78z" />
    <glyph glyph-name="ocyrillic" unicode="&#x43e;" horiz-adv-x="1090" 
d="M547 54q194 0 325 160.5t131 398.5q0 169 -94 271t-251 102q-127 0 -231.5 -73t-164 -201t-59.5 -285q0 -169 94 -271t250 -102zM658 1057q192 0 307.5 -121t115.5 -321q0 -178 -69.5 -322.5t-192 -227t-272.5 -82.5q-192 0 -307 121t-115 321q0 177 69.5 322
t191.5 227.5t272 82.5z" />
    <glyph glyph-name="pecyrillic" unicode="&#x43f;" horiz-adv-x="1031" 
d="M782 0l207 972h-638l-207 -972h-78l221 1040h794l-221 -1040h-78z" />
    <glyph glyph-name="ercyrillic" unicode="&#x440;" horiz-adv-x="1107" 
d="M577 54q124 0 226.5 73t161.5 201t59 282q0 175 -86 275.5t-235 100.5q-125 0 -230.5 -78.5t-165.5 -210.5t-60 -284q0 -161 91 -260t239 -99zM70 -341h-77l294 1381h76l-50 -234h5q63 116 170 183t230 67q175 0 279 -120.5t104 -321.5q0 -176 -69 -320.5t-189.5 -227
t-266.5 -82.5q-145 0 -247.5 88t-119.5 226h-3z" />
    <glyph glyph-name="escyrillic" unicode="&#x441;" horiz-adv-x="1017" 
d="M653 1057q166 0 273 -95t120 -243v-2h-76q-14 120 -100.5 194.5t-217.5 74.5q-125 0 -228 -73t-162 -201.5t-59 -285.5q0 -168 93 -270t244 -102q121 0 215 62t138 168h78q-50 -138 -165.5 -219.5t-266.5 -81.5q-189 0 -301.5 121.5t-112.5 319.5q0 177 68.5 322
t189.5 228t270 83z" />
    <glyph glyph-name="tecyrillic" unicode="&#x442;" horiz-adv-x="901" 
d="M1029 1040l-14 -68h-375l-208 -972h-78l208 972h-376l14 68h829z" />
    <glyph glyph-name="ucyrillic" unicode="&#x443;" horiz-adv-x="905" 
d="M77 -356q-37 0 -69 8l12 68q29 -8 60 -8q67 0 120.5 43t112.5 145l50 88l-177 1052h78l156 -959h4l551 959h87l-681 -1168q-75 -130 -143 -179t-161 -49z" />
    <glyph glyph-name="efcyrillic" unicode="&#x444;" horiz-adv-x="1362" 
d="M587 -372h-77l76 354q-213 7 -337 127.5t-124 318.5q0 265 190.5 443t498.5 185l76 359h77l-76 -360q213 -7 337 -128t124 -319q0 -129 -49.5 -243t-138.5 -198t-218.5 -133.5t-282.5 -52.5zM1272 599q0 177 -105.5 278.5t-290.5 107.5l-198 -935q131 4 243 49t188.5 119
t119.5 172.5t43 208.5zM205 437q0 -177 105.5 -278.5t290.5 -107.5l198 935q-175 -5 -311.5 -80.5t-209.5 -198.5t-73 -270z" />
    <glyph glyph-name="hacyrillic" unicode="&#x445;" horiz-adv-x="895" 
d="M504 456h-4l-425 -456h-96l489 525l-271 515h85l238 -459h4l427 459h97l-491 -527l269 -513h-84z" />
    <glyph glyph-name="tsecyrillic" unicode="&#x446;" horiz-adv-x="1121" 
d="M973 -275h-74l59 275h-892l221 1040h78l-207 -972h638l207 972h78l-207 -972h172z" />
    <glyph glyph-name="checyrillic" unicode="&#x447;" horiz-adv-x="970" 
d="M799 0h-78l105 494h-10q-134 -103 -315 -103q-168 0 -247.5 104.5t-42.5 273.5l57 271h78l-57 -270q-31 -143 27.5 -226t199.5 -83q97 0 182.5 34.5t146.5 91.5l97 453h78z" />
    <glyph glyph-name="shacyrillic" unicode="&#x448;" horiz-adv-x="1503" 
d="M66 0l221 1040h79l-208 -972h516l207 972h78l-207 -972h516l207 972h78l-221 -1040h-1266z" />
    <glyph glyph-name="shchacyrillic" unicode="&#x449;" horiz-adv-x="1593" 
d="M1445 -275h-74l59 275h-1364l221 1040h79l-208 -972h516l207 972h78l-207 -972h516l207 972h78l-207 -972h172z" />
    <glyph glyph-name="hardsigncyrillic" unicode="&#x44a;" horiz-adv-x="1068" 
d="M578 0h-330l207 972h-279l14 68h357l-80 -380h252q147 0 228 -70.5t81 -195.5q0 -166 -123 -280t-327 -114zM704 593h-252l-112 -525h250q163 0 261 93.5t98 224.5q0 102 -62 154.5t-183 52.5z" />
    <glyph glyph-name="yericyrillic" unicode="&#x44b;" horiz-adv-x="1181" 
d="M925 0l221 1040h78l-221 -1040h-78zM520 593h-250l-112 -525h249q162 0 260.5 93.5t98.5 224.5q0 101 -62.5 154t-183.5 53zM66 0l221 1040h78l-80 -380h251q147 0 228 -70.5t81 -195.5q0 -168 -123 -281t-328 -113h-328z" />
    <glyph glyph-name="softsigncyrillic" unicode="&#x44c;" horiz-adv-x="884" 
d="M520 593h-250l-112 -525h249q162 0 260.5 93.5t98.5 224.5q0 101 -62.5 154t-183.5 53zM66 0l221 1040h78l-80 -380h251q147 0 228 -70.5t81 -195.5q0 -168 -123 -281t-328 -113h-328z" />
    <glyph glyph-name="ereversedcyrillic" unicode="&#x44d;" horiz-adv-x="1024" 
d="M170 746q47 142 164.5 226t276.5 84q183 0 293.5 -113.5t110.5 -302.5q0 -183 -69 -333t-195 -238t-283 -88q-159 0 -263 83t-119 213h78q17 -102 101 -164t208 -62q171 0 295.5 127.5t156.5 326.5h-545l14 67h539q3 28 3 57q1 164 -89 260t-244 96q-122 0 -216 -64.5
t-139 -174.5h-78z" />
    <glyph glyph-name="iucyrillic" unicode="&#x44e;" horiz-adv-x="1469" 
d="M934 -17q-189 0 -301 120t-112 322q0 48 4 80h-273l-107 -505h-78l222 1040h78l-101 -468h268q41 214 180 349.5t331 135.5q188 0 301 -120t113 -319q0 -178 -67.5 -323t-188 -228.5t-269.5 -83.5zM936 54q126 0 228 74.5t159.5 203t57.5 284.5q0 170 -91.5 270
t-245.5 100q-126 0 -228.5 -75.5t-159.5 -204t-57 -282.5q0 -171 91 -270.5t246 -99.5z" />
    <glyph glyph-name="iacyrillic" unicode="&#x44f;" horiz-adv-x="954" 
d="M554 486h254l104 486h-258q-165 0 -260 -77.5t-95 -198.5q0 -210 255 -210zM704 0l89 418h-248h-7l-392 -418h-100l405 430q-111 17 -171.5 85t-60.5 176q0 157 119 253t327 96h339l-222 -1040h-78z" />
    <glyph glyph-name="uni0450" unicode="&#x450;" horiz-adv-x="1037" 
d="M217 575h740q6 28 6 76q0 151 -83.5 243.5t-230.5 92.5q-161 0 -280 -115t-152 -297zM528 -17q-189 0 -298.5 117t-109.5 312q0 181 68.5 328.5t190 232t272.5 84.5q180 0 285 -110.5t105 -300.5q0 -74 -15 -137h-820q-8 -61 -8 -91q0 -169 90 -267t244 -98
q133 0 229 64.5t139 179.5h79q-47 -144 -167.5 -229t-283.5 -85zM767 1241h-70l-184 303h83z" />
    <glyph glyph-name="iocyrillic" unicode="&#x451;" horiz-adv-x="1037" 
d="M217 575h740q6 28 6 76q0 151 -83.5 243.5t-230.5 92.5q-161 0 -280 -115t-152 -297zM528 -17q-189 0 -298.5 117t-109.5 312q0 181 68.5 328.5t190 232t272.5 84.5q180 0 285 -110.5t105 -300.5q0 -74 -15 -137h-820q-8 -61 -8 -91q0 -169 90 -267t244 -98
q133 0 229 64.5t139 179.5h79q-47 -144 -167.5 -229t-283.5 -85zM591 1243q-28 0 -47.5 19.5t-19.5 46.5q0 28 19.5 47t47.5 19q27 0 46.5 -19t19.5 -47q0 -27 -19.5 -46.5t-46.5 -19.5zM889 1243q-27 0 -47 19.5t-20 46.5t20 46.5t47 19.5t47 -19.5t20 -46.5t-20 -46.5
t-47 -19.5z" />
    <glyph glyph-name="djecyrillic" unicode="&#x452;" horiz-adv-x="1062" 
d="M322 836h4q60 102 158 161t219 59q152 0 248 -89t96 -228q0 -57 -11 -102l-155 -721q-30 -138 -103.5 -195.5t-200.5 -50.5q-4 0 -24.5 0.5t-25.5 0.5l16 72l34 -1q96 -5 151 38t76 142l151 700q12 55 12 98q0 121 -78.5 193.5t-209.5 72.5q-146 0 -256 -98.5
t-142 -244.5l-138 -643h-77l263 1234h-125l13 61h125l34 159h78l-34 -159h269l-13 -61h-269z" />
    <glyph glyph-name="gjecyrillic" unicode="&#x453;" horiz-adv-x="820" 
d="M921 972h-570l-207 -972h-78l221 1040h648zM683 1241h-82l301 303h93z" />
    <glyph glyph-name="ecyrillic" unicode="&#x454;" horiz-adv-x="1022" 
d="M966 278q-40 -127 -162 -212t-274 -85q-188 0 -297.5 116t-109.5 306q0 181 70 330.5t194.5 236t276.5 86.5q164 0 270 -87t118 -222h-76q-15 108 -100.5 173.5t-214.5 65.5q-159 0 -280 -116t-161 -298h544l-14 -66h-541q-7 -43 -7 -97q0 -164 89 -261t241 -97
q120 0 219 65t137 162h78z" />
    <glyph glyph-name="dzecyrillic" unicode="&#x455;" horiz-adv-x="932" 
d="M227 772q0 124 101.5 204t260.5 80q155 0 256.5 -85t111.5 -220h-76q-11 105 -92 171.5t-203 66.5q-123 0 -202.5 -60t-79.5 -151q0 -69 48.5 -115.5t160.5 -83.5l89 -31q142 -49 202.5 -111t60.5 -160q0 -130 -105.5 -212t-272.5 -82q-170 0 -283.5 88.5t-125.5 228.5
h78q16 -112 107.5 -180.5t227.5 -68.5q130 0 212.5 62.5t82.5 160.5q0 74 -48 119.5t-174 88.5l-91 31q-128 43 -187 105t-59 154z" />
    <glyph glyph-name="icyrillic" unicode="&#x456;" horiz-adv-x="325" 
d="M71 0l221 1040h78l-221 -1040h-78zM387 1249q-25 0 -43 18t-18 43t18 42.5t43 17.5q26 0 44 -17.5t18 -42.5t-18 -43t-44 -18z" />
    <glyph glyph-name="yicyrillic" unicode="&#x457;" horiz-adv-x="318" 
d="M262 1246q-25 0 -43.5 18t-18.5 43q0 26 18 43.5t44 17.5q25 0 43 -17.5t18 -43.5q0 -25 -18 -43t-43 -18zM533 1246q-25 0 -43.5 18t-18.5 43q0 26 18.5 43.5t43.5 17.5q26 0 44 -17.5t18 -43.5q0 -25 -18.5 -43t-43.5 -18zM74 0l221 1040h78l-221 -1040h-78z" />
    <glyph glyph-name="jecyrillic" unicode="&#x458;" horiz-adv-x="326" 
d="M393 1249q-25 0 -43 18t-18 43t18 42.5t43 17.5t43.5 -17.5t18.5 -42.5t-18.5 -43t-43.5 -18zM370 1040l-243 -1147q-27 -129 -97.5 -186.5t-189.5 -57.5q-34 0 -70 3l16 69q28 -3 55 -3q88 0 138.5 44t69.5 139l243 1139h78z" />
    <glyph glyph-name="ljecyrillic" unicode="&#x459;" horiz-adv-x="1618" 
d="M22 -9q-32 0 -52 10l15 71q36 -9 50 -9q79 0 137.5 96.5t113.5 280.5q72 240 168 600h645l-81 -380h251q148 0 228.5 -70.5t80.5 -195.5q0 -166 -123 -280t-327 -114h-329l207 972h-496q-115 -416 -151 -536q-26 -86 -49.5 -149t-54 -122t-63.5 -95t-76 -57.5t-94 -21.5z
M1254 593h-250l-112 -525h248q163 0 261.5 93.5t98.5 224.5q0 101 -62.5 154t-183.5 53z" />
    <glyph glyph-name="njecyrillic" unicode="&#x45a;" horiz-adv-x="1590" 
d="M875 68h271q144 0 235 73t91 190q0 97 -60 149.5t-169 52.5h-269zM148 0h-78l222 1040h78l-94 -441h634l94 441h77l-92 -439h266q132 0 214 -70.5t82 -183.5q0 -158 -116 -252.5t-304 -94.5h-349l113 532h-634z" />
    <glyph glyph-name="tshecyrillic" unicode="&#x45b;" horiz-adv-x="1056" 
d="M319 836h4q58 100 155 160t221 60q153 0 248.5 -90t95.5 -227q0 -55 -10 -102l-138 -637h-77l133 622q12 57 12 98q0 120 -78 193t-210 73q-147 0 -256.5 -99t-140.5 -246l-138 -641h-78l264 1234h-116l13 62h117l31 147h78l-31 -147h277l-13 -62h-278z" />
    <glyph glyph-name="kjecyrillic" unicode="&#x45c;" horiz-adv-x="901" 
d="M1012 1544l-312 -303h-82l301 303h93zM1021 1040l-677 -502l488 -538h-101l-472 515h-5l-110 -515h-78l221 1040h78l-101 -477h5l641 477h111z" />
    <glyph glyph-name="uni045D" unicode="&#x45d;" horiz-adv-x="1055" 
d="M145 0h-79l221 1040h78l-194 -911h6l849 911h78l-221 -1040h-78l195 911h-6zM778 1241h-70l-184 303h83z" />
    <glyph glyph-name="ushortcyrillic" unicode="&#x45e;" horiz-adv-x="905" 
d="M77 -356q-37 0 -69 8l12 68q29 -8 60 -8q67 0 120.5 43t112.5 145l50 88l-177 1052h78l156 -959h4l551 959h87l-681 -1168q-75 -130 -143 -179t-161 -49zM434 1496h71q-19 -91 25 -145t139 -54q96 0 162.5 54.5t85.5 144.5h74q-26 -120 -111.5 -189t-218.5 -69
q-123 0 -187.5 71t-39.5 187z" />
    <glyph glyph-name="dzhecyrillic" unicode="&#x45f;" horiz-adv-x="1031" 
d="M860 0h-360l-59 -275h-74l59 275h-360l221 1040h78l-207 -972h638l207 972h78z" />
    <glyph glyph-name="uni0462" unicode="&#x462;" horiz-adv-x="1362" 
d="M388 72h395q204 0 333.5 115t129.5 298q0 139 -97 218.5t-262 79.5h-347zM555 855h345q192 0 310 -99.5t118 -264.5q0 -219 -151 -355t-389 -136h-496l257 1208h-330l15 70h330l48 228h80l-48 -228h468l-15 -70h-468z" />
    </font>
</defs>
</svg>
