<?xml version="1.0" standalone="no"?>
<!DOCTYPE svg PUBLIC "-//W3C//DTD SVG 1.1//EN" "http://www.w3.org/Graphics/SVG/1.1/DTD/svg11.dtd" >
<svg xmlns="http://www.w3.org/2000/svg" xmlns:xlink="http://www.w3.org/1999/xlink" version="1.1">
<metadata>
Created by FontForge 20201107 at Wed May 31 05:49:42 2017
 By 
(c) 2015-2017 Apple Inc. All rights reserved.
</metadata>
<defs>
<font id="SFProDisplay-LightItalic" horiz-adv-x="1219" >
  <font-face 
    font-family="SF Pro Display"
    font-weight="300"
    font-style="italic"
    font-stretch="normal"
    units-per-em="2048"
    panose-1="0 0 4 0 0 0 0 0 0 0"
    ascent="1638"
    descent="-410"
    x-height="1040"
    cap-height="1443"
    bbox="-574 -494 2767 2095"
    underline-thickness="95"
    underline-position="-368"
    slope="-12"
    unicode-range="U+0020-FB02"
  />
<missing-glyph horiz-adv-x="2048" 
d="M-62 -494l65 308h1848l-66 -308h-1847zM29 -67l65 308h1847l-65 -308h-1847zM120 361l65 307h1847l-65 -307h-1847zM210 788l66 307h1847l-65 -307h-1848zM301 1215l66 308h1847l-65 -308h-1848zM392 1642l65 308h1848l-66 -308h-1847z" />
    <glyph glyph-name=".notdef" horiz-adv-x="2048" 
d="M-62 -494l65 308h1848l-66 -308h-1847zM29 -67l65 308h1847l-65 -308h-1847zM120 361l65 307h1847l-65 -307h-1847zM210 788l66 307h1847l-65 -307h-1848zM301 1215l66 308h1847l-65 -308h-1848zM392 1642l65 308h1848l-66 -308h-1847z" />
    <glyph glyph-name=".null" horiz-adv-x="0" 
 />
    <glyph glyph-name="nonmarkingreturn" horiz-adv-x="0" 
 />
    <glyph glyph-name="space" unicode=" " horiz-adv-x="479" 
 />
    <glyph glyph-name="exclam" unicode="!" horiz-adv-x="533" 
d="M439 1443h151l-221 -986h-128zM230 -9q-40 0 -67 27t-27 66q0 40 27 67t67 27q39 0 66 -27t27 -67q0 -39 -27 -66t-66 -27z" />
    <glyph glyph-name="quotedbl" unicode="&#x22;" horiz-adv-x="707" 
d="M409 955h-123l104 488h123zM713 955h-124l104 488h123z" />
    <glyph glyph-name="numbersign" unicode="#" horiz-adv-x="1231" 
d="M644 0l139 419h-360l-139 -419h-111l139 419h-249l35 111h251l128 395h-259l36 110h259l137 410h111l-135 -410h359l137 410h111l-136 -410h267l-36 -110h-268l-129 -395h277l-35 -111h-278l-139 -419h-112zM458 528h362l129 398h-361z" />
    <glyph glyph-name="dollar" unicode="$" 
d="M753 653l-120 -560h13q162 0 258 80t96 207q0 95 -59.5 158t-187.5 115zM686 828l111 520h-15q-144 0 -236.5 -76.5t-92.5 -191.5q0 -85 55 -142.5t178 -109.5zM781 787l39 -16q163 -68 244 -158t81 -219q0 -191 -143 -308t-367 -117q-19 0 -28 1l-26 -123h-104l29 135
q-166 34 -275 144t-115 258h138q11 -106 85 -180t193 -100l125 589l-36 15q-157 64 -234 153.5t-77 211.5q0 174 136 287t354 113h23l27 126h104l-30 -139q151 -34 247.5 -138t101.5 -239h-138q-13 95 -75.5 161t-161.5 91z" />
    <glyph glyph-name="percent" unicode="%" horiz-adv-x="1575" 
d="M219 1012q0 192 96 318.5t239 126.5q109 0 173.5 -71t64.5 -190q0 -191 -96.5 -318t-238.5 -127q-109 0 -173.5 70.5t-64.5 190.5zM460 849q82 0 143.5 105.5t61.5 247.5q0 72 -30.5 114t-83.5 42q-82 0 -143.5 -105t-61.5 -248q0 -72 30.5 -114t83.5 -42zM272 0h-146
l714 752l656 691h145l-701 -739zM975 247q0 192 96 318t239 126q110 0 174.5 -70.5t64.5 -189.5q0 -192 -96.5 -318.5t-239.5 -126.5q-109 0 -173.5 70.5t-64.5 190.5zM1216 84q82 0 143.5 105t61.5 248q0 72 -30.5 114t-82.5 42q-83 0 -144.5 -105t-61.5 -248
q0 -72 30.5 -114t83.5 -42z" />
    <glyph glyph-name="ampersand" unicode="&#x26;" horiz-adv-x="1413" 
d="M554 1129q0 -52 27.5 -113t92.5 -152q172 57 257 140.5t85 176.5q0 81 -58 131t-151 50q-103 0 -178 -69t-75 -164zM569 91q100 0 201.5 33t183.5 98l-342 508l-83 -33q-145 -56 -220 -139t-75 -185q0 -123 92.5 -202.5t242.5 -79.5zM1101 0l-83 124q-196 -149 -454 -149
q-196 0 -331.5 111.5t-135.5 274.5q0 280 370 428l85 34q-69 99 -99.5 171.5t-30.5 136.5q0 142 113 242t278 100q145 0 239.5 -79t94.5 -199q0 -272 -414 -419l318 -464q144 160 169 384l9 65h129l-10 -71q-32 -276 -227 -481l142 -209h-162z" />
    <glyph glyph-name="quotesingle" unicode="'" horiz-adv-x="403" 
d="M409 955h-123l104 488h123z" />
    <glyph glyph-name="parenleft" unicode="(" horiz-adv-x="634" 
d="M446 -305h-119q-50 107 -79.5 287t-29.5 362q0 318 122.5 607t329.5 492h148q-222 -219 -344.5 -507t-122.5 -598q0 -392 95 -643z" />
    <glyph glyph-name="parenright" unicode=")" horiz-adv-x="634" 
d="M316 1444h120q50 -108 79.5 -288t29.5 -361q0 -318 -122.5 -607.5t-329.5 -491.5h-148q222 219 344.5 507t122.5 598q0 392 -96 643z" />
    <glyph glyph-name="asterisk" unicode="*" horiz-adv-x="975" 
d="M931 857l-232 185l-45 -303l-101 10l60 301l-286 -130l-35 94l290 114l-236 168l58 80l235 -189l46 309l100 -10l-60 -299l283 130l35 -94l-296 -116l243 -171z" />
    <glyph glyph-name="plus" unicode="+" 
d="M718 510l-94 -444h-117l94 444h-441l26 124h441l96 451h118l-96 -451h443l-26 -124h-444z" />
    <glyph glyph-name="comma" unicode="," horiz-adv-x="511" 
d="M120 -276h-112l199 482h140z" />
    <glyph glyph-name="hyphen" unicode="-" horiz-adv-x="830" 
d="M140 504l25 116h650l-25 -116h-650z" />
    <glyph glyph-name="hyphen" unicode="&#x2011;" horiz-adv-x="830" 
d="M140 504l25 116h650l-25 -116h-650z" />
    <glyph glyph-name="period" unicode="." horiz-adv-x="518" 
d="M220 -9q-39 0 -66.5 27t-27.5 66q0 40 27.5 67t66.5 27t66 -27t27 -67q0 -39 -27 -66t-66 -27z" />
    <glyph glyph-name="slash" unicode="/" horiz-adv-x="634" 
d="M-5 -305h-116l889 1748h116z" />
    <glyph glyph-name="zero" unicode="0" horiz-adv-x="1260" 
d="M633 -23q-210 0 -333.5 141.5t-123.5 381.5q0 274 83.5 495t231 346t330.5 125q209 0 332.5 -142t123.5 -383q0 -275 -83 -495.5t-230 -344.5t-331 -124zM317 502q0 -185 87 -294.5t234 -109.5q137 0 251 111.5t180 305t66 425.5q0 185 -86.5 294.5t-231.5 109.5
q-137 0 -252 -112t-181.5 -306t-66.5 -424z" />
    <glyph glyph-name="one" unicode="1" horiz-adv-x="868" 
d="M426 0l273 1282h-4q-25 -13 -224.5 -134.5t-215.5 -130.5l33 159q10 6 111.5 67.5t203.5 123t131 76.5h136l-307 -1443h-137z" />
    <glyph glyph-name="two" unicode="2" horiz-adv-x="1179" 
d="M288 1055q26 184 161 297.5t329 113.5q179 0 299 -103t120 -257q0 -132 -78.5 -242t-315.5 -313l-495 -423l-1 -4h752l-26 -124h-953l22 110l622 531q201 173 268 263t67 188q0 111 -81.5 182.5t-207.5 71.5q-133 0 -227 -79.5t-119 -211.5h-136z" />
    <glyph glyph-name="three" unicode="3" horiz-adv-x="1195" 
d="M489 685l25 119h187q162 0 264.5 79.5t102.5 206.5q0 116 -82 186.5t-215 70.5q-125 0 -217 -67t-117 -177h-133q29 164 160 263t319 99q185 0 304 -101t119 -258q0 -141 -96 -242t-248 -121l-1 -4q123 -24 193 -108.5t70 -209.5q0 -193 -149 -318.5t-378 -125.5
q-216 0 -352 112.5t-132 287.5q0 12 3 24h132q-3 -11 -3 -22q5 -128 104 -205t258 -77q167 0 271.5 87t104.5 226q0 130 -85 202.5t-236 72.5h-173z" />
    <glyph glyph-name="four" unicode="4" horiz-adv-x="1217" 
d="M757 0l69 326h-734l21 129q241 306 875 990h210l-212 -996h216l-26 -123h-216l-69 -326h-134zM262 452l-1 -4h591l186 873h-4q-497 -528 -772 -869z" />
    <glyph glyph-name="five" unicode="5" horiz-adv-x="1186" 
d="M633 -23q-136 0 -246.5 52.5t-173.5 146.5t-64 210v4h135v-2q7 -125 107 -206t247 -81q168 0 277 111.5t109 283.5q0 145 -93.5 235.5t-241.5 90.5q-90 0 -179.5 -43t-145.5 -114h-144l242 778h792l-27 -123h-674l-160 -515h4q54 61 142 97.5t182 36.5q193 0 317 -121.5
t124 -315.5q0 -226 -150 -375.5t-379 -149.5z" />
    <glyph glyph-name="six" unicode="6" horiz-adv-x="1217" 
d="M1197 515q-6 -237 -157.5 -387.5t-385.5 -150.5q-69 0 -133.5 17.5t-128 60.5t-110 107.5t-73.5 168t-23 233.5q3 134 33 263.5t88 245t136.5 203t186 139t229.5 51.5q183 0 305 -107.5t132 -278.5h-140q-13 120 -98 191.5t-213 71.5q-187 0 -323.5 -168.5t-185.5 -454.5
l6 -1q66 110 175.5 170t243.5 60q194 0 317 -122t119 -312zM730 829q-163 0 -282 -109t-122 -263q-3 -152 94 -255t245 -103q168 0 278.5 111t113.5 282q4 148 -88.5 242.5t-238.5 94.5z" />
    <glyph glyph-name="seven" unicode="7" horiz-adv-x="1078" 
d="M121 0l944 1315l1 5h-770l27 123h919l-28 -128l-940 -1315h-153z" />
    <glyph glyph-name="eight" unicode="8" horiz-adv-x="1224" 
d="M1160 419q0 -193 -155 -318t-393 -125q-219 0 -358 106.5t-139 274.5q0 158 114 276t291 144l1 4q-93 36 -147 111t-54 169q0 171 142 287t351 116q192 0 315 -95.5t123 -245.5q0 -137 -93.5 -240.5t-244.5 -133.5l-1 -4q113 -37 180.5 -125.5t67.5 -200.5zM660 698
q-172 0 -287 -92.5t-115 -230.5q0 -125 99.5 -201.5t262.5 -76.5q176 0 288.5 91.5t112.5 233.5q0 121 -101 198.5t-260 77.5zM455 1056q0 -107 86 -174t222 -67q149 0 248.5 83t99.5 207q0 107 -85 174t-223 67q-148 0 -248 -83t-100 -207z" />
    <glyph glyph-name="nine" unicode="9" horiz-adv-x="1212" 
d="M719 614q158 0 275.5 109t120.5 267q3 153 -90 253.5t-243 100.5q-166 0 -276.5 -111.5t-114.5 -282.5q-3 -145 90 -240.5t238 -95.5zM253 938q6 231 159 379.5t385 148.5q64 0 126 -15.5t125 -55t109.5 -98.5t74.5 -155t25 -216q-4 -134 -31.5 -265.5t-83 -255.5
t-133 -219t-189 -152t-241.5 -57q-183 0 -304 107t-133 280h139q16 -121 100 -192t210 -71q191 0 328.5 167t185.5 461l-5 1q-63 -111 -171.5 -173t-239.5 -62q-190 0 -315 127t-121 316z" />
    <glyph glyph-name="colon" unicode=":" horiz-adv-x="518" 
d="M220 -9q-39 0 -66.5 27t-27.5 66q0 40 27.5 67t66.5 27t66 -27t27 -67q0 -39 -27 -66t-66 -27zM381 748q-39 0 -66.5 27t-27.5 67q0 39 27.5 66t66.5 27t66.5 -27t27.5 -66q0 -40 -27.5 -67t-66.5 -27z" />
    <glyph glyph-name="semicolon" unicode=";" horiz-adv-x="518" 
d="M381 748q-39 0 -66.5 27t-27.5 67q0 39 27.5 66t66.5 27t66.5 -27t27.5 -66q0 -40 -27.5 -67t-66.5 -27zM120 -276h-112l199 482h140z" />
    <glyph glyph-name="less" unicode="&#x3c;" 
d="M1012 124l-29 -140l-755 532l23 109l981 529l-32 -147l-812 -442l-1 -7z" />
    <glyph glyph-name="equal" unicode="=" 
d="M1105 323h-967l25 118h967zM1185 703h-967l25 118h967z" />
    <glyph glyph-name="greater" unicode="&#x3e;" 
d="M336 1013l28 140l755 -532l-23 -109l-980 -529l31 147l812 442l2 7z" />
    <glyph glyph-name="question" unicode="?" horiz-adv-x="945" 
d="M221 1102q35 164 152 260t296 96q174 0 283.5 -95t109.5 -233q0 -128 -78.5 -231t-212.5 -159q-107 -45 -156 -96.5t-66 -135.5l-15 -78h-136l20 94q26 118 85 183t180 116q234 102 234 293q0 94 -68.5 158t-189.5 64q-113 0 -193.5 -63t-112.5 -173h-132zM404 -9
q-39 0 -66.5 27t-27.5 66q0 40 27.5 67t66.5 27t66 -27t27 -67q0 -39 -27 -66t-66 -27z" />
    <glyph glyph-name="at" unicode="@" horiz-adv-x="1772" 
d="M1050 1436q222 0 394.5 -82t268 -231.5t95.5 -341.5q0 -172 -58 -310t-161 -216t-231 -78q-83 0 -140 40t-63 103q0 2 0.5 6t0.5 6l-12 1q-42 -73 -115.5 -114.5t-160.5 -41.5q-136 0 -220.5 95.5t-84.5 249.5q0 208 120 351.5t294 143.5q94 0 165.5 -51.5t85.5 -130.5
h12l31 147h121l-119 -549q-6 -25 -6 -52q0 -46 30 -72t83 -26q134 0 227.5 143t93.5 350q0 255 -181 408t-481 153q-168 0 -316 -61.5t-253.5 -167.5t-166.5 -254.5t-61 -317.5q0 -304 196.5 -490.5t515.5 -186.5q149 0 217 25l-21 -102q-91 -22 -209 -22
q-236 0 -420.5 97.5t-286.5 274.5t-102 403q0 194 69 361.5t189.5 286t291 186t368.5 67.5zM1196 670q0 109 -56.5 173.5t-151.5 64.5q-127 0 -214 -109t-87 -268q0 -113 55.5 -179.5t149.5 -66.5q124 0 214 113.5t90 271.5z" />
    <glyph glyph-name="A" unicode="A" horiz-adv-x="1261" 
d="M848 1274l-408 -714h525l-113 714h-4zM1051 0l-68 443h-609l-256 -443h-151l844 1443h138l232 -1443h-130z" />
    <glyph glyph-name="B" unicode="B" horiz-adv-x="1256" 
d="M644 0h-564l307 1443h496q174 0 279 -87t105 -230q0 -137 -93.5 -241.5t-236.5 -136.5l-1 -4q121 -17 191.5 -98t70.5 -199q0 -198 -153.5 -322.5t-400.5 -124.5zM500 1322l-110 -520h348q167 0 277 84t110 213q0 108 -74.5 165.5t-216.5 57.5h-334zM245 121h397
q182 0 297 89t115 226q0 122 -83.5 185t-234.5 63h-371z" />
    <glyph glyph-name="C" unicode="C" horiz-adv-x="1382" 
d="M1320 976q0 5 -2 17q-10 157 -123 251.5t-288 94.5q-169 0 -305 -96.5t-211.5 -266t-75.5 -379.5q0 -226 120.5 -359.5t324.5 -133.5q160 0 281 81t176 226h139q-62 -200 -223.5 -316.5t-375.5 -116.5q-265 0 -423.5 167t-158.5 446q0 183 55.5 345t152.5 278.5
t234 183.5t293 67q236 0 386.5 -128.5t160.5 -341.5q1 -10 1 -19h-138z" />
    <glyph glyph-name="D" unicode="D" horiz-adv-x="1391" 
d="M387 1443h422q283 0 441 -153.5t158 -423.5q0 -252 -100 -449t-283 -307t-419 -110h-524zM501 1321l-255 -1199h351q195 0 348.5 93.5t238 259.5t84.5 374q0 229 -122.5 350.5t-359.5 121.5h-285z" />
    <glyph glyph-name="E" unicode="E" horiz-adv-x="1102" 
d="M979 124l-26 -124h-873l307 1443h873l-27 -124h-733l-110 -519h696l-27 -122h-695l-118 -554h733z" />
    <glyph glyph-name="F" unicode="F" horiz-adv-x="1059" 
d="M219 0h-139l307 1443h858l-27 -124h-718l-115 -542h659l-26 -122h-659z" />
    <glyph glyph-name="G" unicode="G" horiz-adv-x="1420" 
d="M1432 721l-45 -207q-55 -254 -222.5 -395t-408.5 -141q-268 0 -425 169t-157 444q0 130 29.5 255t91 237t147.5 197t206.5 135t260.5 50q239 0 387.5 -130.5t159.5 -341.5v-10h-138q-14 164 -124 260t-286 96q-142 0 -257.5 -64.5t-187.5 -170.5t-110.5 -237t-38.5 -270
q0 -223 118.5 -358t324.5 -135q187 0 320 112t173 305l17 79h-435l26 121h574z" />
    <glyph glyph-name="H" unicode="H" horiz-adv-x="1394" 
d="M1200 0h-139l144 677h-841l-145 -677h-139l307 1443h139l-136 -642h841l137 642h139z" />
    <glyph glyph-name="I" unicode="I" horiz-adv-x="413" 
d="M219 0h-139l307 1443h139z" />
    <glyph glyph-name="J" unicode="J" horiz-adv-x="996" 
d="M65 318v22h138v-6q0 -104 68.5 -166.5t181.5 -62.5q115 0 190 73.5t105 216.5l222 1048h139l-229 -1083q-39 -183 -153 -283t-288 -100q-163 0 -268.5 97t-105.5 244z" />
    <glyph glyph-name="K" unicode="K" horiz-adv-x="1209" 
d="M219 0h-139l307 1443h139l-158 -743h4l835 743h183l-715 -640l466 -803h-159l-414 718l-241 -210z" />
    <glyph glyph-name="L" unicode="L" horiz-adv-x="1053" 
d="M966 124l-26 -124h-860l307 1443h139l-280 -1319h720z" />
    <glyph glyph-name="M" unicode="M" horiz-adv-x="1667" 
d="M210 0h-130l307 1443h150l267 -1271h4l802 1271h170l-307 -1443h-130l254 1192h-6l-755 -1185h-119l-250 1185h-5z" />
    <glyph glyph-name="N" unicode="N" horiz-adv-x="1400" 
d="M219 0h-139l307 1443h139l581 -1236h4l263 1236h139l-307 -1443h-139l-581 1236h-4z" />
    <glyph glyph-name="O" unicode="O" horiz-adv-x="1491" 
d="M918 1339q-172 0 -310.5 -98t-215.5 -266t-77 -370q0 -230 122.5 -365.5t327.5 -135.5q129 0 242 57.5t191.5 156t124 234t45.5 286.5q0 230 -122.5 365.5t-327.5 135.5zM764 -22q-266 0 -427.5 170t-161.5 451q0 178 56.5 338t154.5 276t237 184t297 68
q265 0 426.5 -170t161.5 -451q0 -178 -56.5 -338t-154 -276t-236.5 -184t-297 -68z" />
    <glyph glyph-name="P" unicode="P" horiz-adv-x="1195" 
d="M389 1443h475q182 0 299 -106.5t117 -278.5q0 -157 -76 -274.5t-207.5 -178.5t-299.5 -61h-361l-116 -544h-140zM502 1321l-140 -655h330q201 0 323.5 101t122.5 279q0 127 -84.5 201t-232.5 74h-319z" />
    <glyph glyph-name="Q" unicode="Q" horiz-adv-x="1491" 
d="M1238 -169h-136l-99 191q-116 -44 -239 -44q-266 0 -427.5 170t-161.5 451q0 178 56.5 338t154.5 276t237 184t297 68q265 0 426.5 -170t161.5 -451q0 -250 -106.5 -456t-288.5 -315zM765 104q92 0 180 31l-135 260h136l108 -207q145 92 229.5 265.5t84.5 384.5
q0 230 -122.5 365.5t-327.5 135.5q-172 0 -310.5 -98t-215.5 -266t-77 -370q0 -230 122.5 -365.5t327.5 -135.5z" />
    <glyph glyph-name="R" unicode="R" horiz-adv-x="1227" 
d="M80 0l309 1443h468q203 0 315 -101.5t112 -273.5q0 -175 -108.5 -300t-296.5 -158l216 -610h-144l-207 591h-12h-386l-126 -591h-140zM502 1321l-130 -607h372q176 0 286.5 95t110.5 246q0 123 -77.5 194.5t-214.5 71.5h-347z" />
    <glyph glyph-name="S" unicode="S" horiz-adv-x="1213" 
d="M105 416h137q13 -141 125 -227.5t288 -86.5q161 0 262.5 75.5t101.5 205.5q0 99 -62 160.5t-204 110.5l-107 37q-183 63 -267.5 152t-84.5 226q0 176 135.5 286t350.5 110q216 0 355 -112.5t143 -297.5h-137q-8 128 -106 207t-257 79q-158 0 -250.5 -76t-92.5 -186
q0 -91 64 -152t209 -111l108 -38q176 -59 261 -148.5t85 -221.5q0 -87 -34.5 -164t-97.5 -136.5t-160.5 -94.5t-216.5 -35q-151 0 -273 52.5t-196.5 153t-78.5 232.5z" />
    <glyph glyph-name="T" unicode="T" horiz-adv-x="1188" 
d="M607 0h-139l280 1319h-482l26 124h1104l-26 -124h-482z" />
    <glyph glyph-name="U" unicode="U" horiz-adv-x="1399" 
d="M682 -22q-230 0 -362 123t-134 316q-1 63 13 135l189 891h139l-187 -884q-15 -69 -13 -134q4 -148 102 -234.5t275 -86.5t301.5 102.5t163.5 281.5l204 955h139l-209 -980q-49 -232 -208 -358.5t-413 -126.5z" />
    <glyph glyph-name="V" unicode="V" horiz-adv-x="1263" 
d="M644 0h-139l-231 1443h132l200 -1261h4l724 1261h154z" />
    <glyph glyph-name="W" unicode="W" horiz-adv-x="1845" 
d="M1118 1212l-605 -1212h-134l-90 1443h129l68 -1225h4l608 1225h129l101 -1224h4l580 1224h145l-698 -1443h-133l-104 1212h-4z" />
    <glyph glyph-name="X" unicode="X" horiz-adv-x="1255" 
d="M-23 0l662 731l-345 712h156l291 -614h5l548 614h177l-660 -731l344 -712h-156l-291 615h-6l-548 -615h-177z" />
    <glyph glyph-name="Y" unicode="Y" 
d="M624 0h-140l132 631l-342 812h145l288 -691h4l574 691h160l-693 -831z" />
    <glyph glyph-name="Z" unicode="Z" horiz-adv-x="1226" 
d="M31 0l21 99l1113 1217v4h-826l27 123h1010l-21 -100l-1111 -1216l-1 -4h865l-26 -123h-1051z" />
    <glyph glyph-name="bracketleft" unicode="[" horiz-adv-x="634" 
d="M451 1443h410l-23 -106h-281l-327 -1537h281l-23 -105h-409z" />
    <glyph glyph-name="backslash" unicode="\" horiz-adv-x="634" 
d="M352 -305l-53 1748h112l53 -1748h-112z" />
    <glyph glyph-name="bracketright" unicode="]" horiz-adv-x="634" 
d="M311 -305h-410l23 106h281l328 1537h-282l23 105h410z" />
    <glyph glyph-name="asciicircum" unicode="^" horiz-adv-x="850" 
d="M640 1303l-339 -493h-131l430 617h141l168 -617h-128l-129 493h-12z" />
    <glyph glyph-name="underscore" unicode="_" horiz-adv-x="1024" 
d="M-112 -211l24 111h1044l-24 -111h-1044z" />
    <glyph glyph-name="grave" unicode="`" horiz-adv-x="1000" 
d="M886 1222h-109l-183 302h136z" />
    <glyph glyph-name="a" unicode="a" horiz-adv-x="1001" 
d="M435 97q126 0 223.5 75t123.5 192l31 141l-310 -17q-140 -8 -216 -62.5t-76 -147.5q0 -82 62 -131.5t162 -49.5zM402 -17q-139 0 -232 79t-93 202q0 149 111.5 234t315.5 96l331 18l16 74q6 26 6 63q0 89 -61.5 140t-172.5 51q-116 0 -191 -53.5t-95 -145.5h-138
q25 142 142.5 229t291.5 87q161 0 259 -80t98 -210q0 -46 -8 -89l-144 -678h-128l33 153h-3q-55 -79 -144.5 -124.5t-193.5 -45.5z" />
    <glyph glyph-name="b" unicode="b" horiz-adv-x="1122" 
d="M595 -17q-133 0 -232.5 76t-120.5 193h-5l-53 -252h-126l307 1443h132l-126 -596h3q51 95 147 152.5t205 57.5q177 0 282 -120.5t105 -330.5q0 -97 -23.5 -189.5t-68.5 -170.5t-107 -137t-144.5 -92.5t-174.5 -33.5zM594 101q111 0 200.5 67.5t138 182.5t48.5 253
q0 157 -75.5 246.5t-209.5 89.5q-113 0 -205.5 -70.5t-144 -189.5t-51.5 -259q0 -142 82.5 -231t216.5 -89z" />
    <glyph glyph-name="c" unicode="c" horiz-adv-x="1021" 
d="M647 1057q184 0 291.5 -101t113.5 -250v-5h-129q-8 104 -82.5 171.5t-194.5 67.5q-171 0 -282.5 -143t-111.5 -361q0 -154 79 -245t209 -91q109 0 191.5 56.5t120.5 153.5h131q-43 -145 -165 -236t-279 -91q-199 0 -311 123.5t-112 324.5q0 175 68 318t190 225.5
t273 82.5z" />
    <glyph glyph-name="d" unicode="d" horiz-adv-x="1131" 
d="M498 -17q-174 0 -279 120.5t-105 316.5q0 132 41.5 250.5t112.5 203t168.5 134t205.5 49.5q132 0 229 -75.5t117 -191.5h5l140 653h133l-307 -1443h-134l41 195h-4q-54 -94 -154 -153t-210 -59zM528 100q175 0 291 150.5t116 368.5q0 143 -79.5 231.5t-212.5 88.5
q-165 0 -280.5 -148t-115.5 -364q0 -150 75.5 -238.5t205.5 -88.5z" />
    <glyph glyph-name="e" unicode="e" horiz-adv-x="1047" 
d="M270 599h636q3 16 3 49q0 128 -71 210.5t-204 82.5q-135 0 -233 -95.5t-131 -246.5zM534 -19q-199 0 -309.5 122.5t-110.5 323.5q0 174 66.5 318t186.5 228t269 84q188 0 297.5 -114.5t109.5 -311.5q0 -81 -11 -139h-779q-4 -31 -4 -60q0 -154 78 -243.5t210 -89.5
q115 0 198.5 56t122.5 155h131q-43 -146 -167 -237.5t-288 -91.5z" />
    <glyph glyph-name="f" unicode="f" horiz-adv-x="584" 
d="M121 0l194 929h-169l24 111h168l24 118q28 145 110.5 214.5t226.5 69.5q59 0 116 -12l-23 -111q-40 11 -91 11q-171 0 -206 -177l-23 -113h244l-24 -111h-243l-195 -929h-133z" />
    <glyph glyph-name="g" unicode="g" horiz-adv-x="1121" 
d="M459 -385q-177 0 -294.5 85.5t-117.5 211.5h136q9 -80 85 -131.5t193 -51.5q142 0 235.5 77t128.5 223l41 182h-4q-52 -96 -150 -153.5t-208 -57.5q-177 0 -283 118t-106 316q0 120 37.5 232t103.5 199t167 139.5t219 52.5q133 0 227 -76t115 -195h5l52 254h131
l-214 -1010q-43 -201 -174.5 -308t-324.5 -107zM532 117q117 0 209.5 68.5t142 182.5t49.5 252q0 142 -81.5 230.5t-208.5 88.5q-113 0 -204 -67t-141.5 -181.5t-50.5 -252.5q0 -147 75 -234t210 -87z" />
    <glyph glyph-name="h" unicode="h" horiz-adv-x="1087" 
d="M58 0l308 1443h134l-125 -583h4q52 87 144 142t210 55q149 0 243 -91t94 -223q0 -51 -12 -113l-138 -630h-132l132 606q12 57 12 101q0 105 -68 168.5t-184 63.5q-131 0 -228 -86.5t-125 -221.5l-135 -631h-134z" />
    <glyph glyph-name="i" unicode="i" horiz-adv-x="373" 
d="M62 0l221 1040h134l-221 -1040h-134zM409 1230q-37 0 -63 25.5t-26 62.5t26 62.5t63 25.5q36 0 62 -25.5t26 -62.5t-26 -62.5t-62 -25.5z" />
    <glyph glyph-name="j" unicode="j" horiz-adv-x="373" 
d="M416 1230q-37 0 -63 25.5t-26 62.5t26 62.5t63 25.5q36 0 62 -25.5t26 -62.5t-26 -62.5t-62 -25.5zM418 1040l-241 -1129q-30 -139 -107 -202t-210 -64q-40 0 -75 4l26 115q30 -3 52 -3q80 0 122 38.5t61 128.5l238 1112h134z" />
    <glyph glyph-name="k" unicode="k" horiz-adv-x="928" 
d="M192 0h-134l307 1443h134l-187 -879h4l601 476h174l-545 -436l342 -604h-149l-300 529l-160 -124z" />
    <glyph glyph-name="l" unicode="l" horiz-adv-x="380" 
d="M66 0l307 1443h134l-307 -1443h-134z" />
    <glyph glyph-name="m" unicode="m" horiz-adv-x="1619" 
d="M56 0l221 1040h127l-38 -181h4q43 88 125.5 143t182.5 55q112 0 189 -62t92 -151h4q49 92 139.5 152.5t209.5 60.5q128 0 211.5 -80t83.5 -205q0 -62 -12 -121l-138 -651h-134l134 628q12 55 12 108q0 88 -56 145.5t-150 57.5q-106 0 -190 -78.5t-112 -211.5l-139 -649
h-133l134 628q13 60 13 108q0 88 -56.5 145.5t-151.5 57.5q-104 0 -188.5 -80t-111.5 -206l-139 -653h-133z" />
    <glyph glyph-name="n" unicode="n" horiz-adv-x="1074" 
d="M56 0l221 1040h127l-39 -182h4q57 93 148 146t207 53q145 0 240 -87t95 -220q0 -52 -13 -120l-135 -630h-133l129 606q14 64 14 108q0 103 -67.5 164t-181.5 61q-127 0 -223 -85.5t-125 -222.5l-135 -631h-133z" />
    <glyph glyph-name="o" unicode="o" horiz-adv-x="1089" 
d="M547 100q171 0 285 144t114 359q0 153 -80.5 245t-215.5 92q-172 0 -286 -144t-114 -359q0 -153 80.5 -245t216.5 -92zM650 1057q196 0 313 -123t117 -327q0 -174 -69.5 -317t-192 -225t-271.5 -82q-196 0 -313.5 123t-117.5 327q0 174 69.5 317t192 225t272.5 82z" />
    <glyph glyph-name="p" unicode="p" horiz-adv-x="1120" 
d="M589 101q166 0 279 143.5t113 357.5q0 158 -75 248t-208 90q-116 0 -209 -72t-143.5 -190.5t-50.5 -256.5q0 -143 80.5 -231.5t213.5 -88.5zM113 -345h-131l295 1385h130l-42 -197h4q54 97 151.5 155.5t207.5 58.5q176 0 279.5 -121.5t103.5 -325.5q0 -176 -68 -320
t-187 -225.5t-265 -81.5q-131 0 -227.5 74t-120.5 190h-5z" />
    <glyph glyph-name="q" unicode="q" horiz-adv-x="1123" 
d="M527 100q174 0 291 149t117 370q0 144 -79 232t-213 88q-108 0 -199.5 -68t-144 -186t-52.5 -258q0 -150 75 -238.5t205 -88.5zM879 -345h-130l119 545h-4q-55 -97 -155 -157t-211 -60q-175 0 -279.5 119.5t-104.5 319.5q0 130 41.5 247.5t112 202.5t168.5 135t206 50
q133 0 229.5 -76t116.5 -192h5l53 251h128z" />
    <glyph glyph-name="r" unicode="r" horiz-adv-x="665" 
d="M56 0l221 1040h126l-33 -156h4q108 171 295 171q78 0 126 -25l-29 -127q-44 25 -131 25q-124 0 -204 -81.5t-113 -233.5l-130 -613h-132z" />
    <glyph glyph-name="s" unicode="s" horiz-adv-x="937" 
d="M202 759q0 130 104.5 214t270.5 84q163 0 267.5 -87t109.5 -225h-127q-9 89 -78.5 145.5t-173.5 56.5q-108 0 -175.5 -50t-67.5 -127q0 -61 42.5 -100t146.5 -73l90 -29q141 -46 202 -109.5t61 -164.5q0 -136 -110.5 -223.5t-281.5 -87.5q-177 0 -291 89.5t-122 229.5
h133q14 -94 90.5 -151.5t195.5 -57.5q110 0 181.5 55.5t71.5 138.5q0 61 -40.5 96t-150.5 71l-90 30q-136 44 -197 109t-61 166z" />
    <glyph glyph-name="t" unicode="t" horiz-adv-x="581" 
d="M400 -6q-109 0 -175 51t-66 146q0 37 11 89l138 649h-152l23 111h153l55 266h134l-57 -266h224l-23 -111h-224l-130 -613q-12 -51 -12 -88q0 -59 38.5 -88.5t107.5 -29.5q44 0 68 3l-24 -112q-42 -7 -89 -7z" />
    <glyph glyph-name="u" unicode="u" horiz-adv-x="1073" 
d="M1125 1040l-221 -1040h-127l38 171h-4q-48 -79 -145 -133.5t-214 -54.5q-148 0 -238 84.5t-90 212.5q0 61 14 133l132 627h134l-129 -606q-14 -67 -14 -114q0 -107 61.5 -163t177.5 -56q133 0 231.5 87t126.5 221l135 631h132z" />
    <glyph glyph-name="v" unicode="v" horiz-adv-x="940" 
d="M178 1040h132l132 -892h4l500 892h147l-601 -1040h-148z" />
    <glyph glyph-name="w" unicode="w" horiz-adv-x="1427" 
d="M1573 1040l-513 -1040h-142l-72 865h-4l-433 -865h-147l-74 1040h121l57 -888h3l438 888h137l69 -888h4l423 888h133z" />
    <glyph glyph-name="x" unicode="x" horiz-adv-x="927" 
d="M504 417h-4l-369 -417h-158l473 530l-254 510h139l205 -418h4l370 418h158l-474 -531l255 -509h-140z" />
    <glyph glyph-name="y" unicode="y" horiz-adv-x="941" 
d="M89 -369q-54 0 -97 13l20 112q39 -13 80 -13q124 0 218 179l41 76l-173 1042h132l138 -896h4l494 896h147l-663 -1160q-81 -143 -158.5 -196t-182.5 -53z" />
    <glyph glyph-name="z" unicode="z" horiz-adv-x="947" 
d="M19 0l22 99l796 826l1 4h-620l25 111h789l-23 -101l-793 -824l-1 -4h620l-24 -111h-792z" />
    <glyph glyph-name="braceleft" unicode="{" horiz-adv-x="634" 
d="M245 273q11 55 11 90q0 73 -43.5 99t-141.5 28l34 157q121 0 179.5 45.5t84.5 164.5l59 274q37 171 127 241.5t255 70.5h51l-23 -109h-45q-110 0 -164 -51t-82 -180l-62 -292q-25 -117 -90.5 -170.5t-182.5 -65.5l-3 -16q94 -17 136.5 -56.5t42.5 -112.5q0 -33 -12 -93
l-53 -245q-12 -60 -12 -99q0 -153 162 -153h38l-22 -106h-42q-52 0 -97 12t-84 38t-61.5 74t-22.5 113q0 53 13 112z" />
    <glyph glyph-name="bar" unicode="|" horiz-adv-x="634" 
d="M252 -305h-114l373 1748h113z" />
    <glyph glyph-name="braceright" unicode="}" horiz-adv-x="634" 
d="M518 864q-11 -55 -11 -89q0 -73 43.5 -99t141.5 -28l-34 -157q-121 0 -179.5 -45.5t-84.5 -165.5l-59 -274q-37 -171 -127 -241t-256 -70h-50l23 109h44q110 0 164.5 51t82.5 179l62 292q25 118 90.5 171.5t181.5 64.5l4 17q-95 17 -137 56.5t-42 112.5q0 33 12 93
l52 245q13 57 13 99q0 153 -162 153h-39l23 105h42q52 0 97 -12t84 -38t61.5 -73.5t22.5 -112.5q0 -45 -13 -112z" />
    <glyph glyph-name="asciitilde" unicode="~" horiz-adv-x="1220" 
d="M865 454q-52 0 -97.5 24t-77 58t-60 67.5t-60 57.5t-64.5 24q-120 0 -153 -188h-130q17 143 97 227t191 84q52 0 96.5 -24t76 -58t60 -67.5t60 -57.5t64.5 -24q120 0 153 188h130q-18 -145 -97 -228t-189 -83z" />
    <glyph glyph-name="nonbreakingspace" unicode="&#xa0;" horiz-adv-x="495" 
 />
    <glyph glyph-name="exclamdown" unicode="&#xa1;" horiz-adv-x="533" 
d="M215 -340h-152l221 986h129zM426 1113q39 0 66 -27.5t27 -66.5t-27 -66t-66 -27t-66.5 27t-27.5 66t27.5 66.5t66.5 27.5z" />
    <glyph glyph-name="cent" unicode="&#xa2;" 
d="M1121 471q-34 -134 -152 -217.5t-283 -90.5l-41 -192h-131l43 204q-149 32 -236 148.5t-87 288.5q0 184 70.5 334.5t195.5 238.5t280 94l36 167h131l-39 -180q119 -24 199.5 -102t99.5 -188q3 -30 3 -32h-133q-12 96 -91.5 156.5t-194.5 60.5q-178 0 -298.5 -153
t-120.5 -378q0 -160 81.5 -253.5t220.5 -93.5q111 0 194 50t117 138h136z" />
    <glyph glyph-name="sterling" unicode="&#xa3;" 
d="M1124 118l-26 -118h-1063l25 116q172 25 289 153t117 303q0 36 -6 93h-298l23 112h264q-17 196 -17 214q0 231 142.5 354.5t392.5 123.5q92 0 187 -20t160 -53l-24 -123q-57 33 -147.5 53.5t-179.5 20.5q-178 0 -283 -88.5t-105 -245.5q0 -22 18 -236h438l-23 -112h-408
q4 -43 4 -77q0 -172 -72 -292t-186 -174l-1 -4h779z" />
    <glyph glyph-name="currency" unicode="&#xa4;" 
d="M409 656q0 -117 86 -201.5t200 -84.5q118 0 202 84t84 202t-84 202t-202 84t-202 -84t-84 -202zM1257 1050l-233 -192q57 -93 57 -202q0 -151 -104 -263l108 -137l-95 -75l-108 138q-89 -49 -187 -49q-148 0 -260 102l-239 -197l-67 85l236 196q-56 94 -56 200
q0 149 102 261l-110 139l95 76l110 -140q88 50 189 50q148 0 259 -101l235 195z" />
    <glyph glyph-name="yen" unicode="&#xa5;" 
d="M990 310h-301l-65 -310h-140l66 310h-305l22 105h305l39 184h-305l23 106h260l-315 738h143l293 -681h7l569 681h159l-619 -738h248l-23 -106h-302l-39 -184h302z" />
    <glyph glyph-name="brokenbar" unicode="&#xa6;" horiz-adv-x="634" 
d="M481 775h-113l143 668h113zM252 -305h-113l142 669h113z" />
    <glyph glyph-name="section" unicode="&#xa7;" horiz-adv-x="975" 
d="M464 398l113 -43q112 14 181.5 75.5t69.5 150.5q0 61 -37 106t-125 77l-96 35q-116 -6 -194.5 -70t-78.5 -154q0 -115 167 -177zM428 -250q-163 0 -276.5 84t-122.5 215h135q17 -83 90.5 -135t180.5 -52q116 0 190 55t74 141q0 59 -37.5 101.5t-126.5 75.5l-130 48
q-240 88 -240 279q0 116 83 194t199 98l1 5q-82 44 -118 98.5t-36 132.5q0 135 106.5 220t270.5 85q156 0 258.5 -79t118.5 -205h-130q-13 76 -82.5 124t-167.5 48q-104 0 -173 -52.5t-69 -132.5q0 -57 40 -97.5t127 -73.5l116 -43q131 -49 192.5 -114t61.5 -166
q0 -116 -78 -196.5t-194 -106.5l-1 -4q79 -48 111.5 -102t32.5 -131q0 -137 -114.5 -225.5t-291.5 -88.5z" />
    <glyph glyph-name="dieresis" unicode="&#xa8;" horiz-adv-x="1000" 
d="M554 1227q-37 0 -64 27t-27 64q0 38 27 64.5t64 26.5q38 0 65 -26.5t27 -64.5q0 -37 -27 -64t-65 -27zM895 1227q-38 0 -65 27t-27 64q0 38 27 64.5t65 26.5t64.5 -26.5t26.5 -64.5t-27 -64.5t-64 -26.5z" />
    <glyph glyph-name="copyright" unicode="&#xa9;" horiz-adv-x="1683" 
d="M901 -158q-168 0 -311 54.5t-243 152t-156.5 236t-56.5 301.5q0 172 62 324.5t168.5 262t255 173.5t314.5 64q341 0 554 -207t213 -538q0 -171 -62 -324t-168.5 -262t-255 -173t-314.5 -64zM901 -49q144 0 272 55.5t220 150t145.5 227t53.5 280.5q0 286 -181 461.5
t-477 175.5q-192 0 -350.5 -94t-249.5 -258t-91 -362q0 -284 182 -460t476 -176zM1291 786h-103q-7 79 -71 129.5t-157 50.5q-134 0 -224 -111.5t-90 -277.5q0 -125 67.5 -200.5t178.5 -75.5q81 0 139.5 37t86.5 105h106q-31 -108 -122 -171.5t-217 -63.5q-154 0 -249 99
t-95 258q0 211 122 352t305 141q137 0 226 -75t97 -197z" />
    <glyph glyph-name="ordfeminine" unicode="&#xaa;" horiz-adv-x="742" 
d="M507 1056q-91 -1 -140 -37.5t-49 -94.5q0 -55 47 -84.5t111 -29.5q82 0 144.5 47t79.5 121l18 83zM203 910q0 100 75.5 162.5t219.5 64.5l236 5l10 52q6 26 6 40q0 57 -44 90.5t-118 33.5q-65 0 -112.5 -30.5t-65.5 -83.5h-110q22 95 103 151.5t193 56.5q121 0 195 -57
t74 -150q0 -25 -6 -54l-98 -465h-111l23 112l-2 1q-37 -53 -101.5 -85t-136.5 -32q-92 0 -161 48.5t-69 139.5z" />
    <glyph glyph-name="guillemotleft" unicode="&#xab;" horiz-adv-x="1218" 
d="M628 149h-148l-277 411l3 17l425 406h163l-436 -418l-1 -11zM1026 152h-148l-273 395l2 16l439 420h163l-450 -432v-11z" />
    <glyph glyph-name="logicalnot" unicode="&#xac;" 
d="M1173 677l-113 -532h-115l90 418h-840l24 114h954z" />
    <glyph glyph-name="registered" unicode="&#xae;" horiz-adv-x="1146" 
d="M596 854h-77l96 449h195q60 0 98.5 -35t38.5 -87q0 -56 -38 -97.5t-97 -50.5l88 -179h-94l-79 170h-95zM677 1237l-32 -152h112q48 0 77.5 24.5t29.5 62.5q0 30 -20 47.5t-54 17.5h-113zM737 617q-190 0 -322 129.5t-132 316.5q0 191 133 322.5t326 131.5
q192 0 323.5 -128.5t131.5 -316.5q0 -192 -133 -323.5t-327 -131.5zM737 697q157 0 265 108.5t108 266.5q0 154 -106.5 260t-261.5 106q-157 0 -264.5 -108t-107.5 -267q0 -153 107 -259.5t260 -106.5z" />
    <glyph glyph-name="macron" unicode="&#xaf;" horiz-adv-x="1018" 
d="M1031 1381l-19 -92h-550l19 92h550z" />
    <glyph glyph-name="degree" unicode="&#xb0;" horiz-adv-x="730" 
d="M559 905q-115 0 -196 81t-81 196q0 116 81 197t196 81t196 -81.5t81 -196.5t-81 -196t-196 -81zM559 1006q74 0 126 52t52 124q0 74 -52 125.5t-126 51.5q-72 0 -125 -52t-53 -125q0 -72 53 -124t125 -52z" />
    <glyph glyph-name="plusminus" unicode="&#xb1;" 
d="M1056 112h-960l24 114h960zM754 671l-68 -317h-117l67 317h-421l22 105h422l66 309h118l-67 -309h422l-23 -105h-421z" />
    <glyph glyph-name="two.sups" unicode="&#xb2;" horiz-adv-x="595" 
d="M337 1612q10 93 82 152t176 59q95 0 158.5 -51.5t63.5 -128.5q0 -63 -42.5 -116.5t-164.5 -151.5l-174 -142v-3h316l-20 -98h-485l19 89l266 216q100 80 131.5 117.5t31.5 77.5q0 42 -31 68.5t-80 26.5q-50 0 -86.5 -31t-46.5 -82v-2h-114z" />
    <glyph glyph-name="three.sups" unicode="&#xb3;" horiz-adv-x="609" 
d="M460 1436l19 90h89q61 0 99 30t38 78q0 42 -32 68t-83 26q-45 0 -80.5 -24.5t-47.5 -65.5h-114q18 85 86.5 135t165.5 50q98 0 161 -49.5t63 -125.5q0 -65 -46 -113t-117 -59l-1 -3q56 -12 89 -51.5t33 -94.5q0 -91 -75.5 -150t-191.5 -59q-109 0 -178.5 53.5
t-69.5 137.5q0 11 3 30h116q-1 -4 -1 -8q-4 -49 33.5 -81.5t97.5 -32.5q63 0 103 34t40 87q0 44 -34 71t-90 27h-75z" />
    <glyph glyph-name="acute" unicode="&#xb4;" horiz-adv-x="1000" 
d="M637 1222h-127l286 302h152z" />
    <glyph glyph-name="mugreek" unicode="&#xb5;" horiz-adv-x="1171" 
d="M-1 -345l294 1385h133l-126 -592q-17 -83 -17 -125q0 -106 57 -161t167 -55q128 0 234 97.5t136 242.5l126 593h132l-168 -797q-8 -34 -8 -63q0 -36 21.5 -52.5t70.5 -16.5q31 0 56 6l-24 -111q-36 -10 -83 -10q-88 0 -129.5 39t-39.5 121q0 21 6 42h-3
q-53 -96 -152 -152.5t-209 -56.5q-85 0 -151 45t-83 117h-5l-105 -496h-130z" />
    <glyph glyph-name="mugreek" unicode="&#x3bc;" horiz-adv-x="1171" 
d="M-1 -345l294 1385h133l-126 -592q-17 -83 -17 -125q0 -106 57 -161t167 -55q128 0 234 97.5t136 242.5l126 593h132l-168 -797q-8 -34 -8 -63q0 -36 21.5 -52.5t70.5 -16.5q31 0 56 6l-24 -111q-36 -10 -83 -10q-88 0 -129.5 39t-39.5 121q0 21 6 42h-3
q-53 -96 -152 -152.5t-209 -56.5q-85 0 -151 45t-83 117h-5l-105 -496h-130z" />
    <glyph glyph-name="paragraph" unicode="&#xb6;" horiz-adv-x="1209" 
d="M686 -195h-136l163 769q-183 6 -297.5 112.5t-114.5 268.5q0 143 73.5 255t201 172.5t287.5 60.5h172zM845 -195l349 1638h136l-348 -1638h-137z" />
    <glyph glyph-name="periodcentered" unicode="&#xb7;" horiz-adv-x="518" 
d="M312 425q-40 0 -67.5 27.5t-27.5 67.5t27.5 67.5t67.5 27.5t67.5 -27.5t27.5 -67.5t-27.5 -67.5t-67.5 -27.5z" />
    <glyph glyph-name="cedilla" unicode="&#xb8;" horiz-adv-x="1000" 
d="M273 -213l14 59l95 164h102l-1 -10l-84 -140q89 -1 138 -39.5t49 -108.5q0 -85 -64 -136.5t-168 -51.5q-100 0 -173 33l19 90q68 -30 145 -30q63 0 99 22.5t36 64.5q0 78 -151 82z" />
    <glyph glyph-name="one.sups" unicode="&#xb9;" horiz-adv-x="458" 
d="M403 1132l118 560h-3q-7 -4 -99.5 -59t-99.5 -59l25 116q10 6 99 59t103 61h124l-144 -678h-123z" />
    <glyph glyph-name="ordmasculine" unicode="&#xba;" horiz-adv-x="767" 
d="M522 716q-140 0 -224.5 81.5t-84.5 217.5q0 187 108.5 313t270.5 126q140 0 224.5 -82t84.5 -219q0 -187 -108.5 -312t-270.5 -125zM785 1150q0 96 -53 152t-143 56q-110 0 -185 -97t-75 -242q0 -96 53.5 -152t143.5 -56q110 0 184.5 97.5t74.5 241.5z" />
    <glyph glyph-name="guillemotright" unicode="&#xbb;" horiz-adv-x="1218" 
d="M717 983h147l277 -412l-2 -16l-426 -406h-163l436 418l1 11zM319 980h147l274 -395l-3 -16l-439 -420h-163l450 432l1 11z" />
    <glyph glyph-name="onequarter" unicode="&#xbc;" horiz-adv-x="1407" 
d="M325 765l118 560h-3q-7 -4 -99.5 -59t-99.5 -59l25 116q10 6 99 59t103 61h124l-144 -678h-123zM155 0h-147l714 752l657 691h145l-701 -739zM1103 0l28 130h-340l21 110q112 148 374 438h179l-96 -449h93l-21 -99h-93l-28 -130h-117zM923 228v-3h231l76 358h-3
q-175 -188 -304 -355z" />
    <glyph glyph-name="onehalf" unicode="&#xbd;" horiz-adv-x="1443" 
d="M325 765l118 560h-3q-7 -4 -99.5 -59t-99.5 -59l25 116q10 6 99 59t103 61h124l-144 -678h-123zM155 0h-147l714 752l657 691h145l-701 -739zM944 480q10 93 82 152t176 59q95 0 158.5 -51.5t63.5 -128.5q0 -63 -42.5 -116.5t-164.5 -151.5l-174 -142v-3h316l-20 -98
h-485l19 89l266 216q100 80 131.5 117.5t31.5 77.5q0 42 -31 68.5t-80 26.5q-50 0 -86.5 -31t-46.5 -82v-2h-114z" />
    <glyph glyph-name="threequarters" unicode="&#xbe;" horiz-adv-x="1525" 
d="M382 1069l19 90h89q61 0 99 30t38 78q0 42 -32 68t-83 26q-45 0 -80.5 -24.5t-47.5 -65.5h-114q18 85 86.5 135t165.5 50q98 0 161 -49.5t63 -125.5q0 -65 -46 -113t-117 -59l-1 -3q56 -12 89 -51.5t33 -94.5q0 -91 -75.5 -150t-191.5 -59q-109 0 -178.5 53.5
t-69.5 137.5q0 10 3 30h116q-1 -4 -1 -8q-4 -49 33.5 -81.5t97.5 -32.5q63 0 103 34t40 87q0 44 -34 71t-90 27h-75zM273 0h-147l714 752l657 691h145l-701 -739zM1221 0l28 130h-340l21 110q112 148 374 438h179l-96 -449h93l-21 -99h-93l-28 -130h-117zM1041 228v-3h231
l76 358h-3q-175 -188 -304 -355z" />
    <glyph glyph-name="questiondown" unicode="&#xbf;" horiz-adv-x="945" 
d="M845 3q-34 -164 -151 -260t-296 -96q-175 0 -284.5 95t-109.5 233q0 128 79 231t213 159q108 46 156.5 97.5t64.5 135.5l15 77h137l-20 -93q-26 -119 -85.5 -183.5t-179.5 -116.5q-235 -101 -235 -293q0 -94 68.5 -158t189.5 -64q113 0 193.5 63t112.5 173h132zM662 1115
q39 0 66.5 -27t27.5 -67q0 -39 -27.5 -66t-66.5 -27t-66 27t-27 66q0 40 27 67t66 27z" />
    <glyph glyph-name="Agrave" unicode="&#xc0;" horiz-adv-x="1261" 
d="M848 1274l-408 -714h525l-113 714h-4zM1051 0l-68 443h-609l-256 -443h-151l844 1443h138l232 -1443h-130zM832 1558l-192 288h140l164 -288h-112z" />
    <glyph glyph-name="Aacute" unicode="&#xc1;" horiz-adv-x="1261" 
d="M848 1274l-408 -714h525l-113 714h-4zM1051 0l-68 443h-609l-256 -443h-151l844 1443h138l232 -1443h-130zM965 1558h-129l304 288h158z" />
    <glyph glyph-name="Acircumflex" unicode="&#xc2;" horiz-adv-x="1261" 
d="M848 1274l-408 -714h525l-113 714h-4zM1051 0l-68 443h-609l-256 -443h-151l844 1443h138l232 -1443h-130zM1006 1852l212 -294h-121l-148 210h-5l-238 -210h-140l337 294h103z" />
    <glyph glyph-name="Atilde" unicode="&#xc3;" horiz-adv-x="1261" 
d="M848 1274l-408 -714h525l-113 714h-4zM1051 0l-68 443h-609l-256 -443h-151l844 1443h138l232 -1443h-130zM1047 1549q-37 0 -67.5 16t-51 39.5t-39.5 46.5t-41 39t-47 16q-39 0 -70.5 -38.5t-43.5 -108.5h-93q19 111 77 174t137 63q38 0 69.5 -16t52.5 -39t39.5 -46.5
t40 -39.5t44.5 -16q37 0 67 38t45 109h93q-22 -111 -79 -174t-133 -63z" />
    <glyph glyph-name="Adieresis" unicode="&#xc4;" horiz-adv-x="1261" 
d="M848 1274l-408 -714h525l-113 714h-4zM1051 0l-68 443h-609l-256 -443h-151l844 1443h138l232 -1443h-130zM759 1612q-37 0 -64 27t-27 64q0 38 27 64.5t64 26.5q38 0 65 -26.5t27 -64.5q0 -37 -27 -64t-65 -27zM1100 1612q-38 0 -65 27t-27 64q0 38 27 64.5t65 26.5
t64.5 -26.5t26.5 -64.5q0 -37 -26.5 -64t-64.5 -27z" />
    <glyph glyph-name="Aring" unicode="&#xc5;" horiz-adv-x="1261" 
d="M848 1274l-408 -714h525l-113 714h-4zM1051 0l-68 443h-609l-256 -443h-151l844 1443h138l232 -1443h-130zM934 1559q-75 0 -127.5 49t-52.5 127q0 81 53.5 134.5t131.5 53.5q77 0 129 -48.5t51 -127.5q-1 -82 -53.5 -135t-131.5 -53zM934 1629q50 0 81.5 32.5t30.5 83.5
q-1 48 -30.5 78t-76.5 30q-49 0 -80.5 -32t-31.5 -84q0 -48 30.5 -78t76.5 -30z" />
    <glyph glyph-name="AE" unicode="&#xc6;" horiz-adv-x="1857" 
d="M1172 1327h-161l-527 -766h525zM889 0l95 443h-578l-301 -443h-149l985 1443h1067l-27 -124h-672l-111 -526h635l-26 -122h-636l-116 -547h672l-26 -124h-812z" />
    <glyph glyph-name="Ccedilla" unicode="&#xc7;" horiz-adv-x="1382" 
d="M1458 976h-138q0 5 -2 17q-10 157 -123 251.5t-288 94.5q-169 0 -305 -96.5t-211.5 -266t-75.5 -379.5q0 -226 120.5 -359.5t324.5 -133.5q160 0 281 81t176 226h139q-60 -193 -214 -309t-360 -124l-71 -118q89 -1 138 -39.5t49 -108.5q0 -85 -64 -136.5t-168 -51.5
q-100 0 -173 33l19 90q68 -30 145 -30q63 0 99 22.5t36 64.5q0 78 -151 82l-56 1l14 59l79 136q-232 26 -367.5 189t-135.5 420q0 183 55.5 345t152.5 278.5t234 183.5t293 67q236 0 386.5 -128.5t160.5 -341.5q1 -10 1 -19z" />
    <glyph glyph-name="Egrave" unicode="&#xc8;" horiz-adv-x="1102" 
d="M979 124l-26 -124h-873l307 1443h873l-27 -124h-733l-110 -519h696l-27 -122h-695l-118 -554h733zM779 1558l-192 288h140l164 -288h-112z" />
    <glyph glyph-name="Eacute" unicode="&#xc9;" horiz-adv-x="1102" 
d="M979 124l-26 -124h-873l307 1443h873l-27 -124h-733l-110 -519h696l-27 -122h-695l-118 -554h733zM912 1558h-129l304 288h158z" />
    <glyph glyph-name="Ecircumflex" unicode="&#xca;" horiz-adv-x="1102" 
d="M979 124l-26 -124h-873l307 1443h873l-27 -124h-733l-110 -519h696l-27 -122h-695l-118 -554h733zM952 1852l212 -294h-121l-148 210h-5l-238 -210h-140l337 294h103z" />
    <glyph glyph-name="Edieresis" unicode="&#xcb;" horiz-adv-x="1102" 
d="M979 124l-26 -124h-873l307 1443h873l-27 -124h-733l-110 -519h696l-27 -122h-695l-118 -554h733zM705 1612q-37 0 -64 27t-27 64q0 38 27 64.5t64 26.5q38 0 65 -26.5t27 -64.5q0 -37 -27 -64t-65 -27zM1046 1612q-38 0 -65 27t-27 64q0 38 27 64.5t65 26.5t64.5 -26.5
t26.5 -64.5q0 -37 -26.5 -64t-64.5 -27z" />
    <glyph glyph-name="Igrave" unicode="&#xcc;" horiz-adv-x="413" 
d="M219 0h-139l307 1443h139zM412 1558l-192 288h140l164 -288h-112z" />
    <glyph glyph-name="Iacute" unicode="&#xcd;" horiz-adv-x="413" 
d="M219 0h-139l307 1443h139zM546 1558h-129l304 288h158z" />
    <glyph glyph-name="Icircumflex" unicode="&#xce;" horiz-adv-x="413" 
d="M219 0h-139l307 1443h139zM586 1852l212 -294h-121l-148 210h-5l-238 -210h-140l337 294h103z" />
    <glyph glyph-name="Idieresis" unicode="&#xcf;" horiz-adv-x="413" 
d="M219 0h-139l307 1443h139zM339 1612q-37 0 -64 27t-27 64q0 38 27 64.5t64 26.5q38 0 65 -26.5t27 -64.5q0 -37 -27 -64t-65 -27zM680 1612q-38 0 -65 27t-27 64q0 38 27 64.5t65 26.5t64.5 -26.5t26.5 -64.5q0 -37 -26.5 -64t-64.5 -27z" />
    <glyph glyph-name="Eth" unicode="&#xd0;" horiz-adv-x="1391" 
d="M246 122h351q195 0 348.5 93.5t238 259.5t84.5 374q0 229 -122.5 350.5t-359.5 121.5h-285l-111 -522h366l-26 -124h-366zM387 1443h422q283 0 441 -153.5t158 -423.5q0 -252 -100 -449t-283 -307t-419 -110h-524l143 675h-139l27 124h138z" />
    <glyph glyph-name="Ntilde" unicode="&#xd1;" horiz-adv-x="1400" 
d="M219 0h-139l307 1443h139l581 -1236h4l263 1236h139l-307 -1443h-139l-581 1236h-4zM1125 1549q-37 0 -67.5 16t-51 39.5t-39.5 46.5t-41 39t-47 16q-39 0 -70.5 -38.5t-43.5 -108.5h-93q19 111 77 174t137 63q38 0 69.5 -16t52.5 -39t39.5 -46.5t40 -39.5t44.5 -16
q37 0 67 38t45 109h93q-22 -111 -79 -174t-133 -63z" />
    <glyph glyph-name="Ograve" unicode="&#xd2;" horiz-adv-x="1491" 
d="M918 1339q-172 0 -310.5 -98t-215.5 -266t-77 -370q0 -230 122.5 -365.5t327.5 -135.5q129 0 242 57.5t191.5 156t124 234t45.5 286.5q0 230 -122.5 365.5t-327.5 135.5zM764 -22q-266 0 -427.5 170t-161.5 451q0 178 56.5 338t154.5 276t237 184t297 68
q265 0 426.5 -170t161.5 -451q0 -178 -56.5 -338t-154 -276t-236.5 -184t-297 -68zM888 1558l-192 288h140l164 -288h-112z" />
    <glyph glyph-name="Oacute" unicode="&#xd3;" horiz-adv-x="1491" 
d="M918 1339q-172 0 -310.5 -98t-215.5 -266t-77 -370q0 -230 122.5 -365.5t327.5 -135.5q129 0 242 57.5t191.5 156t124 234t45.5 286.5q0 230 -122.5 365.5t-327.5 135.5zM764 -22q-266 0 -427.5 170t-161.5 451q0 178 56.5 338t154.5 276t237 184t297 68
q265 0 426.5 -170t161.5 -451q0 -178 -56.5 -338t-154 -276t-236.5 -184t-297 -68zM1021 1558h-129l304 288h158z" />
    <glyph glyph-name="Ocircumflex" unicode="&#xd4;" horiz-adv-x="1491" 
d="M918 1339q-172 0 -310.5 -98t-215.5 -266t-77 -370q0 -230 122.5 -365.5t327.5 -135.5q129 0 242 57.5t191.5 156t124 234t45.5 286.5q0 230 -122.5 365.5t-327.5 135.5zM764 -22q-266 0 -427.5 170t-161.5 451q0 178 56.5 338t154.5 276t237 184t297 68
q265 0 426.5 -170t161.5 -451q0 -178 -56.5 -338t-154 -276t-236.5 -184t-297 -68zM1062 1852l212 -294h-121l-148 210h-5l-238 -210h-140l337 294h103z" />
    <glyph glyph-name="Otilde" unicode="&#xd5;" horiz-adv-x="1491" 
d="M918 1339q-172 0 -310.5 -98t-215.5 -266t-77 -370q0 -230 122.5 -365.5t327.5 -135.5q129 0 242 57.5t191.5 156t124 234t45.5 286.5q0 230 -122.5 365.5t-327.5 135.5zM764 -22q-266 0 -427.5 170t-161.5 451q0 178 56.5 338t154.5 276t237 184t297 68
q265 0 426.5 -170t161.5 -451q0 -178 -56.5 -338t-154 -276t-236.5 -184t-297 -68zM1103 1549q-37 0 -67.5 16t-51 39.5t-39.5 46.5t-41 39t-47 16q-39 0 -70.5 -38.5t-43.5 -108.5h-93q19 111 77 174t137 63q38 0 69.5 -16t52.5 -39t39.5 -46.5t40 -39.5t44.5 -16
q37 0 67 38t45 109h93q-22 -111 -79 -174t-133 -63z" />
    <glyph glyph-name="Odieresis" unicode="&#xd6;" horiz-adv-x="1491" 
d="M918 1339q-172 0 -310.5 -98t-215.5 -266t-77 -370q0 -230 122.5 -365.5t327.5 -135.5q129 0 242 57.5t191.5 156t124 234t45.5 286.5q0 230 -122.5 365.5t-327.5 135.5zM764 -22q-266 0 -427.5 170t-161.5 451q0 178 56.5 338t154.5 276t237 184t297 68
q265 0 426.5 -170t161.5 -451q0 -178 -56.5 -338t-154 -276t-236.5 -184t-297 -68zM815 1612q-37 0 -64 27t-27 64q0 38 27 64.5t64 26.5q38 0 65 -26.5t27 -64.5q0 -37 -27 -64t-65 -27zM1156 1612q-38 0 -65 27t-27 64q0 38 27 64.5t65 26.5t64.5 -26.5t26.5 -64.5
q0 -37 -26.5 -64t-64.5 -27z" />
    <glyph glyph-name="multiply" unicode="&#xd7;" 
d="M904 191l-240 305l-378 -311l-72 89l378 312l-243 309l96 79l244 -308l378 311l72 -89l-378 -312l239 -306z" />
    <glyph glyph-name="Oslash" unicode="&#xd8;" horiz-adv-x="1491" 
d="M1308 1113l-872 -872q123 -137 329 -137q129 0 242 57.5t191.5 156t124 234t45.5 286.5q0 158 -60 275zM375 330l872 872q-123 137 -329 137q-172 0 -310.5 -98t-215.5 -266t-77 -370q0 -158 60 -275zM1573 1378l-164 -164q99 -153 99 -370q0 -178 -56.5 -338t-154 -276
t-236.5 -184t-297 -68q-263 0 -424 167l-155 -155l-75 75l164 164q-99 153 -99 370q0 178 56.5 338t154.5 276t237 184t297 68q264 0 423 -167l155 155z" />
    <glyph glyph-name="Ugrave" unicode="&#xd9;" horiz-adv-x="1399" 
d="M682 -22q-230 0 -362 123t-134 316q-1 63 13 135l189 891h139l-187 -884q-15 -69 -13 -134q4 -148 102 -234.5t275 -86.5t301.5 102.5t163.5 281.5l204 955h139l-209 -980q-49 -232 -208 -358.5t-413 -126.5zM895 1558l-192 288h140l164 -288h-112z" />
    <glyph glyph-name="Uacute" unicode="&#xda;" horiz-adv-x="1399" 
d="M682 -22q-230 0 -362 123t-134 316q-1 63 13 135l189 891h139l-187 -884q-15 -69 -13 -134q4 -148 102 -234.5t275 -86.5t301.5 102.5t163.5 281.5l204 955h139l-209 -980q-49 -232 -208 -358.5t-413 -126.5zM1028 1558h-129l304 288h158z" />
    <glyph glyph-name="Ucircumflex" unicode="&#xdb;" horiz-adv-x="1399" 
d="M682 -22q-230 0 -362 123t-134 316q-1 63 13 135l189 891h139l-187 -884q-15 -69 -13 -134q4 -148 102 -234.5t275 -86.5t301.5 102.5t163.5 281.5l204 955h139l-209 -980q-49 -232 -208 -358.5t-413 -126.5zM1068 1852l212 -294h-121l-148 210h-5l-238 -210h-140
l337 294h103z" />
    <glyph glyph-name="Udieresis" unicode="&#xdc;" horiz-adv-x="1399" 
d="M682 -22q-230 0 -362 123t-134 316q-1 63 13 135l189 891h139l-187 -884q-15 -69 -13 -134q4 -148 102 -234.5t275 -86.5t301.5 102.5t163.5 281.5l204 955h139l-209 -980q-49 -232 -208 -358.5t-413 -126.5zM821 1612q-37 0 -64 27t-27 64q0 38 27 64.5t64 26.5
q38 0 65 -26.5t27 -64.5q0 -37 -27 -64t-65 -27zM1162 1612q-38 0 -65 27t-27 64q0 38 27 64.5t65 26.5t64.5 -26.5t26.5 -64.5q0 -37 -26.5 -64t-64.5 -27z" />
    <glyph glyph-name="Yacute" unicode="&#xdd;" 
d="M624 0h-140l132 631l-342 812h145l288 -691h4l574 691h160l-693 -831zM947 1558h-129l304 288h158z" />
    <glyph glyph-name="Thorn" unicode="&#xde;" horiz-adv-x="1173" 
d="M77 0l307 1443h136l-58 -274h355q172 0 279.5 -98.5t107.5 -250.5q0 -210 -149.5 -339.5t-397.5 -129.5h-369l-74 -351h-137zM436 1046l-121 -573h337q192 0 301 90t109 244q0 108 -75 173.5t-214 65.5h-337z" />
    <glyph glyph-name="germandbls" unicode="&#xdf;" horiz-adv-x="1183" 
d="M238 0h-132l233 1097q35 164 150.5 256t284.5 92q165 0 272.5 -90.5t107.5 -229.5q0 -140 -94 -239t-240 -113l-3 -13q143 -16 229 -103.5t86 -217.5q0 -191 -138.5 -315.5t-350.5 -124.5q-121 0 -218 36l26 117q92 -34 197 -34q149 0 250.5 91t101.5 226
q0 119 -89.5 191.5t-236.5 72.5h-81l27 129h94q126 0 216.5 81t90.5 193q0 100 -70.5 162.5t-183.5 62.5q-117 0 -197.5 -70.5t-106.5 -195.5z" />
    <glyph glyph-name="agrave" unicode="&#xe0;" horiz-adv-x="1001" 
d="M435 97q126 0 223.5 75t123.5 192l31 141l-310 -17q-140 -8 -216 -62.5t-76 -147.5q0 -82 62 -131.5t162 -49.5zM402 -17q-139 0 -232 79t-93 202q0 149 111.5 234t315.5 96l331 18l16 74q6 26 6 63q0 89 -61.5 140t-172.5 51q-116 0 -191 -53.5t-95 -145.5h-138
q25 142 142.5 229t291.5 87q161 0 259 -80t98 -210q0 -46 -8 -89l-144 -678h-128l33 153h-3q-55 -79 -144.5 -124.5t-193.5 -45.5zM745 1222h-109l-183 302h136z" />
    <glyph glyph-name="aacute" unicode="&#xe1;" horiz-adv-x="1001" 
d="M435 97q126 0 223.5 75t123.5 192l31 141l-310 -17q-140 -8 -216 -62.5t-76 -147.5q0 -82 62 -131.5t162 -49.5zM402 -17q-139 0 -232 79t-93 202q0 149 111.5 234t315.5 96l331 18l16 74q6 26 6 63q0 89 -61.5 140t-172.5 51q-116 0 -191 -53.5t-95 -145.5h-138
q25 142 142.5 229t291.5 87q161 0 259 -80t98 -210q0 -46 -8 -89l-144 -678h-128l33 153h-3q-55 -79 -144.5 -124.5t-193.5 -45.5zM741 1222h-127l286 302h152z" />
    <glyph glyph-name="acircumflex" unicode="&#xe2;" horiz-adv-x="1001" 
d="M435 97q126 0 223.5 75t123.5 192l31 141l-310 -17q-140 -8 -216 -62.5t-76 -147.5q0 -82 62 -131.5t162 -49.5zM402 -17q-139 0 -232 79t-93 202q0 149 111.5 234t315.5 96l331 18l16 74q6 26 6 63q0 89 -61.5 140t-172.5 51q-116 0 -191 -53.5t-95 -145.5h-138
q25 142 142.5 229t291.5 87q161 0 259 -80t98 -210q0 -46 -8 -89l-144 -678h-128l33 153h-3q-55 -79 -144.5 -124.5t-193.5 -45.5zM800 1524l201 -302h-124l-142 216h-4l-234 -216h-134l330 302h107z" />
    <glyph glyph-name="atilde" unicode="&#xe3;" horiz-adv-x="1001" 
d="M435 97q126 0 223.5 75t123.5 192l31 141l-310 -17q-140 -8 -216 -62.5t-76 -147.5q0 -82 62 -131.5t162 -49.5zM402 -17q-139 0 -232 79t-93 202q0 149 111.5 234t315.5 96l331 18l16 74q6 26 6 63q0 89 -61.5 140t-172.5 51q-116 0 -191 -53.5t-95 -145.5h-138
q25 142 142.5 229t291.5 87q161 0 259 -80t98 -210q0 -46 -8 -89l-144 -678h-128l33 153h-3q-55 -79 -144.5 -124.5t-193.5 -45.5zM827 1228q-37 0 -67.5 16t-51 39t-39.5 46.5t-41 39.5t-47 16q-39 0 -70.5 -38.5t-43.5 -108.5h-93q19 111 77 174t137 63q38 0 69.5 -16
t52.5 -39.5t39.5 -46.5t40 -39t44.5 -16q37 0 67 38t45 109h93q-22 -111 -79 -174t-133 -63z" />
    <glyph glyph-name="adieresis" unicode="&#xe4;" horiz-adv-x="1001" 
d="M435 97q126 0 223.5 75t123.5 192l31 141l-310 -17q-140 -8 -216 -62.5t-76 -147.5q0 -82 62 -131.5t162 -49.5zM402 -17q-139 0 -232 79t-93 202q0 149 111.5 234t315.5 96l331 18l16 74q6 26 6 63q0 89 -61.5 140t-172.5 51q-116 0 -191 -53.5t-95 -145.5h-138
q25 142 142.5 229t291.5 87q161 0 259 -80t98 -210q0 -46 -8 -89l-144 -678h-128l33 153h-3q-55 -79 -144.5 -124.5t-193.5 -45.5zM529 1227q-37 0 -64 27t-27 64q0 38 27 64.5t64 26.5q38 0 65 -26.5t27 -64.5q0 -37 -27 -64t-65 -27zM870 1227q-38 0 -65 27t-27 64
q0 38 27 64.5t65 26.5t64.5 -26.5t26.5 -64.5t-26.5 -64.5t-64.5 -26.5z" />
    <glyph glyph-name="aring" unicode="&#xe5;" horiz-adv-x="1001" 
d="M435 97q126 0 223.5 75t123.5 192l31 141l-310 -17q-140 -8 -216 -62.5t-76 -147.5q0 -82 62 -131.5t162 -49.5zM402 -17q-139 0 -232 79t-93 202q0 149 111.5 234t315.5 96l331 18l16 74q6 26 6 63q0 89 -61.5 140t-172.5 51q-116 0 -191 -53.5t-95 -145.5h-138
q25 142 142.5 229t291.5 87q161 0 259 -80t98 -210q0 -46 -8 -89l-144 -678h-128l33 153h-3q-55 -79 -144.5 -124.5t-193.5 -45.5zM701 1156q-75 0 -127.5 49t-52.5 127q0 81 53.5 134.5t131.5 53.5q77 0 129 -48.5t51 -127.5q-1 -82 -53.5 -135t-131.5 -53zM701 1226
q50 0 81.5 32.5t30.5 83.5q-1 48 -30.5 78t-76.5 30q-49 0 -80.5 -32t-31.5 -84q0 -48 30.5 -78t76.5 -30z" />
    <glyph glyph-name="ae" unicode="&#xe6;" horiz-adv-x="1757" 
d="M1244 -17q-143 0 -239.5 70.5t-134.5 194.5h-3q-69 -131 -190 -198t-267 -67q-141 0 -233 81t-92 200q0 147 112 231.5t317 94.5l335 16l17 80q7 27 7 63q0 87 -63.5 139t-174.5 52q-116 0 -191.5 -54.5t-92.5 -144.5h-139q24 140 142 228t291 88q125 0 212 -53.5
t117 -146.5h4q68 96 165.5 148t214.5 52q178 0 286.5 -117.5t108.5 -309.5q0 -71 -10 -134h-782q-4 -40 -4 -68q0 -149 78.5 -238.5t212.5 -89.5q111 0 192.5 50.5t119.5 142.5h131q-41 -138 -164.5 -224t-282.5 -86zM978 603h638q3 15 3 45q0 129 -74 211t-191 82
q-135 0 -235.5 -91t-140.5 -247zM442 97q130 0 230 76t125 191l30 135l-319 -16q-136 -8 -213 -61.5t-77 -143.5q0 -80 61.5 -130.5t162.5 -50.5z" />
    <glyph glyph-name="ccedilla" unicode="&#xe7;" horiz-adv-x="1021" 
d="M1052 701h-129q-8 104 -82.5 171.5t-194.5 67.5q-171 0 -282.5 -143t-111.5 -361q0 -154 79 -245t209 -91q109 0 191.5 56.5t120.5 153.5h131q-40 -135 -150 -224t-254 -101l-75 -125q89 -1 138 -39.5t49 -108.5q0 -85 -64 -136.5t-168 -51.5q-100 0 -173 33l19 90
q68 -30 145 -30q63 0 99 22.5t36 64.5q0 78 -151 82l-56 1l14 59l82 141q-170 21 -264 140.5t-94 303.5q0 175 68 318t190 225.5t273 82.5q184 0 291.5 -101t113.5 -250v-5z" />
    <glyph glyph-name="egrave" unicode="&#xe8;" horiz-adv-x="1047" 
d="M270 599h636q3 16 3 49q0 128 -71 210.5t-204 82.5q-135 0 -233 -95.5t-131 -246.5zM534 -19q-199 0 -309.5 122.5t-110.5 323.5q0 174 66.5 318t186.5 228t269 84q188 0 297.5 -114.5t109.5 -311.5q0 -81 -11 -139h-779q-4 -31 -4 -60q0 -154 78 -243.5t210 -89.5
q115 0 198.5 56t122.5 155h131q-43 -146 -167 -237.5t-288 -91.5zM760 1222h-109l-183 302h136z" />
    <glyph glyph-name="eacute" unicode="&#xe9;" horiz-adv-x="1047" 
d="M270 599h636q3 16 3 49q0 128 -71 210.5t-204 82.5q-135 0 -233 -95.5t-131 -246.5zM534 -19q-199 0 -309.5 122.5t-110.5 323.5q0 174 66.5 318t186.5 228t269 84q188 0 297.5 -114.5t109.5 -311.5q0 -81 -11 -139h-779q-4 -31 -4 -60q0 -154 78 -243.5t210 -89.5
q115 0 198.5 56t122.5 155h131q-43 -146 -167 -237.5t-288 -91.5zM756 1222h-127l286 302h152z" />
    <glyph glyph-name="ecircumflex" unicode="&#xea;" horiz-adv-x="1047" 
d="M270 599h636q3 16 3 49q0 128 -71 210.5t-204 82.5q-135 0 -233 -95.5t-131 -246.5zM534 -19q-199 0 -309.5 122.5t-110.5 323.5q0 174 66.5 318t186.5 228t269 84q188 0 297.5 -114.5t109.5 -311.5q0 -81 -11 -139h-779q-4 -31 -4 -60q0 -154 78 -243.5t210 -89.5
q115 0 198.5 56t122.5 155h131q-43 -146 -167 -237.5t-288 -91.5zM815 1524l201 -302h-124l-142 216h-4l-234 -216h-134l330 302h107z" />
    <glyph glyph-name="edieresis" unicode="&#xeb;" horiz-adv-x="1047" 
d="M270 599h636q3 16 3 49q0 128 -71 210.5t-204 82.5q-135 0 -233 -95.5t-131 -246.5zM534 -19q-199 0 -309.5 122.5t-110.5 323.5q0 174 66.5 318t186.5 228t269 84q188 0 297.5 -114.5t109.5 -311.5q0 -81 -11 -139h-779q-4 -31 -4 -60q0 -154 78 -243.5t210 -89.5
q115 0 198.5 56t122.5 155h131q-43 -146 -167 -237.5t-288 -91.5zM544 1227q-37 0 -64 27t-27 64q0 38 27 64.5t64 26.5q38 0 65 -26.5t27 -64.5q0 -37 -27 -64t-65 -27zM885 1227q-38 0 -65 27t-27 64q0 38 27 64.5t65 26.5t64.5 -26.5t26.5 -64.5t-27 -64.5t-64 -26.5z
" />
    <glyph glyph-name="igrave" unicode="&#xec;" horiz-adv-x="378" 
d="M65 0l221 1040h134l-221 -1040h-134zM455 1222h-109l-183 302h136z" />
    <glyph glyph-name="iacute" unicode="&#xed;" horiz-adv-x="378" 
d="M65 0l221 1040h134l-221 -1040h-134zM451 1222h-127l286 302h152z" />
    <glyph glyph-name="icircumflex" unicode="&#xee;" horiz-adv-x="378" 
d="M65 0l221 1040h134l-221 -1040h-134zM510 1524l201 -302h-124l-142 216h-4l-234 -216h-134l330 302h107z" />
    <glyph glyph-name="idieresis" unicode="&#xef;" horiz-adv-x="378" 
d="M65 0l221 1040h134l-221 -1040h-134zM239 1227q-37 0 -64 27t-27 64q0 38 27 64.5t64 26.5q38 0 65 -26.5t27 -64.5q0 -37 -27 -64t-65 -27zM580 1227q-38 0 -65 27t-27 64q0 38 27 64.5t65 26.5t64.5 -26.5t26.5 -64.5t-26.5 -64.5t-64.5 -26.5z" />
    <glyph glyph-name="eth" unicode="&#xf0;" horiz-adv-x="1087" 
d="M525 -17q-125 0 -220.5 58t-144.5 154t-49 214q0 267 149.5 440.5t371.5 173.5q121 0 213 -60t127 -153l4 1v15q-3 195 -114 388l-331 -107l-6 98l285 94q-52 66 -135 147h149q66 -66 100 -112l244 82l8 -98l-205 -70q122 -228 122 -470q0 -153 -36 -303
q-56 -229 -197.5 -360.5t-334.5 -131.5zM940 600q0 134 -84 217.5t-218 83.5q-167 0 -278 -132.5t-111 -339.5q0 -146 77 -237t211 -91q105 0 198 68.5t149 184t56 246.5z" />
    <glyph glyph-name="ntilde" unicode="&#xf1;" horiz-adv-x="1074" 
d="M56 0l221 1040h127l-39 -182h4q57 93 148 146t207 53q145 0 240 -87t95 -220q0 -52 -13 -120l-135 -630h-133l129 606q14 64 14 108q0 103 -67.5 164t-181.5 61q-127 0 -223 -85.5t-125 -222.5l-135 -631h-133zM890 1228q-37 0 -67.5 16t-51 39t-39.5 46.5t-41 39.5
t-47 16q-39 0 -70.5 -38.5t-43.5 -108.5h-93q19 111 77 174t137 63q38 0 69.5 -16t52.5 -39.5t39.5 -46.5t40 -39t44.5 -16q37 0 67 38t45 109h93q-22 -111 -79 -174t-133 -63z" />
    <glyph glyph-name="ograve" unicode="&#xf2;" horiz-adv-x="1089" 
d="M547 100q171 0 285 144t114 359q0 153 -80.5 245t-215.5 92q-172 0 -286 -144t-114 -359q0 -153 80.5 -245t216.5 -92zM650 1057q196 0 313 -123t117 -327q0 -174 -69.5 -317t-192 -225t-271.5 -82q-196 0 -313.5 123t-117.5 327q0 174 69.5 317t192 225t272.5 82z
M772 1222h-109l-183 302h136z" />
    <glyph glyph-name="oacute" unicode="&#xf3;" horiz-adv-x="1089" 
d="M547 100q171 0 285 144t114 359q0 153 -80.5 245t-215.5 92q-172 0 -286 -144t-114 -359q0 -153 80.5 -245t216.5 -92zM650 1057q196 0 313 -123t117 -327q0 -174 -69.5 -317t-192 -225t-271.5 -82q-196 0 -313.5 123t-117.5 327q0 174 69.5 317t192 225t272.5 82z
M768 1222h-127l286 302h152z" />
    <glyph glyph-name="ocircumflex" unicode="&#xf4;" horiz-adv-x="1089" 
d="M547 100q171 0 285 144t114 359q0 153 -80.5 245t-215.5 92q-172 0 -286 -144t-114 -359q0 -153 80.5 -245t216.5 -92zM650 1057q196 0 313 -123t117 -327q0 -174 -69.5 -317t-192 -225t-271.5 -82q-196 0 -313.5 123t-117.5 327q0 174 69.5 317t192 225t272.5 82z
M827 1524l201 -302h-124l-142 216h-4l-234 -216h-134l330 302h107z" />
    <glyph glyph-name="otilde" unicode="&#xf5;" horiz-adv-x="1089" 
d="M547 100q171 0 285 144t114 359q0 153 -80.5 245t-215.5 92q-172 0 -286 -144t-114 -359q0 -153 80.5 -245t216.5 -92zM650 1057q196 0 313 -123t117 -327q0 -174 -69.5 -317t-192 -225t-271.5 -82q-196 0 -313.5 123t-117.5 327q0 174 69.5 317t192 225t272.5 82z
M854 1228q-37 0 -67.5 16t-51 39t-39.5 46.5t-41 39.5t-47 16q-39 0 -70.5 -38.5t-43.5 -108.5h-93q19 111 77 174t137 63q38 0 69.5 -16t52.5 -39.5t39.5 -46.5t40 -39t44.5 -16q37 0 67 38t45 109h93q-22 -111 -79 -174t-133 -63z" />
    <glyph glyph-name="odieresis" unicode="&#xf6;" horiz-adv-x="1089" 
d="M547 100q171 0 285 144t114 359q0 153 -80.5 245t-215.5 92q-172 0 -286 -144t-114 -359q0 -153 80.5 -245t216.5 -92zM650 1057q196 0 313 -123t117 -327q0 -174 -69.5 -317t-192 -225t-271.5 -82q-196 0 -313.5 123t-117.5 327q0 174 69.5 317t192 225t272.5 82z
M556 1227q-37 0 -64 27t-27 64q0 38 27 64.5t64 26.5q38 0 65 -26.5t27 -64.5q0 -37 -27 -64t-65 -27zM897 1227q-38 0 -65 27t-27 64q0 38 27 64.5t65 26.5t64.5 -26.5t26.5 -64.5t-27 -64.5t-64 -26.5z" />
    <glyph glyph-name="divide" unicode="&#xf7;" 
d="M1163 516h-1002l24 113h1002zM741 815q-45 0 -75.5 30.5t-30.5 76.5t30.5 76t75.5 30t76 -30t31 -76t-31 -76.5t-76 -30.5zM591 109q-45 0 -76 30.5t-31 76.5t31 76.5t76 30.5t76 -30.5t31 -76.5t-31 -76.5t-76 -30.5z" />
    <glyph glyph-name="oslash" unicode="&#xf8;" horiz-adv-x="1089" 
d="M915 769l-581 -581q82 -88 213 -88q171 0 285 144t114 359q0 92 -31 166zM282 271l580 580q-80 89 -212 89q-172 0 -286 -144t-114 -359q0 -94 32 -166zM1134 988l-120 -120q66 -109 66 -261q0 -174 -69.5 -317t-192 -225t-271.5 -82q-188 0 -304 114l-112 -112l-68 67
l120 120q-67 111 -67 261q0 174 69.5 317t192 225t272.5 82q188 0 304 -114l112 112z" />
    <glyph glyph-name="ugrave" unicode="&#xf9;" horiz-adv-x="1073" 
d="M1125 1040l-221 -1040h-127l38 171h-4q-48 -79 -145 -133.5t-214 -54.5q-148 0 -238 84.5t-90 212.5q0 61 14 133l132 627h134l-129 -606q-14 -67 -14 -114q0 -107 61.5 -163t177.5 -56q133 0 231.5 87t126.5 221l135 631h132zM788 1222h-109l-183 302h136z" />
    <glyph glyph-name="uacute" unicode="&#xfa;" horiz-adv-x="1073" 
d="M1125 1040l-221 -1040h-127l38 171h-4q-48 -79 -145 -133.5t-214 -54.5q-148 0 -238 84.5t-90 212.5q0 61 14 133l132 627h134l-129 -606q-14 -67 -14 -114q0 -107 61.5 -163t177.5 -56q133 0 231.5 87t126.5 221l135 631h132zM784 1222h-127l286 302h152z" />
    <glyph glyph-name="ucircumflex" unicode="&#xfb;" horiz-adv-x="1073" 
d="M1125 1040l-221 -1040h-127l38 171h-4q-48 -79 -145 -133.5t-214 -54.5q-148 0 -238 84.5t-90 212.5q0 61 14 133l132 627h134l-129 -606q-14 -67 -14 -114q0 -107 61.5 -163t177.5 -56q133 0 231.5 87t126.5 221l135 631h132zM843 1524l201 -302h-124l-142 216h-4
l-234 -216h-134l330 302h107z" />
    <glyph glyph-name="udieresis" unicode="&#xfc;" horiz-adv-x="1073" 
d="M1125 1040l-221 -1040h-127l38 171h-4q-48 -79 -145 -133.5t-214 -54.5q-148 0 -238 84.5t-90 212.5q0 61 14 133l132 627h134l-129 -606q-14 -67 -14 -114q0 -107 61.5 -163t177.5 -56q133 0 231.5 87t126.5 221l135 631h132zM572 1227q-37 0 -64 27t-27 64
q0 38 27 64.5t64 26.5q38 0 65 -26.5t27 -64.5q0 -37 -27 -64t-65 -27zM913 1227q-38 0 -65 27t-27 64q0 38 27 64.5t65 26.5t64.5 -26.5t26.5 -64.5t-27 -64.5t-64 -26.5z" />
    <glyph glyph-name="yacute" unicode="&#xfd;" horiz-adv-x="941" 
d="M89 -369q-54 0 -97 13l20 112q39 -13 80 -13q124 0 218 179l41 76l-173 1042h132l138 -896h4l494 896h147l-663 -1160q-81 -143 -158.5 -196t-182.5 -53zM723 1222h-127l286 302h152z" />
    <glyph glyph-name="thorn" unicode="&#xfe;" horiz-adv-x="1126" 
d="M593 101q166 0 278.5 143t112.5 358q0 158 -75 248t-207 90q-116 0 -209.5 -72t-144 -190.5t-50.5 -256.5q0 -142 81 -231t214 -89zM246 248l-128 -605h-132l384 1807h132l-130 -607h4q55 97 150.5 155.5t204.5 58.5q176 0 280 -121.5t104 -325.5q0 -176 -68.5 -320
t-187.5 -225.5t-264 -81.5q-130 0 -225.5 74.5t-119.5 190.5h-4z" />
    <glyph glyph-name="ydieresis" unicode="&#xff;" horiz-adv-x="941" 
d="M89 -369q-54 0 -97 13l20 112q39 -13 80 -13q124 0 218 179l41 76l-173 1042h132l138 -896h4l494 896h147l-663 -1160q-81 -143 -158.5 -196t-182.5 -53zM511 1227q-37 0 -64 27t-27 64q0 38 27 64.5t64 26.5q38 0 65 -26.5t27 -64.5q0 -37 -27 -64t-65 -27zM852 1227
q-38 0 -65 27t-27 64q0 38 27 64.5t65 26.5t64.5 -26.5t26.5 -64.5t-26.5 -64.5t-64.5 -26.5z" />
    <glyph glyph-name="Amacron" unicode="&#x100;" horiz-adv-x="1261" 
d="M848 1274l-408 -714h525l-113 714h-4zM1051 0l-68 443h-609l-256 -443h-151l844 1443h138l232 -1443h-130zM1245 1720l-20 -92h-617l20 92h617z" />
    <glyph glyph-name="amacron" unicode="&#x101;" horiz-adv-x="1001" 
d="M435 97q126 0 223.5 75t123.5 192l31 141l-310 -17q-140 -8 -216 -62.5t-76 -147.5q0 -82 62 -131.5t162 -49.5zM402 -17q-139 0 -232 79t-93 202q0 149 111.5 234t315.5 96l331 18l16 74q6 26 6 63q0 89 -61.5 140t-172.5 51q-116 0 -191 -53.5t-95 -145.5h-138
q25 142 142.5 229t291.5 87q161 0 259 -80t98 -210q0 -46 -8 -89l-144 -678h-128l33 153h-3q-55 -79 -144.5 -124.5t-193.5 -45.5zM991 1381l-19 -92h-550l19 92h550z" />
    <glyph glyph-name="Abreve" unicode="&#x102;" horiz-adv-x="1261" 
d="M848 1274l-408 -714h525l-113 714h-4zM1051 0l-68 443h-609l-256 -443h-151l844 1443h138l232 -1443h-130zM649 1822h100q-6 -18 -6 -38q0 -71 46.5 -111.5t126.5 -40.5q88 0 152 51t80 139h100q-24 -130 -116 -203t-232 -73q-112 0 -185 61t-73 161q0 30 7 54z" />
    <glyph glyph-name="abreve" unicode="&#x103;" horiz-adv-x="1001" 
d="M435 97q126 0 223.5 75t123.5 192l31 141l-310 -17q-140 -8 -216 -62.5t-76 -147.5q0 -82 62 -131.5t162 -49.5zM402 -17q-139 0 -232 79t-93 202q0 149 111.5 234t315.5 96l331 18l16 74q6 26 6 63q0 89 -61.5 140t-172.5 51q-116 0 -191 -53.5t-95 -145.5h-138
q25 142 142.5 229t291.5 87q161 0 259 -80t98 -210q0 -46 -8 -89l-144 -678h-128l33 153h-3q-55 -79 -144.5 -124.5t-193.5 -45.5zM430 1501h99q-6 -26 -6 -45q0 -71 46.5 -112.5t126.5 -41.5q89 0 152.5 54t79.5 145h99q-23 -133 -114.5 -209.5t-230.5 -76.5
q-113 0 -186.5 62.5t-73.5 162.5q0 32 8 61z" />
    <glyph glyph-name="Aogonek" unicode="&#x104;" horiz-adv-x="1261" 
d="M1102 -301l-20 -93q-26 -18 -98 -18q-79 0 -128 40.5t-49 105.5q0 150 243 273l-70 436h-608l-253 -443h-152l842 1443h138l232 -1433l-15 -9q-117 -58 -177 -117.5t-60 -113.5q0 -38 28 -61t76 -23q45 0 71 13zM846 1274l-409 -714h526l-113 714h-4z" />
    <glyph glyph-name="aogonek" unicode="&#x105;" horiz-adv-x="1001" 
d="M433 103q130 0 227 73t122 188l31 141l-313 -17q-137 -8 -213 -63t-76 -147q0 -79 61 -127t161 -48zM743 -384q-28 -19 -99 -19q-79 0 -127.5 40.5t-48.5 105.5q0 150 246 272l29 138h-3q-54 -78 -142.5 -121t-197.5 -43q-139 0 -231 78t-92 197q0 148 111.5 233.5
t318.5 96.5l328 18l16 74q6 29 6 63q0 86 -63.5 135.5t-175.5 49.5t-186.5 -51.5t-94.5 -141.5h-138q25 140 142.5 225t286.5 85q163 0 262.5 -78t99.5 -206q0 -57 -8 -89l-146 -685l-5 -2q-115 -45 -179 -101t-64 -111q0 -38 28 -60.5t75 -22.5q43 0 72 12z" />
    <glyph glyph-name="Cacute" unicode="&#x106;" horiz-adv-x="1382" 
d="M1320 976q0 5 -2 17q-10 157 -123 251.5t-288 94.5q-169 0 -305 -96.5t-211.5 -266t-75.5 -379.5q0 -226 120.5 -359.5t324.5 -133.5q160 0 281 81t176 226h139q-62 -200 -223.5 -316.5t-375.5 -116.5q-265 0 -423.5 167t-158.5 446q0 183 55.5 345t152.5 278.5
t234 183.5t293 67q236 0 386.5 -128.5t160.5 -341.5q1 -10 1 -19h-138zM1007 1559h-129l304 288h158z" />
    <glyph glyph-name="cacute" unicode="&#x107;" horiz-adv-x="1021" 
d="M647 1057q184 0 291.5 -101t113.5 -250v-5h-129q-8 104 -82.5 171.5t-194.5 67.5q-171 0 -282.5 -143t-111.5 -361q0 -154 79 -245t209 -91q109 0 191.5 56.5t120.5 153.5h131q-43 -145 -165 -236t-279 -91q-199 0 -311 123.5t-112 324.5q0 175 68 318t190 225.5
t273 82.5zM769 1222h-127l286 302h152z" />
    <glyph glyph-name="Ccircumflex" unicode="&#x108;" horiz-adv-x="1382" 
d="M1320 976q0 5 -2 17q-10 157 -123 251.5t-288 94.5q-169 0 -305 -96.5t-211.5 -266t-75.5 -379.5q0 -226 120.5 -359.5t324.5 -133.5q160 0 281 81t176 226h139q-62 -200 -223.5 -316.5t-375.5 -116.5q-265 0 -423.5 167t-158.5 446q0 183 55.5 345t152.5 278.5
t234 183.5t293 67q236 0 386.5 -128.5t160.5 -341.5q1 -10 1 -19h-138zM1047 1853l212 -294h-121l-148 210h-5l-238 -210h-140l337 294h103z" />
    <glyph glyph-name="ccircumflex" unicode="&#x109;" horiz-adv-x="1021" 
d="M647 1057q184 0 291.5 -101t113.5 -250v-5h-129q-8 104 -82.5 171.5t-194.5 67.5q-171 0 -282.5 -143t-111.5 -361q0 -154 79 -245t209 -91q109 0 191.5 56.5t120.5 153.5h131q-43 -145 -165 -236t-279 -91q-199 0 -311 123.5t-112 324.5q0 175 68 318t190 225.5
t273 82.5zM828 1524l201 -302h-124l-142 216h-4l-234 -216h-134l330 302h107z" />
    <glyph glyph-name="Cdotaccent" unicode="&#x10a;" horiz-adv-x="1382" 
d="M1320 976q0 5 -2 17q-10 157 -123 251.5t-288 94.5q-169 0 -305 -96.5t-211.5 -266t-75.5 -379.5q0 -226 120.5 -359.5t324.5 -133.5q160 0 281 81t176 226h139q-62 -200 -223.5 -316.5t-375.5 -116.5q-265 0 -423.5 167t-158.5 446q0 183 55.5 345t152.5 278.5
t234 183.5t293 67q236 0 386.5 -128.5t160.5 -341.5q1 -10 1 -19h-138zM975 1626q-43 0 -73.5 30.5t-30.5 73.5t30.5 73.5t73.5 30.5t73.5 -30.5t30.5 -73.5t-30.5 -73.5t-73.5 -30.5z" />
    <glyph glyph-name="cdotaccent" unicode="&#x10b;" horiz-adv-x="1021" 
d="M647 1057q184 0 291.5 -101t113.5 -250v-5h-129q-8 104 -82.5 171.5t-194.5 67.5q-171 0 -282.5 -143t-111.5 -361q0 -154 79 -245t209 -91q109 0 191.5 56.5t120.5 153.5h131q-43 -145 -165 -236t-279 -91q-199 0 -311 123.5t-112 324.5q0 175 68 318t190 225.5
t273 82.5zM729 1222q-43 0 -73.5 30.5t-30.5 73.5t30.5 73.5t73.5 30.5t73.5 -30.5t30.5 -73.5t-30.5 -73.5t-73.5 -30.5z" />
    <glyph glyph-name="Ccaron" unicode="&#x10c;" horiz-adv-x="1382" 
d="M1320 976q0 5 -2 17q-10 157 -123 251.5t-288 94.5q-169 0 -305 -96.5t-211.5 -266t-75.5 -379.5q0 -226 120.5 -359.5t324.5 -133.5q160 0 281 81t176 226h139q-62 -200 -223.5 -316.5t-375.5 -116.5q-265 0 -423.5 167t-158.5 446q0 183 55.5 345t152.5 278.5
t234 183.5t293 67q236 0 386.5 -128.5t160.5 -341.5q1 -10 1 -19h-138zM895 1559l-212 294h122l149 -209h4l238 209h140l-337 -294h-104z" />
    <glyph glyph-name="ccaron" unicode="&#x10d;" horiz-adv-x="1021" 
d="M647 1057q184 0 291.5 -101t113.5 -250v-5h-129q-8 104 -82.5 171.5t-194.5 67.5q-171 0 -282.5 -143t-111.5 -361q0 -154 79 -245t209 -91q109 0 191.5 56.5t120.5 153.5h131q-43 -145 -165 -236t-279 -91q-199 0 -311 123.5t-112 324.5q0 175 68 318t190 225.5
t273 82.5zM772 1222h-107l-201 302h121l140 -219h5l235 219h138z" />
    <glyph glyph-name="Dcaron" unicode="&#x10e;" horiz-adv-x="1391" 
d="M387 1443h422q283 0 441 -153.5t158 -423.5q0 -252 -100 -449t-283 -307t-419 -110h-524zM501 1321l-255 -1199h351q195 0 348.5 93.5t238 259.5t84.5 374q0 229 -122.5 350.5t-359.5 121.5h-285zM765 1558l-212 294h122l149 -209h4l238 209h140l-337 -294h-104z" />
    <glyph glyph-name="dcaron" unicode="&#x10f;" horiz-adv-x="1305" 
d="M1425 1443h130l-132 -444h-93zM498 -17q-174 0 -279 120.5t-105 316.5q0 132 41.5 250.5t112.5 203t168.5 134t205.5 49.5q132 0 229 -75.5t117 -191.5h5l140 653h133l-307 -1443h-134l41 195h-4q-54 -94 -154 -153t-210 -59zM528 100q175 0 291 150.5t116 368.5
q0 143 -79.5 231.5t-212.5 88.5q-165 0 -280.5 -148t-115.5 -364q0 -150 75.5 -238.5t205.5 -88.5z" />
    <glyph glyph-name="Dcroat" unicode="&#x110;" horiz-adv-x="1391" 
d="M246 122h351q195 0 348.5 93.5t238 259.5t84.5 374q0 229 -122.5 350.5t-359.5 121.5h-285l-111 -522h366l-26 -124h-366zM387 1443h422q283 0 441 -153.5t158 -423.5q0 -252 -100 -449t-283 -307t-419 -110h-524l143 675h-139l27 124h138z" />
    <glyph glyph-name="dcroat" unicode="&#x111;" horiz-adv-x="1131" 
d="M528 100q175 0 291 150.5t116 368.5q0 143 -79.5 231.5t-212.5 88.5q-165 0 -280.5 -148t-115.5 -364q0 -150 75.5 -238.5t205.5 -88.5zM1355 1320l-24 -110h-115l-257 -1210h-134l41 195h-4q-54 -94 -154 -153t-210 -59q-174 0 -279 120.5t-105 316.5q0 132 41.5 250.5
t112.5 203t168.5 134t205.5 49.5q132 0 229 -75.5t117 -191.5h5l90 420h-261l23 110h262l26 123h133l-26 -123h115z" />
    <glyph glyph-name="Emacron" unicode="&#x112;" horiz-adv-x="1102" 
d="M979 124l-26 -124h-873l307 1443h873l-27 -124h-733l-110 -519h696l-27 -122h-695l-118 -554h733zM1191 1720l-20 -92h-617l20 92h617z" />
    <glyph glyph-name="emacron" unicode="&#x113;" horiz-adv-x="1047" 
d="M270 599h636q3 16 3 49q0 128 -71 210.5t-204 82.5q-135 0 -233 -95.5t-131 -246.5zM534 -19q-199 0 -309.5 122.5t-110.5 323.5q0 174 66.5 318t186.5 228t269 84q188 0 297.5 -114.5t109.5 -311.5q0 -81 -11 -139h-779q-4 -31 -4 -60q0 -154 78 -243.5t210 -89.5
q115 0 198.5 56t122.5 155h131q-43 -146 -167 -237.5t-288 -91.5zM1006 1381l-19 -92h-550l19 92h550z" />
    <glyph glyph-name="Ebreve" unicode="&#x114;" horiz-adv-x="1102" 
d="M979 124l-26 -124h-873l307 1443h873l-27 -124h-733l-110 -519h696l-27 -122h-695l-118 -554h733zM595 1822h100q-6 -18 -6 -38q0 -71 46.5 -111.5t126.5 -40.5q88 0 152 51t80 139h100q-24 -130 -116 -203t-232 -73q-112 0 -185 61t-73 161q0 30 7 54z" />
    <glyph glyph-name="ebreve" unicode="&#x115;" horiz-adv-x="1047" 
d="M270 599h636q3 16 3 49q0 128 -71 210.5t-204 82.5q-135 0 -233 -95.5t-131 -246.5zM534 -19q-199 0 -309.5 122.5t-110.5 323.5q0 174 66.5 318t186.5 228t269 84q188 0 297.5 -114.5t109.5 -311.5q0 -81 -11 -139h-779q-4 -31 -4 -60q0 -154 78 -243.5t210 -89.5
q115 0 198.5 56t122.5 155h131q-43 -146 -167 -237.5t-288 -91.5zM445 1501h99q-6 -26 -6 -45q0 -71 46.5 -112.5t126.5 -41.5q89 0 152.5 54t79.5 145h99q-23 -133 -114.5 -209.5t-230.5 -76.5q-113 0 -186.5 62.5t-73.5 162.5q0 32 8 61z" />
    <glyph glyph-name="Edotaccent" unicode="&#x116;" horiz-adv-x="1102" 
d="M979 124l-26 -124h-873l307 1443h873l-27 -124h-733l-110 -519h696l-27 -122h-695l-118 -554h733zM880 1625q-43 0 -73.5 30.5t-30.5 73.5t30.5 73.5t73.5 30.5t73.5 -30.5t30.5 -73.5t-30.5 -73.5t-73.5 -30.5z" />
    <glyph glyph-name="edotaccent" unicode="&#x117;" horiz-adv-x="1047" 
d="M270 599h636q3 16 3 49q0 128 -71 210.5t-204 82.5q-135 0 -233 -95.5t-131 -246.5zM534 -19q-199 0 -309.5 122.5t-110.5 323.5q0 174 66.5 318t186.5 228t269 84q188 0 297.5 -114.5t109.5 -311.5q0 -81 -11 -139h-779q-4 -31 -4 -60q0 -154 78 -243.5t210 -89.5
q115 0 198.5 56t122.5 155h131q-43 -146 -167 -237.5t-288 -91.5zM716 1222q-43 0 -73.5 30.5t-30.5 73.5t30.5 73.5t73.5 30.5t73.5 -30.5t30.5 -73.5t-30.5 -73.5t-73.5 -30.5z" />
    <glyph glyph-name="Eogonek" unicode="&#x118;" horiz-adv-x="1102" 
d="M80 0l307 1443h873l-27 -124h-733l-111 -519h697l-27 -122h-696l-118 -554h734l-24 -114l-13 -8q-238 -128 -238 -232q0 -38 28 -61t75 -23q45 0 72 13l-20 -93q-28 -18 -98 -18q-79 0 -128 40.5t-49 105.5q0 70 58 137.5t168 125.5v3h-730z" />
    <glyph glyph-name="eogonek" unicode="&#x119;" horiz-adv-x="1047" 
d="M545 -403q-78 0 -127 40.5t-49 105.5q0 133 188 237v2q-2 0 -11 -0.5t-13 -0.5q-199 0 -309 122.5t-110 323.5q0 175 66.5 318.5t186.5 227.5t269 84q188 0 297.5 -114.5t109.5 -311.5q0 -76 -12 -139h-779q-4 -31 -4 -60q0 -154 78 -243.5t210 -89.5q115 0 198.5 56
t122.5 155h132q-28 -90 -82.5 -155t-119.5 -99q-298 -159 -298 -277q0 -38 28 -60.5t75 -22.5q48 0 72 12l-20 -92q-28 -19 -99 -19zM270 599h635q4 21 4 49q0 128 -71 210.5t-204 82.5q-136 0 -234 -95.5t-130 -246.5z" />
    <glyph glyph-name="Ecaron" unicode="&#x11a;" horiz-adv-x="1102" 
d="M979 124l-26 -124h-873l307 1443h873l-27 -124h-733l-110 -519h696l-27 -122h-695l-118 -554h733zM800 1558l-212 294h122l149 -209h4l238 209h140l-337 -294h-104z" />
    <glyph glyph-name="ecaron" unicode="&#x11b;" horiz-adv-x="1047" 
d="M270 599h636q3 16 3 49q0 128 -71 210.5t-204 82.5q-135 0 -233 -95.5t-131 -246.5zM534 -19q-199 0 -309.5 122.5t-110.5 323.5q0 174 66.5 318t186.5 228t269 84q188 0 297.5 -114.5t109.5 -311.5q0 -81 -11 -139h-779q-4 -31 -4 -60q0 -154 78 -243.5t210 -89.5
q115 0 198.5 56t122.5 155h131q-43 -146 -167 -237.5t-288 -91.5zM759 1222h-107l-201 302h121l140 -219h5l235 219h138z" />
    <glyph glyph-name="Gcircumflex" unicode="&#x11c;" horiz-adv-x="1420" 
d="M1432 721l-45 -207q-55 -254 -222.5 -395t-408.5 -141q-268 0 -425 169t-157 444q0 130 29.5 255t91 237t147.5 197t206.5 135t260.5 50q239 0 387.5 -130.5t159.5 -341.5v-10h-138q-14 164 -124 260t-286 96q-142 0 -257.5 -64.5t-187.5 -170.5t-110.5 -237t-38.5 -270
q0 -223 118.5 -358t324.5 -135q187 0 320 112t173 305l17 79h-435l26 121h574zM1038 1852l212 -294h-121l-148 210h-5l-238 -210h-140l337 294h103z" />
    <glyph glyph-name="gcircumflex" unicode="&#x11d;" horiz-adv-x="1121" 
d="M459 -385q-177 0 -294.5 85.5t-117.5 211.5h136q9 -80 85 -131.5t193 -51.5q142 0 235.5 77t128.5 223l41 182h-4q-52 -96 -150 -153.5t-208 -57.5q-177 0 -283 118t-106 316q0 120 37.5 232t103.5 199t167 139.5t219 52.5q133 0 227 -76t115 -195h5l52 254h131
l-214 -1010q-43 -201 -174.5 -308t-324.5 -107zM532 117q117 0 209.5 68.5t142 182.5t49.5 252q0 142 -81.5 230.5t-208.5 88.5q-113 0 -204 -67t-141.5 -181.5t-50.5 -252.5q0 -147 75 -234t210 -87zM866 1524l201 -302h-124l-142 216h-4l-234 -216h-134l330 302h107z" />
    <glyph glyph-name="Gbreve" unicode="&#x11e;" horiz-adv-x="1420" 
d="M1432 721l-45 -207q-55 -254 -222.5 -395t-408.5 -141q-268 0 -425 169t-157 444q0 130 29.5 255t91 237t147.5 197t206.5 135t260.5 50q239 0 387.5 -130.5t159.5 -341.5v-10h-138q-14 164 -124 260t-286 96q-142 0 -257.5 -64.5t-187.5 -170.5t-110.5 -237t-38.5 -270
q0 -223 118.5 -358t324.5 -135q187 0 320 112t173 305l17 79h-435l26 121h574zM681 1822h100q-6 -18 -6 -38q0 -71 46.5 -111.5t126.5 -40.5q88 0 152 51t80 139h100q-24 -130 -116 -203t-232 -73q-112 0 -185 61t-73 161q0 30 7 54z" />
    <glyph glyph-name="gbreve" unicode="&#x11f;" horiz-adv-x="1121" 
d="M459 -385q-177 0 -294.5 85.5t-117.5 211.5h136q9 -80 85 -131.5t193 -51.5q142 0 235.5 77t128.5 223l41 182h-4q-52 -96 -150 -153.5t-208 -57.5q-177 0 -283 118t-106 316q0 120 37.5 232t103.5 199t167 139.5t219 52.5q133 0 227 -76t115 -195h5l52 254h131
l-214 -1010q-43 -201 -174.5 -308t-324.5 -107zM532 117q117 0 209.5 68.5t142 182.5t49.5 252q0 142 -81.5 230.5t-208.5 88.5q-113 0 -204 -67t-141.5 -181.5t-50.5 -252.5q0 -147 75 -234t210 -87zM496 1501h99q-6 -26 -6 -45q0 -71 46.5 -112.5t126.5 -41.5
q89 0 152.5 54t79.5 145h99q-23 -133 -114.5 -209.5t-230.5 -76.5q-113 0 -186.5 62.5t-73.5 162.5q0 32 8 61z" />
    <glyph glyph-name="Gdotaccent" unicode="&#x120;" horiz-adv-x="1420" 
d="M1432 721l-45 -207q-55 -254 -222.5 -395t-408.5 -141q-268 0 -425 169t-157 444q0 130 29.5 255t91 237t147.5 197t206.5 135t260.5 50q239 0 387.5 -130.5t159.5 -341.5v-10h-138q-14 164 -124 260t-286 96q-142 0 -257.5 -64.5t-187.5 -170.5t-110.5 -237t-38.5 -270
q0 -223 118.5 -358t324.5 -135q187 0 320 112t173 305l17 79h-435l26 121h574zM966 1625q-43 0 -73.5 30.5t-30.5 73.5t30.5 73.5t73.5 30.5t73.5 -30.5t30.5 -73.5t-30.5 -73.5t-73.5 -30.5z" />
    <glyph glyph-name="gdotaccent" unicode="&#x121;" horiz-adv-x="1121" 
d="M459 -385q-177 0 -294.5 85.5t-117.5 211.5h136q9 -80 85 -131.5t193 -51.5q142 0 235.5 77t128.5 223l41 182h-4q-52 -96 -150 -153.5t-208 -57.5q-177 0 -283 118t-106 316q0 120 37.5 232t103.5 199t167 139.5t219 52.5q133 0 227 -76t115 -195h5l52 254h131
l-214 -1010q-43 -201 -174.5 -308t-324.5 -107zM532 117q117 0 209.5 68.5t142 182.5t49.5 252q0 142 -81.5 230.5t-208.5 88.5q-113 0 -204 -67t-141.5 -181.5t-50.5 -252.5q0 -147 75 -234t210 -87zM767 1222q-43 0 -73.5 30.5t-30.5 73.5t30.5 73.5t73.5 30.5t73.5 -30.5
t30.5 -73.5t-30.5 -73.5t-73.5 -30.5z" />
    <glyph glyph-name="Gcommaaccent" unicode="&#x122;" horiz-adv-x="1420" 
d="M1432 721l-45 -207q-55 -254 -222.5 -395t-408.5 -141q-268 0 -425 169t-157 444q0 130 29.5 255t91 237t147.5 197t206.5 135t260.5 50q239 0 387.5 -130.5t159.5 -341.5v-10h-138q-14 164 -124 260t-286 96q-142 0 -257.5 -64.5t-187.5 -170.5t-110.5 -237t-38.5 -270
q0 -223 118.5 -358t324.5 -135q187 0 320 112t173 305l17 79h-435l26 121h574zM588 -475h-104l179 351h128z" />
    <glyph glyph-name="gcommaaccent" unicode="&#x123;" horiz-adv-x="1121" 
d="M459 -385q-177 0 -294.5 85.5t-117.5 211.5h136q9 -80 85 -131.5t193 -51.5q142 0 235.5 77t128.5 223l41 182h-4q-52 -96 -150 -153.5t-208 -57.5q-177 0 -283 118t-106 316q0 120 37.5 232t103.5 199t167 139.5t219 52.5q133 0 227 -76t115 -195h5l52 254h131
l-214 -1010q-43 -201 -174.5 -308t-324.5 -107zM532 117q117 0 209.5 68.5t142 182.5t49.5 252q0 142 -81.5 230.5t-208.5 88.5q-113 0 -204 -67t-141.5 -181.5t-50.5 -252.5q0 -147 75 -234t210 -87zM984 1515h104l-179 -351h-128z" />
    <glyph glyph-name="Hcircumflex" unicode="&#x124;" horiz-adv-x="1394" 
d="M1200 0h-139l144 677h-841l-145 -677h-139l307 1443h139l-136 -642h841l137 642h139zM1070 1852l212 -294h-121l-148 210h-5l-238 -210h-140l337 294h103z" />
    <glyph glyph-name="hcircumflex" unicode="&#x125;" horiz-adv-x="1087" 
d="M58 0l308 1443h134l-125 -583h4q52 87 144 142t210 55q149 0 243 -91t94 -223q0 -51 -12 -113l-138 -630h-132l132 606q12 57 12 101q0 105 -68 168.5t-184 63.5q-131 0 -228 -86.5t-125 -221.5l-135 -631h-134zM562 1852l212 -294h-121l-148 210h-5l-238 -210h-140
l337 294h103z" />
    <glyph glyph-name="Hbar" unicode="&#x126;" horiz-adv-x="1394" 
d="M1231 801l59 277h-841l-59 -277h841zM1557 1202l-26 -124h-102l-229 -1078h-139l144 677h-841l-145 -677h-139l229 1078h-103l26 124h104l51 241h139l-51 -241h842l51 241h139l-51 -241h101z" />
    <glyph glyph-name="hbar" unicode="&#x127;" horiz-adv-x="1087" 
d="M375 860h4q52 87 144 142t210 55q149 0 243 -91t94 -223q0 -51 -12 -113l-138 -630h-132l132 606q12 57 12 101q0 105 -68 168.5t-184 63.5q-131 0 -228 -86.5t-125 -221.5l-135 -631h-134l260 1217h-116l20 96h116l28 130h134l-28 -130h257l-20 -96h-257z" />
    <glyph glyph-name="Itilde" unicode="&#x128;" horiz-adv-x="413" 
d="M219 0h-139l307 1443h139zM627 1549q-37 0 -67.5 16t-51 39.5t-39.5 46.5t-41 39t-47 16q-39 0 -70.5 -38.5t-43.5 -108.5h-93q19 111 77 174t137 63q38 0 69.5 -16t52.5 -39t39.5 -46.5t40 -39.5t44.5 -16q37 0 67 38t45 109h93q-22 -111 -79 -174t-133 -63z" />
    <glyph glyph-name="itilde" unicode="&#x129;" horiz-adv-x="378" 
d="M65 0l221 1040h134l-221 -1040h-134zM537 1228q-37 0 -67.5 16t-51 39t-39.5 46.5t-41 39.5t-47 16q-39 0 -70.5 -38.5t-43.5 -108.5h-93q19 111 77 174t137 63q38 0 69.5 -16t52.5 -39.5t39.5 -46.5t40 -39t44.5 -16q37 0 67 38t45 109h93q-22 -111 -79 -174t-133 -63z
" />
    <glyph glyph-name="Imacron" unicode="&#x12a;" horiz-adv-x="413" 
d="M219 0h-139l307 1443h139zM825 1720l-20 -92h-617l20 92h617z" />
    <glyph glyph-name="imacron" unicode="&#x12b;" horiz-adv-x="378" 
d="M65 0l221 1040h134l-221 -1040h-134zM609 1381l-16 -92h-451l16 92h451z" />
    <glyph glyph-name="Ibreve" unicode="&#x12c;" horiz-adv-x="413" 
d="M219 0h-139l307 1443h139zM229 1822h100q-6 -18 -6 -38q0 -71 46.5 -111.5t126.5 -40.5q88 0 152 51t80 139h100q-24 -130 -116 -203t-232 -73q-112 0 -185 61t-73 161q0 30 7 54z" />
    <glyph glyph-name="ibreve" unicode="&#x12d;" horiz-adv-x="378" 
d="M65 0l221 1040h134l-221 -1040h-134zM140 1501h99q-6 -26 -6 -45q0 -71 46.5 -112.5t126.5 -41.5q89 0 152.5 54t79.5 145h99q-23 -133 -114.5 -209.5t-230.5 -76.5q-113 0 -186.5 62.5t-73.5 162.5q0 32 8 61z" />
    <glyph glyph-name="Iogonek" unicode="&#x12e;" horiz-adv-x="413" 
d="M78 -412q-79 0 -128 40.5t-49 105.5q0 122 177 258l309 1451h139l-304 -1432l-12 -8q-104 -70 -146.5 -123.5t-42.5 -106.5q0 -40 28 -63.5t76 -23.5q49 0 71 13l-19 -93q-28 -18 -99 -18z" />
    <glyph glyph-name="iogonek" unicode="&#x12f;" horiz-adv-x="362" 
d="M149 -384q-29 -19 -99 -19q-79 0 -128 40.5t-49 105.5q0 134 184 256l221 1041h134l-221 -1037l-16 -10q-84 -48 -132.5 -105.5t-48.5 -108.5q0 -38 27.5 -60.5t74.5 -22.5q48 0 72 12zM403 1230q-37 0 -63 25.5t-26 62.5t26 62.5t63 25.5q36 0 62 -25.5t26 -62.5
t-26 -62.5t-62 -25.5z" />
    <glyph glyph-name="Idotaccent" unicode="&#x130;" horiz-adv-x="413" 
d="M219 0h-139l307 1443h139zM514 1625q-43 0 -73.5 30.5t-30.5 73.5t30.5 73.5t73.5 30.5t73.5 -30.5t30.5 -73.5t-30.5 -73.5t-73.5 -30.5z" />
    <glyph glyph-name="dotlessi" unicode="&#x131;" horiz-adv-x="378" 
d="M65 0l221 1040h134l-221 -1040h-134z" />
    <glyph glyph-name="IJ" unicode="&#x132;" horiz-adv-x="1409" 
d="M219 0h-139l307 1443h139zM478 318v22h138v-6q0 -104 68.5 -166.5t181.5 -62.5q115 0 190 73.5t105 216.5l222 1048h139l-229 -1083q-39 -183 -153 -283t-288 -100q-163 0 -268.5 97t-105.5 244z" />
    <glyph glyph-name="ij" unicode="&#x133;" horiz-adv-x="746" 
d="M62 0l221 1040h134l-221 -1040h-134zM409 1230q-37 0 -63 25.5t-26 62.5t26 62.5t63 25.5q36 0 62 -25.5t26 -62.5t-26 -62.5t-62 -25.5zM789 1230q-37 0 -63 25.5t-26 62.5t26 62.5t63 25.5q36 0 62 -25.5t26 -62.5t-26 -62.5t-62 -25.5zM791 1040l-241 -1129
q-30 -139 -107 -202t-210 -64q-40 0 -75 4l26 115q30 -3 52 -3q80 0 122 38.5t61 128.5l238 1112h134z" />
    <glyph glyph-name="Jcircumflex" unicode="&#x134;" horiz-adv-x="996" 
d="M65 318v22h138v-6q0 -104 68.5 -166.5t181.5 -62.5q115 0 190 73.5t105 216.5l222 1048h139l-229 -1083q-39 -183 -153 -283t-288 -100q-163 0 -268.5 97t-105.5 244zM1169 1852l212 -294h-121l-148 210h-5l-238 -210h-140l337 294h103z" />
    <glyph glyph-name="jcircumflex" unicode="&#x135;" horiz-adv-x="374" 
d="M419 1040l-241 -1129q-30 -139 -107.5 -202t-209.5 -64q-40 0 -75 4l26 115q30 -3 52 -3q79 0 121.5 38.5t61.5 128.5l238 1112h134zM511 1524l201 -302h-124l-142 216h-4l-234 -216h-134l330 302h107z" />
    <glyph glyph-name="Kcommaaccent" unicode="&#x136;" horiz-adv-x="1209" 
d="M219 0h-139l307 1443h139l-158 -743h4l835 743h183l-715 -640l466 -803h-159l-414 718l-241 -210zM420 -475h-104l179 351h128z" />
    <glyph glyph-name="kcommaaccent" unicode="&#x137;" horiz-adv-x="928" 
d="M192 0h-134l307 1443h134l-187 -879h4l601 476h174l-545 -436l342 -604h-149l-300 529l-160 -124zM292 -475h-104l179 351h128z" />
    <glyph glyph-name="Lacute" unicode="&#x139;" horiz-adv-x="1053" 
d="M966 124l-26 -124h-860l307 1443h139l-280 -1319h720zM545 1558h-129l304 288h158z" />
    <glyph glyph-name="lacute" unicode="&#x13a;" horiz-adv-x="379" 
d="M66 0l307 1443h134l-307 -1443h-134zM529 1558h-129l304 288h158z" />
    <glyph glyph-name="Lcommaaccent" unicode="&#x13b;" horiz-adv-x="1053" 
d="M966 124l-26 -124h-860l307 1443h139l-280 -1319h720zM350 -475h-104l179 351h128z" />
    <glyph glyph-name="lcommaaccent" unicode="&#x13c;" horiz-adv-x="379" 
d="M66 0l307 1443h134l-307 -1443h-134zM-27 -475h-104l179 351h128z" />
    <glyph glyph-name="Lcaron" unicode="&#x13d;" horiz-adv-x="1053" 
d="M892 1443h129l-132 -444h-92zM966 124l-26 -124h-860l307 1443h139l-280 -1319h720z" />
    <glyph glyph-name="lcaron" unicode="&#x13e;" horiz-adv-x="547" 
d="M666 1443h130l-132 -444h-92zM66 0l307 1443h134l-307 -1443h-134z" />
    <glyph glyph-name="Lslash" unicode="&#x141;" horiz-adv-x="1053" 
d="M246 124h720l-26 -124h-860l124 583l-152 -71l25 118l152 71l158 742h139l-142 -670l393 183l-25 -118l-393 -183z" />
    <glyph glyph-name="lslash" unicode="&#x142;" horiz-adv-x="379" 
d="M507 1443l-130 -609l120 56l-28 -132l-120 -56l-149 -702h-134l135 633l-120 -56l28 132l120 56l144 678h134z" />
    <glyph glyph-name="Nacute" unicode="&#x143;" horiz-adv-x="1400" 
d="M219 0h-139l307 1443h139l581 -1236h4l263 1236h139l-307 -1443h-139l-581 1236h-4zM1044 1558h-129l304 288h158z" />
    <glyph glyph-name="nacute" unicode="&#x144;" horiz-adv-x="1074" 
d="M56 0l221 1040h127l-39 -182h4q57 93 148 146t207 53q145 0 240 -87t95 -220q0 -52 -13 -120l-135 -630h-133l129 606q14 64 14 108q0 103 -67.5 164t-181.5 61q-127 0 -223 -85.5t-125 -222.5l-135 -631h-133zM804 1222h-127l286 302h152z" />
    <glyph glyph-name="Ncommaaccent" unicode="&#x145;" horiz-adv-x="1400" 
d="M219 0h-139l307 1443h139l581 -1236h4l263 1236h139l-307 -1443h-139l-581 1236h-4zM483 -475h-104l179 351h128z" />
    <glyph glyph-name="ncommaaccent" unicode="&#x146;" horiz-adv-x="1074" 
d="M56 0l221 1040h127l-39 -182h4q57 93 148 146t207 53q145 0 240 -87t95 -220q0 -52 -13 -120l-135 -630h-133l129 606q14 64 14 108q0 103 -67.5 164t-181.5 61q-127 0 -223 -85.5t-125 -222.5l-135 -631h-133zM323 -475h-104l179 351h128z" />
    <glyph glyph-name="Ncaron" unicode="&#x147;" horiz-adv-x="1400" 
d="M219 0h-139l307 1443h139l581 -1236h4l263 1236h139l-307 -1443h-139l-581 1236h-4zM932 1558l-212 294h122l149 -209h4l238 209h140l-337 -294h-104z" />
    <glyph glyph-name="ncaron" unicode="&#x148;" horiz-adv-x="1074" 
d="M56 0l221 1040h127l-39 -182h4q57 93 148 146t207 53q145 0 240 -87t95 -220q0 -52 -13 -120l-135 -630h-133l129 606q14 64 14 108q0 103 -67.5 164t-181.5 61q-127 0 -223 -85.5t-125 -222.5l-135 -631h-133zM807 1222h-107l-201 302h121l140 -219h5l235 219h138z" />
    <glyph glyph-name="Omacron" unicode="&#x14c;" horiz-adv-x="1491" 
d="M918 1339q-172 0 -310.5 -98t-215.5 -266t-77 -370q0 -230 122.5 -365.5t327.5 -135.5q129 0 242 57.5t191.5 156t124 234t45.5 286.5q0 230 -122.5 365.5t-327.5 135.5zM764 -22q-266 0 -427.5 170t-161.5 451q0 178 56.5 338t154.5 276t237 184t297 68
q265 0 426.5 -170t161.5 -451q0 -178 -56.5 -338t-154 -276t-236.5 -184t-297 -68zM1301 1720l-20 -92h-617l20 92h617z" />
    <glyph glyph-name="omacron" unicode="&#x14d;" horiz-adv-x="1089" 
d="M547 100q171 0 285 144t114 359q0 153 -80.5 245t-215.5 92q-172 0 -286 -144t-114 -359q0 -153 80.5 -245t216.5 -92zM650 1057q196 0 313 -123t117 -327q0 -174 -69.5 -317t-192 -225t-271.5 -82q-196 0 -313.5 123t-117.5 327q0 174 69.5 317t192 225t272.5 82z
M1018 1381l-19 -92h-550l19 92h550z" />
    <glyph glyph-name="Obreve" unicode="&#x14e;" horiz-adv-x="1491" 
d="M918 1339q-172 0 -310.5 -98t-215.5 -266t-77 -370q0 -230 122.5 -365.5t327.5 -135.5q129 0 242 57.5t191.5 156t124 234t45.5 286.5q0 230 -122.5 365.5t-327.5 135.5zM764 -22q-266 0 -427.5 170t-161.5 451q0 178 56.5 338t154.5 276t237 184t297 68
q265 0 426.5 -170t161.5 -451q0 -178 -56.5 -338t-154 -276t-236.5 -184t-297 -68zM705 1822h100q-6 -18 -6 -38q0 -71 46.5 -111.5t126.5 -40.5q88 0 152 51t80 139h100q-24 -130 -116 -203t-232 -73q-112 0 -185 61t-73 161q0 30 7 54z" />
    <glyph glyph-name="obreve" unicode="&#x14f;" horiz-adv-x="1089" 
d="M547 100q171 0 285 144t114 359q0 153 -80.5 245t-215.5 92q-172 0 -286 -144t-114 -359q0 -153 80.5 -245t216.5 -92zM650 1057q196 0 313 -123t117 -327q0 -174 -69.5 -317t-192 -225t-271.5 -82q-196 0 -313.5 123t-117.5 327q0 174 69.5 317t192 225t272.5 82z
M457 1501h99q-6 -26 -6 -45q0 -71 46.5 -112.5t126.5 -41.5q89 0 152.5 54t79.5 145h99q-23 -133 -114.5 -209.5t-230.5 -76.5q-113 0 -186.5 62.5t-73.5 162.5q0 32 8 61z" />
    <glyph glyph-name="Ohungarumlaut" unicode="&#x150;" horiz-adv-x="1491" 
d="M918 1339q-172 0 -310.5 -98t-215.5 -266t-77 -370q0 -230 122.5 -365.5t327.5 -135.5q129 0 242 57.5t191.5 156t124 234t45.5 286.5q0 230 -122.5 365.5t-327.5 135.5zM764 -22q-266 0 -427.5 170t-161.5 451q0 178 56.5 338t154.5 276t237 184t297 68
q265 0 426.5 -170t161.5 -451q0 -178 -56.5 -338t-154 -276t-236.5 -184t-297 -68zM1170 1558h-124l305 288h153zM872 1558h-124l305 288h152z" />
    <glyph glyph-name="ohungarumlaut" unicode="&#x151;" horiz-adv-x="1089" 
d="M547 100q171 0 285 144t114 359q0 153 -80.5 245t-215.5 92q-172 0 -286 -144t-114 -359q0 -153 80.5 -245t216.5 -92zM650 1057q196 0 313 -123t117 -327q0 -174 -69.5 -317t-192 -225t-271.5 -82q-196 0 -313.5 123t-117.5 327q0 174 69.5 317t192 225t272.5 82z
M790 1222l274 302h149l-306 -302h-117zM497 1222l273 302h150l-306 -302h-117z" />
    <glyph glyph-name="OE" unicode="&#x152;" horiz-adv-x="2237" 
d="M1209 0l47 218h-3q-93 -115 -221.5 -177.5t-274.5 -62.5q-266 0 -425.5 171t-159.5 455q0 141 36 272t103.5 237t158 185.5t206 123t241.5 43.5q192 0 328.5 -96.5t194.5 -270.5h3l73 345h873l-27 -124h-733l-111 -519h697l-27 -122h-696l-118 -554h734l-26 -124h-873z
M1362 836q0 230 -121 366.5t-324 136.5q-172 0 -311.5 -98t-216.5 -265t-77 -368q0 -231 121 -367.5t324 -136.5q172 0 311.5 98t216.5 265.5t77 368.5z" />
    <glyph glyph-name="oe" unicode="&#x153;" horiz-adv-x="1868" 
d="M1355 -17q-144 0 -243 70.5t-135 194.5h-4q-60 -121 -176 -193t-253 -72q-196 0 -312.5 122.5t-116.5 326.5q0 173 69 316t191.5 226t272.5 83q153 0 252 -73t137 -198h4q60 121 177 196t251 75q179 0 287.5 -117.5t108.5 -309.5q0 -73 -11 -137h-782q-4 -24 -4 -65
q0 -150 78.5 -239t212.5 -89q111 0 193 50.5t120 142.5h131q-41 -138 -165 -224t-283 -86zM1089 601h638q3 12 3 47q0 129 -74 211t-191 82q-135 0 -235.5 -92.5t-140.5 -247.5zM248 435q0 -154 80.5 -244.5t216.5 -90.5q113 0 204.5 66.5t143 182t51.5 256.5
q0 153 -80.5 244t-216.5 91q-113 0 -205 -67t-143 -182.5t-51 -255.5z" />
    <glyph glyph-name="Racute" unicode="&#x154;" horiz-adv-x="1227" 
d="M80 0l309 1443h468q203 0 315 -101.5t112 -273.5q0 -175 -108.5 -300t-296.5 -158l216 -610h-144l-207 591h-12h-386l-126 -591h-140zM502 1321l-130 -607h372q176 0 286.5 95t110.5 246q0 123 -77.5 194.5t-214.5 71.5h-347zM860 1558h-129l304 288h158z" />
    <glyph glyph-name="racute" unicode="&#x155;" horiz-adv-x="665" 
d="M56 0l221 1040h126l-33 -156h4q108 171 295 171q78 0 126 -25l-29 -127q-44 25 -131 25q-124 0 -204 -81.5t-113 -233.5l-130 -613h-132zM616 1222h-127l286 302h152z" />
    <glyph glyph-name="Rcommaaccent" unicode="&#x156;" horiz-adv-x="1227" 
d="M80 0l309 1443h468q203 0 315 -101.5t112 -273.5q0 -175 -108.5 -300t-296.5 -158l216 -610h-144l-207 591h-12h-386l-126 -591h-140zM502 1321l-130 -607h372q176 0 286.5 95t110.5 246q0 123 -77.5 194.5t-214.5 71.5h-347zM417 -475h-104l179 351h128z" />
    <glyph glyph-name="rcommaaccent" unicode="&#x157;" horiz-adv-x="665" 
d="M56 0l221 1040h126l-33 -156h4q108 171 295 171q78 0 126 -25l-29 -127q-44 25 -131 25q-124 0 -204 -81.5t-113 -233.5l-130 -613h-132zM-31 -475h-104l179 351h128z" />
    <glyph glyph-name="Rcaron" unicode="&#x158;" horiz-adv-x="1227" 
d="M80 0l309 1443h468q203 0 315 -101.5t112 -273.5q0 -175 -108.5 -300t-296.5 -158l216 -610h-144l-207 591h-12h-386l-126 -591h-140zM502 1321l-130 -607h372q176 0 286.5 95t110.5 246q0 123 -77.5 194.5t-214.5 71.5h-347zM748 1558l-212 294h122l149 -209h4l238 209
h140l-337 -294h-104z" />
    <glyph glyph-name="rcaron" unicode="&#x159;" horiz-adv-x="665" 
d="M56 0l221 1040h126l-33 -156h4q108 171 295 171q78 0 126 -25l-29 -127q-44 25 -131 25q-124 0 -204 -81.5t-113 -233.5l-130 -613h-132zM619 1222h-107l-201 302h121l140 -219h5l235 219h138z" />
    <glyph glyph-name="Sacute" unicode="&#x15a;" horiz-adv-x="1214" 
d="M105 416h137q13 -141 125 -227.5t288 -86.5q161 0 262.5 75.5t101.5 205.5q0 99 -62 160.5t-204 110.5l-107 37q-183 63 -267.5 152t-84.5 226q0 176 135.5 286t350.5 110q216 0 355 -112.5t143 -297.5h-137q-8 128 -106 207t-257 79q-158 0 -250.5 -76t-92.5 -186
q0 -91 64 -152t209 -111l108 -38q176 -59 261 -148.5t85 -221.5q0 -87 -34.5 -164t-97.5 -136.5t-160.5 -94.5t-216.5 -35q-151 0 -273 52.5t-196.5 153t-78.5 232.5zM904 1558h-129l304 288h158z" />
    <glyph glyph-name="sacute" unicode="&#x15b;" horiz-adv-x="937" 
d="M202 759q0 130 104.5 214t270.5 84q163 0 267.5 -87t109.5 -225h-127q-9 89 -78.5 145.5t-173.5 56.5q-108 0 -175.5 -50t-67.5 -127q0 -61 42.5 -100t146.5 -73l90 -29q141 -46 202 -109.5t61 -164.5q0 -136 -110.5 -223.5t-281.5 -87.5q-177 0 -291 89.5t-122 229.5
h133q14 -94 90.5 -151.5t195.5 -57.5q110 0 181.5 55.5t71.5 138.5q0 61 -40.5 96t-150.5 71l-90 30q-136 44 -197 109t-61 166zM695 1222h-127l286 302h152z" />
    <glyph glyph-name="Scircumflex" unicode="&#x15c;" horiz-adv-x="1214" 
d="M105 416h137q13 -141 125 -227.5t288 -86.5q161 0 262.5 75.5t101.5 205.5q0 99 -62 160.5t-204 110.5l-107 37q-183 63 -267.5 152t-84.5 226q0 176 135.5 286t350.5 110q216 0 355 -112.5t143 -297.5h-137q-8 128 -106 207t-257 79q-158 0 -250.5 -76t-92.5 -186
q0 -91 64 -152t209 -111l108 -38q176 -59 261 -148.5t85 -221.5q0 -87 -34.5 -164t-97.5 -136.5t-160.5 -94.5t-216.5 -35q-151 0 -273 52.5t-196.5 153t-78.5 232.5zM944 1852l212 -294h-121l-148 210h-5l-238 -210h-140l337 294h103z" />
    <glyph glyph-name="scircumflex" unicode="&#x15d;" horiz-adv-x="937" 
d="M202 759q0 130 104.5 214t270.5 84q163 0 267.5 -87t109.5 -225h-127q-9 89 -78.5 145.5t-173.5 56.5q-108 0 -175.5 -50t-67.5 -127q0 -61 42.5 -100t146.5 -73l90 -29q141 -46 202 -109.5t61 -164.5q0 -136 -110.5 -223.5t-281.5 -87.5q-177 0 -291 89.5t-122 229.5
h133q14 -94 90.5 -151.5t195.5 -57.5q110 0 181.5 55.5t71.5 138.5q0 61 -40.5 96t-150.5 71l-90 30q-136 44 -197 109t-61 166zM754 1524l201 -302h-124l-142 216h-4l-234 -216h-134l330 302h107z" />
    <glyph glyph-name="Scedilla" unicode="&#x15e;" horiz-adv-x="1214" 
d="M708 816l108 -38q176 -59 261 -148.5t85 -221.5q0 -84 -32.5 -160t-93 -135t-153.5 -95t-206 -40l-71 -118q89 -1 138 -39.5t49 -108.5q0 -85 -64 -136.5t-168 -51.5q-100 0 -173 33l19 90q68 -30 145 -30q63 0 99 22.5t36 64.5q0 78 -151 82l-56 1l14 59l79 136
q-202 21 -332 137.5t-136 296.5h137q13 -141 125 -227.5t288 -86.5q161 0 262.5 75.5t101.5 205.5q0 99 -62 160.5t-204 110.5l-107 37q-183 63 -267.5 152t-84.5 226q0 176 135.5 286t350.5 110q216 0 355 -112.5t143 -297.5h-137q-8 128 -106 207t-257 79
q-158 0 -250.5 -76t-92.5 -186q0 -91 64 -152t209 -111z" />
    <glyph glyph-name="scedilla" unicode="&#x15f;" horiz-adv-x="937" 
d="M521 597l90 -29q141 -46 202 -109.5t61 -164.5q0 -130 -102.5 -216.5t-263.5 -93.5l-74 -124q89 -1 138 -39.5t49 -108.5q0 -85 -64 -136.5t-168 -51.5q-100 0 -173 33l19 90q68 -30 145 -30q63 0 99 22.5t36 64.5q0 78 -151 82l-56 1l14 59l82 142q-146 19 -237 105
t-98 209h133q14 -94 90.5 -151.5t195.5 -57.5q110 0 181.5 55.5t71.5 138.5q0 61 -40.5 96t-150.5 71l-90 30q-136 44 -197 109t-61 166q0 130 104.5 214t270.5 84q163 0 267.5 -87t109.5 -225h-127q-9 89 -78.5 145.5t-173.5 56.5q-108 0 -175.5 -50t-67.5 -127
q0 -61 42.5 -100t146.5 -73z" />
    <glyph glyph-name="Scaron" unicode="&#x160;" horiz-adv-x="1214" 
d="M105 416h137q13 -141 125 -227.5t288 -86.5q161 0 262.5 75.5t101.5 205.5q0 99 -62 160.5t-204 110.5l-107 37q-183 63 -267.5 152t-84.5 226q0 176 135.5 286t350.5 110q216 0 355 -112.5t143 -297.5h-137q-8 128 -106 207t-257 79q-158 0 -250.5 -76t-92.5 -186
q0 -91 64 -152t209 -111l108 -38q176 -59 261 -148.5t85 -221.5q0 -87 -34.5 -164t-97.5 -136.5t-160.5 -94.5t-216.5 -35q-151 0 -273 52.5t-196.5 153t-78.5 232.5zM792 1558l-212 294h122l149 -209h4l238 209h140l-337 -294h-104z" />
    <glyph glyph-name="scaron" unicode="&#x161;" horiz-adv-x="937" 
d="M202 759q0 130 104.5 214t270.5 84q163 0 267.5 -87t109.5 -225h-127q-9 89 -78.5 145.5t-173.5 56.5q-108 0 -175.5 -50t-67.5 -127q0 -61 42.5 -100t146.5 -73l90 -29q141 -46 202 -109.5t61 -164.5q0 -136 -110.5 -223.5t-281.5 -87.5q-177 0 -291 89.5t-122 229.5
h133q14 -94 90.5 -151.5t195.5 -57.5q110 0 181.5 55.5t71.5 138.5q0 61 -40.5 96t-150.5 71l-90 30q-136 44 -197 109t-61 166zM698 1222h-107l-201 302h121l140 -219h5l235 219h138z" />
    <glyph glyph-name="Tcedilla" unicode="&#x162;" horiz-adv-x="1188" 
d="M292 1443h1104l-26 -124h-482l-279 -1310l-1 -9l-84 -140q89 -1 138 -39.5t49 -108.5q0 -85 -64 -136.5t-168 -51.5q-100 0 -173 33l19 90q68 -30 145 -30q63 0 99 22.5t36 64.5q0 78 -151 82l-56 1l14 59l89 154h-33l280 1319h-482z" />
    <glyph glyph-name="tcedilla" unicode="&#x163;" horiz-adv-x="582" 
d="M441 929l-130 -613q-12 -51 -12 -88q0 -59 38.5 -88.5t107.5 -29.5q44 0 68 3l-24 -112q-42 -7 -89 -7h-14l-81 -134q89 -1 138 -39.5t49 -108.5q0 -85 -64 -136.5t-168 -51.5q-100 0 -173 33l19 90q68 -30 145 -30q63 0 99 22.5t36 64.5q0 78 -151 82l-56 1l14 59
l95 164h3q-132 45 -132 181q0 37 11 89l138 649h-152l23 111h153l55 266h134l-57 -266h224l-23 -111h-224z" />
    <glyph glyph-name="Tcaron" unicode="&#x164;" horiz-adv-x="1188" 
d="M607 0h-139l280 1319h-482l26 124h1104l-26 -124h-482zM824 1558l-212 294h122l149 -209h4l238 209h140l-337 -294h-104z" />
    <glyph glyph-name="tcaron" unicode="&#x165;" horiz-adv-x="653" 
d="M744 1642h129l-132 -444h-92zM400 -6q-109 0 -175 51t-66 146q0 37 11 89l138 649h-152l23 111h153l55 266h134l-57 -266h224l-23 -111h-224l-130 -613q-12 -51 -12 -88q0 -59 38.5 -88.5t107.5 -29.5q44 0 68 3l-24 -112q-42 -7 -89 -7z" />
    <glyph glyph-name="Tbar" unicode="&#x166;" horiz-adv-x="1188" 
d="M1370 1319h-482l-114 -534h384l-26 -124h-384l-141 -661h-139l140 661h-359l26 124h360l113 534h-482l26 124h1104z" />
    <glyph glyph-name="tbar" unicode="&#x167;" horiz-adv-x="582" 
d="M665 929h-224l-64 -301h245l-24 -112h-245l-42 -200q-12 -51 -12 -88q0 -59 38.5 -88.5t107.5 -29.5q44 0 68 3l-24 -112q-42 -7 -89 -7q-109 0 -175 51t-66 146q0 37 11 89l50 236h-153l24 112h153l64 301h-152l23 111h153l55 266h134l-57 -266h224z" />
    <glyph glyph-name="Utilde" unicode="&#x168;" horiz-adv-x="1399" 
d="M682 -22q-230 0 -362 123t-134 316q-1 63 13 135l189 891h139l-187 -884q-15 -69 -13 -134q4 -148 102 -234.5t275 -86.5t301.5 102.5t163.5 281.5l204 955h139l-209 -980q-49 -232 -208 -358.5t-413 -126.5zM1109 1549q-37 0 -67.5 16t-51 39.5t-39.5 46.5t-41 39
t-47 16q-39 0 -70.5 -38.5t-43.5 -108.5h-93q19 111 77 174t137 63q38 0 69.5 -16t52.5 -39t39.5 -46.5t40 -39.5t44.5 -16q37 0 67 38t45 109h93q-22 -111 -79 -174t-133 -63z" />
    <glyph glyph-name="utilde" unicode="&#x169;" horiz-adv-x="1073" 
d="M1125 1040l-221 -1040h-127l38 171h-4q-48 -79 -145 -133.5t-214 -54.5q-148 0 -238 84.5t-90 212.5q0 61 14 133l132 627h134l-129 -606q-14 -67 -14 -114q0 -107 61.5 -163t177.5 -56q133 0 231.5 87t126.5 221l135 631h132zM870 1228q-37 0 -67.5 16t-51 39
t-39.5 46.5t-41 39.5t-47 16q-39 0 -70.5 -38.5t-43.5 -108.5h-93q19 111 77 174t137 63q38 0 69.5 -16t52.5 -39.5t39.5 -46.5t40 -39t44.5 -16q37 0 67 38t45 109h93q-22 -111 -79 -174t-133 -63z" />
    <glyph glyph-name="Umacron" unicode="&#x16a;" horiz-adv-x="1399" 
d="M682 -22q-230 0 -362 123t-134 316q-1 63 13 135l189 891h139l-187 -884q-15 -69 -13 -134q4 -148 102 -234.5t275 -86.5t301.5 102.5t163.5 281.5l204 955h139l-209 -980q-49 -232 -208 -358.5t-413 -126.5zM1307 1720l-20 -92h-617l20 92h617z" />
    <glyph glyph-name="umacron" unicode="&#x16b;" horiz-adv-x="1073" 
d="M1125 1040l-221 -1040h-127l38 171h-4q-48 -79 -145 -133.5t-214 -54.5q-148 0 -238 84.5t-90 212.5q0 61 14 133l132 627h134l-129 -606q-14 -67 -14 -114q0 -107 61.5 -163t177.5 -56q133 0 231.5 87t126.5 221l135 631h132zM1034 1381l-19 -92h-550l19 92h550z" />
    <glyph glyph-name="Ubreve" unicode="&#x16c;" horiz-adv-x="1399" 
d="M682 -22q-230 0 -362 123t-134 316q-1 63 13 135l189 891h139l-187 -884q-15 -69 -13 -134q4 -148 102 -234.5t275 -86.5t301.5 102.5t163.5 281.5l204 955h139l-209 -980q-49 -232 -208 -358.5t-413 -126.5zM711 1822h100q-6 -18 -6 -38q0 -71 46.5 -111.5t126.5 -40.5
q88 0 152 51t80 139h100q-24 -130 -116 -203t-232 -73q-112 0 -185 61t-73 161q0 30 7 54z" />
    <glyph glyph-name="ubreve" unicode="&#x16d;" horiz-adv-x="1073" 
d="M1125 1040l-221 -1040h-127l38 171h-4q-48 -79 -145 -133.5t-214 -54.5q-148 0 -238 84.5t-90 212.5q0 61 14 133l132 627h134l-129 -606q-14 -67 -14 -114q0 -107 61.5 -163t177.5 -56q133 0 231.5 87t126.5 221l135 631h132zM473 1501h99q-6 -26 -6 -45
q0 -71 46.5 -112.5t126.5 -41.5q89 0 152.5 54t79.5 145h99q-23 -133 -114.5 -209.5t-230.5 -76.5q-113 0 -186.5 62.5t-73.5 162.5q0 32 8 61z" />
    <glyph glyph-name="Uring" unicode="&#x16e;" horiz-adv-x="1399" 
d="M682 -22q-230 0 -362 123t-134 316q-1 63 13 135l189 891h139l-187 -884q-15 -69 -13 -134q4 -148 102 -234.5t275 -86.5t301.5 102.5t163.5 281.5l204 955h139l-209 -980q-49 -232 -208 -358.5t-413 -126.5zM996 1559q-75 0 -127.5 49t-52.5 127q0 81 53.5 134.5
t131.5 53.5q77 0 129 -48.5t51 -127.5q-1 -82 -53.5 -135t-131.5 -53zM996 1629q50 0 81.5 32.5t30.5 83.5q-1 48 -30.5 78t-76.5 30q-49 0 -80.5 -32t-31.5 -84q0 -48 30.5 -78t76.5 -30z" />
    <glyph glyph-name="uring" unicode="&#x16f;" horiz-adv-x="1073" 
d="M1125 1040l-221 -1040h-127l38 171h-4q-48 -79 -145 -133.5t-214 -54.5q-148 0 -238 84.5t-90 212.5q0 61 14 133l132 627h134l-129 -606q-14 -67 -14 -114q0 -107 61.5 -163t177.5 -56q133 0 231.5 87t126.5 221l135 631h132zM744 1156q-75 0 -127.5 49t-52.5 127
q0 81 53.5 134.5t131.5 53.5q77 0 129 -48.5t51 -127.5q-1 -82 -53.5 -135t-131.5 -53zM744 1226q50 0 81.5 32.5t30.5 83.5q-1 48 -30.5 78t-76.5 30q-49 0 -80.5 -32t-31.5 -84q0 -48 30.5 -78t76.5 -30z" />
    <glyph glyph-name="Uhungarumlaut" unicode="&#x170;" horiz-adv-x="1399" 
d="M682 -22q-230 0 -362 123t-134 316q-1 63 13 135l189 891h139l-187 -884q-15 -69 -13 -134q4 -148 102 -234.5t275 -86.5t301.5 102.5t163.5 281.5l204 955h139l-209 -980q-49 -232 -208 -358.5t-413 -126.5zM1177 1558h-124l305 288h153zM879 1558h-124l305 288h152z
" />
    <glyph glyph-name="uhungarumlaut" unicode="&#x171;" horiz-adv-x="1073" 
d="M1125 1040l-221 -1040h-127l38 171h-4q-48 -79 -145 -133.5t-214 -54.5q-148 0 -238 84.5t-90 212.5q0 61 14 133l132 627h134l-129 -606q-14 -67 -14 -114q0 -107 61.5 -163t177.5 -56q133 0 231.5 87t126.5 221l135 631h132zM806 1222l274 302h149l-306 -302h-117z
M513 1222l273 302h150l-306 -302h-117z" />
    <glyph glyph-name="Uogonek" unicode="&#x172;" horiz-adv-x="1399" 
d="M849 -394q-26 -18 -98 -18q-79 0 -128 40.5t-49 105.5q0 67 47.5 127.5t149.5 120.5v3q-32 -8 -89 -8q-233 0 -364 122.5t-132 317.5q-1 62 13 132l189 894h139l-187 -887q-14 -72 -13 -132q3 -150 100 -235t277 -85q176 0 301.5 103.5t163.5 283.5l204 952h140
l-209 -978q-64 -291 -320 -427q-290 -154 -290 -267q0 -39 28.5 -62t75.5 -23q45 0 71 13z" />
    <glyph glyph-name="uogonek" unicode="&#x173;" horiz-adv-x="1074" 
d="M811 -384q-29 -19 -99 -19q-79 0 -128 40.5t-49 105.5q0 151 245 271l35 157h-4q-48 -79 -145 -133.5t-214 -54.5q-148 0 -238 84.5t-90 212.5q0 61 14 133l132 627h134l-129 -606q-14 -67 -14 -114q0 -107 61.5 -163t177.5 -56q133 0 231 87t127 221l135 631h132
l-223 -1047l-5 -3q-118 -50 -179.5 -104t-61.5 -107q0 -38 27.5 -60.5t74.5 -22.5q43 0 73 12z" />
    <glyph glyph-name="Wcircumflex" unicode="&#x174;" horiz-adv-x="1845" 
d="M1118 1212l-605 -1212h-134l-90 1443h129l68 -1225h4l608 1225h129l101 -1224h4l580 1224h145l-698 -1443h-133l-104 1212h-4zM1292 1852l212 -294h-121l-148 210h-5l-238 -210h-140l337 294h103z" />
    <glyph glyph-name="wcircumflex" unicode="&#x175;" horiz-adv-x="1427" 
d="M1573 1040l-513 -1040h-142l-72 865h-4l-433 -865h-147l-74 1040h121l57 -888h3l438 888h137l69 -888h4l423 888h133zM1032 1524l201 -302h-124l-142 216h-4l-234 -216h-134l330 302h107z" />
    <glyph glyph-name="Ycircumflex" unicode="&#x176;" 
d="M624 0h-140l132 631l-342 812h145l288 -691h4l574 691h160l-693 -831zM987 1852l212 -294h-121l-148 210h-5l-238 -210h-140l337 294h103z" />
    <glyph glyph-name="ycircumflex" unicode="&#x177;" horiz-adv-x="941" 
d="M89 -369q-54 0 -97 13l20 112q39 -13 80 -13q124 0 218 179l41 76l-173 1042h132l138 -896h4l494 896h147l-663 -1160q-81 -143 -158.5 -196t-182.5 -53zM782 1524l201 -302h-124l-142 216h-4l-234 -216h-134l330 302h107z" />
    <glyph glyph-name="Ydieresis" unicode="&#x178;" 
d="M624 0h-140l132 631l-342 812h145l288 -691h4l574 691h160l-693 -831zM740 1612q-37 0 -64 27t-27 64q0 38 27 64.5t64 26.5q38 0 65 -26.5t27 -64.5q0 -37 -27 -64t-65 -27zM1081 1612q-38 0 -65 27t-27 64q0 38 27 64.5t65 26.5t64.5 -26.5t26.5 -64.5q0 -37 -27 -64
t-64 -27z" />
    <glyph glyph-name="Zacute" unicode="&#x179;" horiz-adv-x="1226" 
d="M31 0l21 99l1113 1217v4h-826l27 123h1010l-21 -100l-1111 -1216l-1 -4h865l-26 -123h-1051zM947 1558h-129l304 288h158z" />
    <glyph glyph-name="zacute" unicode="&#x17a;" horiz-adv-x="947" 
d="M19 0l22 99l796 826l1 4h-620l25 111h789l-23 -101l-793 -824l-1 -4h620l-24 -111h-792zM734 1222h-127l286 302h152z" />
    <glyph glyph-name="Zdotaccent" unicode="&#x17b;" horiz-adv-x="1226" 
d="M31 0l21 99l1113 1217v4h-826l27 123h1010l-21 -100l-1111 -1216l-1 -4h865l-26 -123h-1051zM916 1625q-43 0 -73.5 30.5t-30.5 73.5t30.5 73.5t73.5 30.5t73.5 -30.5t30.5 -73.5t-30.5 -73.5t-73.5 -30.5z" />
    <glyph glyph-name="zdotaccent" unicode="&#x17c;" horiz-adv-x="947" 
d="M19 0l22 99l796 826l1 4h-620l25 111h789l-23 -101l-793 -824l-1 -4h620l-24 -111h-792zM694 1222q-43 0 -73.5 30.5t-30.5 73.5t30.5 73.5t73.5 30.5t73.5 -30.5t30.5 -73.5t-30.5 -73.5t-73.5 -30.5z" />
    <glyph glyph-name="Zcaron" unicode="&#x17d;" horiz-adv-x="1226" 
d="M31 0l21 99l1113 1217v4h-826l27 123h1010l-21 -100l-1111 -1216l-1 -4h865l-26 -123h-1051zM836 1558l-212 294h122l149 -209h4l238 209h140l-337 -294h-104z" />
    <glyph glyph-name="zcaron" unicode="&#x17e;" horiz-adv-x="947" 
d="M19 0l22 99l796 826l1 4h-620l25 111h789l-23 -101l-793 -824l-1 -4h620l-24 -111h-792zM737 1222h-107l-201 302h121l140 -219h5l235 219h138z" />
    <glyph glyph-name="uni04D8" unicode="&#x18f;" horiz-adv-x="1436" 
d="M700 -22q-271 0 -413 165.5t-121 458.5q0 61 14 128h1114q7 41 7 75q14 248 -96.5 389.5t-328.5 141.5q-146 0 -264 -63.5t-189 -180.5h-149q80 171 243 272t362 101q283 0 429.5 -174.5t131.5 -479.5q-10 -243 -109 -433.5t-263.5 -295t-367.5 -104.5zM706 106
q202 0 358 138t207 368h-960q-8 -35 -8 -88q0 -197 105.5 -307.5t297.5 -110.5z" />
    <glyph glyph-name="uni04D8" unicode="&#x4d8;" horiz-adv-x="1436" 
d="M700 -22q-271 0 -413 165.5t-121 458.5q0 61 14 128h1114q7 41 7 75q14 248 -96.5 389.5t-328.5 141.5q-146 0 -264 -63.5t-189 -180.5h-149q80 171 243 272t362 101q283 0 429.5 -174.5t131.5 -479.5q-10 -243 -109 -433.5t-263.5 -295t-367.5 -104.5zM706 106
q202 0 358 138t207 368h-960q-8 -35 -8 -88q0 -197 105.5 -307.5t297.5 -110.5z" />
    <glyph glyph-name="florin" unicode="&#x192;" 
d="M200 -12q-110 0 -211 42l29 121q82 -41 193 -41q103 0 168.5 50.5t108.5 164.5l159 420h-365l24 111h380l113 296q58 155 166 234.5t256 79.5q103 0 206 -36l-27 -115q-89 31 -186 31q-102 0 -178 -61t-116 -168l-100 -261h393l-24 -111h-410l-171 -458
q-55 -149 -154.5 -224t-253.5 -75z" />
    <glyph glyph-name="Ohorn" unicode="&#x1a0;" horiz-adv-x="1491" 
d="M1366 835q0 231 -121 368t-324 137q-129 0 -242.5 -57.5t-192.5 -156t-124.5 -233.5t-45.5 -285q0 -231 120.5 -367.5t324.5 -136.5q129 0 242 57.5t192.5 155.5t125 233t45.5 285zM1506 839q0 -236 -96.5 -433t-268 -312.5t-381.5 -115.5q-265 0 -424.5 170.5
t-159.5 455.5q0 236 96 433t267.5 313t381.5 116q85 0 157 -16.5t112 -36.5t90.5 -36.5t97.5 -16.5q106 0 128 106l35 170h124l-45 -217q-16 -78 -69.5 -122t-129.5 -44q-30 0 -46 9v-4q131 -165 131 -419z" />
    <glyph glyph-name="ohorn" unicode="&#x1a1;" horiz-adv-x="1132" 
d="M1079 608q0 -173 -69.5 -316.5t-192 -226t-272.5 -82.5q-196 0 -312.5 122.5t-116.5 326.5q0 173 69 316t191.5 226t272.5 83q70 0 135 -22t119 -44t96 -22q58 0 87 23.5t42 84.5l25 122h125l-38 -173q-15 -74 -62.5 -114t-112.5 -40q-45 0 -57 7v-3q71 -110 71 -268z
M250 435q0 -154 80.5 -244.5t215.5 -90.5q172 0 285.5 145t113.5 360q0 153 -80.5 244t-216.5 91q-113 0 -204.5 -67t-142.5 -182.5t-51 -255.5z" />
    <glyph glyph-name="Uhorn" unicode="&#x1af;" horiz-adv-x="1545" 
d="M679 -23q-233 0 -364 122.5t-132 317.5q-1 60 13 132l189 894h139l-187 -887q-14 -62 -14 -132q4 -150 101 -235t277 -85q176 0 301.5 103.5t163.5 283.5l204 952h163q100 0 121 94l33 158h122l-39 -182q-17 -82 -75 -126t-149 -44l-58 1l-188 -879q-49 -232 -208.5 -360
t-412.5 -128z" />
    <glyph glyph-name="uhorn" unicode="&#x1b0;" horiz-adv-x="1193" 
d="M811 171q-48 -79 -145 -133.5t-214 -54.5q-148 0 -238 84.5t-90 212.5q0 61 14 133l132 627h134l-129 -606q-14 -67 -14 -114q0 -107 61.5 -163t177.5 -56q133 0 231 87t127 221l134 631h118q61 0 91 21t40 72l27 127h125l-39 -178q-15 -68 -62 -103.5t-117 -35.5h-70
l-201 -943h-127l38 171h-4z" />
    <glyph glyph-name="uni01C4" unicode="&#x1c4;" horiz-adv-x="2617" 
d="M387 1443h422q283 0 441 -153.5t158 -423.5q0 -252 -100 -449t-283 -307t-419 -110h-524zM501 1321l-255 -1199h351q195 0 348.5 93.5t238 259.5t84.5 374q0 229 -122.5 350.5t-359.5 121.5h-285zM1422 0l21 99l1113 1217v4h-826l27 123h1010l-21 -100l-1111 -1216l-1 -4
h865l-26 -123h-1051zM2227 1558l-212 294h122l149 -209h4l238 209h140l-337 -294h-104z" />
    <glyph glyph-name="uni01C5" unicode="&#x1c5;" horiz-adv-x="2338" 
d="M387 1443h422q283 0 441 -153.5t158 -423.5q0 -252 -100 -449t-283 -307t-419 -110h-524zM501 1321l-255 -1199h351q195 0 348.5 93.5t238 259.5t84.5 374q0 229 -122.5 350.5t-359.5 121.5h-285zM1410 0l22 99l796 826l1 4h-620l25 111h789l-23 -101l-793 -824l-1 -4
h620l-24 -111h-792zM2128 1222h-107l-201 302h121l140 -219h5l235 219h138z" />
    <glyph glyph-name="uni01C6" unicode="&#x1c6;" horiz-adv-x="2077" 
d="M498 -17q-174 0 -279 120.5t-105 316.5q0 132 41.5 250.5t112.5 203t168.5 134t205.5 49.5q132 0 229 -75.5t117 -191.5h5l140 653h133l-307 -1443h-134l41 195h-4q-54 -94 -154 -153t-210 -59zM528 100q175 0 291 150.5t116 368.5q0 143 -79.5 231.5t-212.5 88.5
q-165 0 -280.5 -148t-115.5 -364q0 -150 75.5 -238.5t205.5 -88.5zM1150 0l22 99l796 826l1 4h-620l25 111h789l-23 -101l-793 -824l-1 -4h620l-24 -111h-792zM1868 1222h-107l-201 302h121l140 -219h5l235 219h138z" />
    <glyph glyph-name="uni01C7" unicode="&#x1c7;" horiz-adv-x="2049" 
d="M966 124l-26 -124h-860l307 1443h139l-280 -1319h720zM1118 318v22h138v-6q0 -104 68.5 -166.5t181.5 -62.5q115 0 190 73.5t105 216.5l222 1048h139l-229 -1083q-39 -183 -153 -283t-288 -100q-163 0 -268.5 97t-105.5 244z" />
    <glyph glyph-name="uni01C8" unicode="&#x1c8;" horiz-adv-x="1425" 
d="M966 124l-26 -124h-860l307 1443h139l-280 -1319h720zM1469 1230q-37 0 -63 25.5t-26 62.5t26 62.5t63 25.5q36 0 62 -25.5t26 -62.5t-26 -62.5t-62 -25.5zM1471 1040l-241 -1129q-30 -139 -107 -202t-210 -64q-40 0 -75 4l26 115q30 -3 52 -3q80 0 122 38.5t61 128.5
l238 1112h134z" />
    <glyph glyph-name="uni01C9" unicode="&#x1c9;" horiz-adv-x="752" 
d="M66 0l307 1443h134l-307 -1443h-134zM795 1230q-37 0 -63 25.5t-26 62.5t26 62.5t63 25.5q36 0 62 -25.5t26 -62.5t-26 -62.5t-62 -25.5zM797 1040l-241 -1129q-30 -139 -107 -202t-210 -64q-40 0 -75 4l26 115q30 -3 52 -3q80 0 122 38.5t61 128.5l238 1112h134z" />
    <glyph glyph-name="uni01CA" unicode="&#x1ca;" horiz-adv-x="2396" 
d="M219 0h-139l307 1443h139l581 -1236h4l263 1236h139l-307 -1443h-139l-581 1236h-4zM1465 318v22h138v-6q0 -104 68.5 -166.5t181.5 -62.5q115 0 190 73.5t105 216.5l222 1048h139l-229 -1083q-39 -183 -153 -283t-288 -100q-163 0 -268.5 97t-105.5 244z" />
    <glyph glyph-name="uni01CB" unicode="&#x1cb;" horiz-adv-x="1773" 
d="M219 0h-139l307 1443h139l581 -1236h4l263 1236h139l-307 -1443h-139l-581 1236h-4zM1816 1230q-37 0 -63 25.5t-26 62.5t26 62.5t63 25.5q36 0 62 -25.5t26 -62.5t-26 -62.5t-62 -25.5zM1818 1040l-241 -1129q-30 -139 -107 -202t-210 -64q-40 0 -75 4l26 115
q30 -3 52 -3q80 0 122 38.5t61 128.5l238 1112h134z" />
    <glyph glyph-name="uni01CC" unicode="&#x1cc;" horiz-adv-x="1447" 
d="M56 0l221 1040h127l-39 -182h4q57 93 148 146t207 53q145 0 240 -87t95 -220q0 -52 -13 -120l-135 -630h-133l129 606q14 64 14 108q0 103 -67.5 164t-181.5 61q-127 0 -223 -85.5t-125 -222.5l-135 -631h-133zM1490 1230q-37 0 -63 25.5t-26 62.5t26 62.5t63 25.5
q36 0 62 -25.5t26 -62.5t-26 -62.5t-62 -25.5zM1492 1040l-241 -1129q-30 -139 -107 -202t-210 -64q-40 0 -75 4l26 115q30 -3 52 -3q80 0 122 38.5t61 128.5l238 1112h134z" />
    <glyph glyph-name="Acaron" unicode="&#x1cd;" horiz-adv-x="1261" 
d="M848 1274l-408 -714h525l-113 714h-4zM1051 0l-68 443h-609l-256 -443h-151l844 1443h138l232 -1443h-130zM854 1558l-212 294h122l149 -209h4l238 209h140l-337 -294h-104z" />
    <glyph glyph-name="acaron" unicode="&#x1ce;" horiz-adv-x="1001" 
d="M435 97q126 0 223.5 75t123.5 192l31 141l-310 -17q-140 -8 -216 -62.5t-76 -147.5q0 -82 62 -131.5t162 -49.5zM402 -17q-139 0 -232 79t-93 202q0 149 111.5 234t315.5 96l331 18l16 74q6 26 6 63q0 89 -61.5 140t-172.5 51q-116 0 -191 -53.5t-95 -145.5h-138
q25 142 142.5 229t291.5 87q161 0 259 -80t98 -210q0 -46 -8 -89l-144 -678h-128l33 153h-3q-55 -79 -144.5 -124.5t-193.5 -45.5zM744 1222h-107l-201 302h121l140 -219h5l235 219h138z" />
    <glyph glyph-name="Icaron" unicode="&#x1cf;" horiz-adv-x="413" 
d="M219 0h-139l307 1443h139zM434 1558l-212 294h122l149 -209h4l238 209h140l-337 -294h-104z" />
    <glyph glyph-name="icaron" unicode="&#x1d0;" horiz-adv-x="378" 
d="M65 0l221 1040h134l-221 -1040h-134zM454 1222h-107l-201 302h121l140 -219h5l235 219h138z" />
    <glyph glyph-name="Ocaron" unicode="&#x1d1;" horiz-adv-x="1491" 
d="M918 1339q-172 0 -310.5 -98t-215.5 -266t-77 -370q0 -230 122.5 -365.5t327.5 -135.5q129 0 242 57.5t191.5 156t124 234t45.5 286.5q0 230 -122.5 365.5t-327.5 135.5zM764 -22q-266 0 -427.5 170t-161.5 451q0 178 56.5 338t154.5 276t237 184t297 68
q265 0 426.5 -170t161.5 -451q0 -178 -56.5 -338t-154 -276t-236.5 -184t-297 -68zM910 1558l-212 294h122l149 -209h4l238 209h140l-337 -294h-104z" />
    <glyph glyph-name="ocaron" unicode="&#x1d2;" horiz-adv-x="1089" 
d="M547 100q171 0 285 144t114 359q0 153 -80.5 245t-215.5 92q-172 0 -286 -144t-114 -359q0 -153 80.5 -245t216.5 -92zM650 1057q196 0 313 -123t117 -327q0 -174 -69.5 -317t-192 -225t-271.5 -82q-196 0 -313.5 123t-117.5 327q0 174 69.5 317t192 225t272.5 82z
M771 1222h-107l-201 302h121l140 -219h5l235 219h138z" />
    <glyph glyph-name="Ucaron" unicode="&#x1d3;" horiz-adv-x="1399" 
d="M682 -22q-230 0 -362 123t-134 316q-1 63 13 135l189 891h139l-187 -884q-15 -69 -13 -134q4 -148 102 -234.5t275 -86.5t301.5 102.5t163.5 281.5l204 955h139l-209 -980q-49 -232 -208 -358.5t-413 -126.5zM916 1558l-212 294h122l149 -209h4l238 209h140l-337 -294
h-104z" />
    <glyph glyph-name="ucaron" unicode="&#x1d4;" horiz-adv-x="1073" 
d="M1125 1040l-221 -1040h-127l38 171h-4q-48 -79 -145 -133.5t-214 -54.5q-148 0 -238 84.5t-90 212.5q0 61 14 133l132 627h134l-129 -606q-14 -67 -14 -114q0 -107 61.5 -163t177.5 -56q133 0 231.5 87t126.5 221l135 631h132zM787 1222h-107l-201 302h121l140 -219h5
l235 219h138z" />
    <glyph glyph-name="Udieresismacron" unicode="&#x1d5;" horiz-adv-x="1399" 
d="M682 -22q-230 0 -362 123t-134 316q-1 63 13 135l189 891h139l-187 -884q-15 -69 -13 -134q4 -148 102 -234.5t275 -86.5t301.5 102.5t163.5 281.5l204 955h139l-209 -980q-49 -232 -208 -358.5t-413 -126.5zM818 1730q36 0 61.5 -26t25.5 -62t-25.5 -62t-61.5 -26
q-37 0 -62.5 25.5t-25.5 62.5t25.5 62.5t62.5 25.5zM1362 1979l-20 -91h-617l20 91h617zM1146 1730q36 0 62 -25.5t26 -62.5t-26 -62.5t-62 -25.5t-62 25.5t-26 62.5t26 62.5t62 25.5z" />
    <glyph glyph-name="udieresismacron" unicode="&#x1d6;" horiz-adv-x="1073" 
d="M1125 1040l-221 -1040h-127l38 171h-4q-48 -79 -145 -133.5t-214 -54.5q-148 0 -238 84.5t-90 212.5q0 61 14 133l132 627h134l-129 -606q-14 -67 -14 -114q0 -107 61.5 -163t177.5 -56q133 0 231.5 87t126.5 221l135 631h132zM572 1209q-37 0 -64 27t-27 64
q0 38 27 64.5t64 26.5q38 0 65 -26.5t27 -64.5q0 -37 -27 -64t-65 -27zM913 1209q-38 0 -65 27t-27 64q0 38 27 64.5t65 26.5q37 0 64 -26.5t27 -64.5q0 -37 -27 -64t-64 -27zM1095 1668l-19 -92h-550l19 92h550z" />
    <glyph glyph-name="Udieresisacute" unicode="&#x1d7;" horiz-adv-x="1399" 
d="M682 -22q-230 0 -362 123t-134 316q-1 63 13 135l189 891h139l-187 -884q-15 -69 -13 -134q4 -148 102 -234.5t275 -86.5t301.5 102.5t163.5 281.5l204 955h139l-209 -980q-49 -232 -208 -358.5t-413 -126.5zM934 1805l226 211h141l-243 -211h-124zM818 1554
q-37 0 -62.5 25.5t-25.5 62.5t25.5 62.5t62.5 25.5q36 0 61.5 -26t25.5 -62t-25.5 -62t-61.5 -26zM1146 1554q-36 0 -62 25.5t-26 62.5t26 62.5t62 25.5t62 -25.5t26 -62.5t-26 -62.5t-62 -25.5z" />
    <glyph glyph-name="udieresisacute" unicode="&#x1d8;" horiz-adv-x="1073" 
d="M1125 1040l-221 -1040h-127l38 171h-4q-48 -79 -145 -133.5t-214 -54.5q-148 0 -238 84.5t-90 212.5q0 61 14 133l132 627h134l-129 -606q-14 -67 -14 -114q0 -107 61.5 -163t177.5 -56q133 0 231.5 87t126.5 221l135 631h132zM717 1512l283 298h137l-301 -298h-119z
M572 1209q-37 0 -64 27t-27 64q0 38 27 64.5t64 26.5q38 0 65 -26.5t27 -64.5q0 -37 -27 -64t-65 -27zM913 1209q-38 0 -65 27t-27 64q0 38 27 64.5t65 26.5t64.5 -26.5t26.5 -64.5t-27 -64.5t-64 -26.5z" />
    <glyph glyph-name="Udieresiscaron" unicode="&#x1d9;" horiz-adv-x="1399" 
d="M682 -22q-230 0 -362 123t-134 316q-1 63 13 135l189 891h139l-187 -884q-15 -69 -13 -134q4 -148 102 -234.5t275 -86.5t301.5 102.5t163.5 281.5l204 955h139l-209 -980q-49 -232 -208 -358.5t-413 -126.5zM956 1795l-217 223h129l149 -152h5l212 152h148l-310 -223
h-116zM818 1730q36 0 61.5 -26t25.5 -62t-25.5 -62t-61.5 -26q-37 0 -62.5 25.5t-25.5 62.5t25.5 62.5t62.5 25.5zM1146 1730q36 0 62 -25.5t26 -62.5t-26 -62.5t-62 -25.5t-62 25.5t-26 62.5t26 62.5t62 25.5z" />
    <glyph glyph-name="udieresiscaron" unicode="&#x1da;" horiz-adv-x="1073" 
d="M1125 1040l-221 -1040h-127l38 171h-4q-48 -79 -145 -133.5t-214 -54.5q-148 0 -238 84.5t-90 212.5q0 61 14 133l132 627h134l-129 -606q-14 -67 -14 -114q0 -107 61.5 -163t177.5 -56q133 0 231.5 87t126.5 221l135 631h132zM572 1209q-37 0 -64 27t-27 64
q0 38 27 64.5t64 26.5q38 0 65 -26.5t27 -64.5q0 -37 -27 -64t-65 -27zM913 1209q-38 0 -65 27t-27 64q0 38 27 64.5t65 26.5q37 0 64 -26.5t27 -64.5q0 -37 -27 -64t-64 -27zM702 1495l-213 284h120l153 -203h4l240 203h139l-335 -284h-108z" />
    <glyph glyph-name="Udieresisgrave" unicode="&#x1db;" horiz-adv-x="1399" 
d="M682 -22q-230 0 -362 123t-134 316q-1 63 13 135l189 891h139l-187 -884q-15 -69 -13 -134q4 -148 102 -234.5t275 -86.5t301.5 102.5t163.5 281.5l204 955h139l-209 -980q-49 -232 -208 -358.5t-413 -126.5zM1081 1805h-108l-160 211h127zM818 1554q-36 0 -62 25.5
t-26 62.5t26 62.5t62 25.5t61.5 -25.5t25.5 -62.5t-25.5 -62.5t-61.5 -25.5zM1146 1554q-36 0 -61.5 25.5t-25.5 62.5t25.5 62.5t61.5 25.5t62 -25.5t26 -62.5t-26 -62.5t-62 -25.5z" />
    <glyph glyph-name="udieresisgrave" unicode="&#x1dc;" horiz-adv-x="1073" 
d="M1125 1040l-221 -1040h-127l38 171h-4q-48 -79 -145 -133.5t-214 -54.5q-148 0 -238 84.5t-90 212.5q0 61 14 133l132 627h134l-129 -606q-14 -67 -14 -114q0 -107 61.5 -163t177.5 -56q133 0 231.5 87t126.5 221l135 631h132zM847 1512h-103l-176 298h119zM571 1209
q-37 0 -64 27t-27 64q0 38 27 64.5t64 26.5q38 0 65 -26.5t27 -64.5q0 -37 -27 -64t-65 -27zM912 1209q-38 0 -65 27t-27 64q0 38 27 64.5t65 26.5t64.5 -26.5t26.5 -64.5t-26.5 -64.5t-64.5 -26.5z" />
    <glyph glyph-name="uni04D9" unicode="&#x1dd;" horiz-adv-x="1055" 
d="M300 729h-131q43 146 166.5 237t285.5 91q200 0 311 -122.5t111 -321.5q0 -174 -66 -318t-185 -228t-267 -84q-191 0 -301 114.5t-110 311.5q0 75 12 139h778q4 31 4 59q0 153 -77.5 243t-210.5 90q-115 0 -198 -56t-122 -155zM526 99q134 0 231 95t130 246h-635
q-3 -15 -3 -49q0 -129 70.5 -210.5t206.5 -81.5z" />
    <glyph glyph-name="uni04D9" unicode="&#x4d9;" horiz-adv-x="1055" 
d="M300 729h-131q43 146 166.5 237t285.5 91q200 0 311 -122.5t111 -321.5q0 -174 -66 -318t-185 -228t-267 -84q-191 0 -301 114.5t-110 311.5q0 75 12 139h778q4 31 4 59q0 153 -77.5 243t-210.5 90q-115 0 -198 -56t-122 -155zM526 99q134 0 231 95t130 246h-635
q-3 -15 -3 -49q0 -129 70.5 -210.5t206.5 -81.5z" />
    <glyph glyph-name="uni04D9" unicode="&#x259;" horiz-adv-x="1055" 
d="M300 729h-131q43 146 166.5 237t285.5 91q200 0 311 -122.5t111 -321.5q0 -174 -66 -318t-185 -228t-267 -84q-191 0 -301 114.5t-110 311.5q0 75 12 139h778q4 31 4 59q0 153 -77.5 243t-210.5 90q-115 0 -198 -56t-122 -155zM526 99q134 0 231 95t130 246h-635
q-3 -15 -3 -49q0 -129 70.5 -210.5t206.5 -81.5z" />
    <glyph glyph-name="Adieresismacron" unicode="&#x1de;" horiz-adv-x="1261" 
d="M848 1274l-408 -714h525l-113 714h-4zM1051 0l-68 443h-609l-256 -443h-151l844 1443h138l232 -1443h-130zM756 1730q36 0 61.5 -26t25.5 -62t-25.5 -62t-61.5 -26q-37 0 -62.5 25.5t-25.5 62.5t25.5 62.5t62.5 25.5zM1300 1979l-20 -91h-617l20 91h617zM1084 1730
q36 0 62 -25.5t26 -62.5t-26 -62.5t-62 -25.5t-62 25.5t-26 62.5t26 62.5t62 25.5z" />
    <glyph glyph-name="adieresismacron" unicode="&#x1df;" horiz-adv-x="1001" 
d="M435 97q126 0 223.5 75t123.5 192l31 141l-310 -17q-140 -8 -216 -62.5t-76 -147.5q0 -82 62 -131.5t162 -49.5zM402 -17q-139 0 -232 79t-93 202q0 149 111.5 234t315.5 96l331 18l16 74q6 26 6 63q0 89 -61.5 140t-172.5 51q-116 0 -191 -53.5t-95 -145.5h-138
q25 142 142.5 229t291.5 87q161 0 259 -80t98 -210q0 -46 -8 -89l-144 -678h-128l33 153h-3q-55 -79 -144.5 -124.5t-193.5 -45.5zM529 1209q-37 0 -64 27t-27 64q0 38 27 64.5t64 26.5q38 0 65 -26.5t27 -64.5q0 -37 -27 -64t-65 -27zM870 1209q-38 0 -65 27t-27 64
q0 38 27 64.5t65 26.5q37 0 64 -26.5t27 -64.5q0 -37 -27 -64t-64 -27zM1052 1668l-19 -92h-550l19 92h550z" />
    <glyph glyph-name="Adotmacron" unicode="&#x1e0;" horiz-adv-x="1261" 
d="M848 1274l-408 -714h525l-113 714h-4zM1051 0l-68 443h-609l-256 -443h-151l844 1443h138l232 -1443h-130zM925 1570q-42 0 -71.5 29.5t-29.5 70.5q0 42 29.5 71.5t71.5 29.5q41 0 71 -29.5t30 -71.5q0 -41 -30 -70.5t-71 -29.5zM1300 1979l-21 -91h-616l20 91h617z" />
    <glyph glyph-name="adotmacron" unicode="&#x1e1;" horiz-adv-x="1001" 
d="M435 97q126 0 223.5 75t123.5 192l31 141l-310 -17q-140 -8 -216 -62.5t-76 -147.5q0 -82 62 -131.5t162 -49.5zM402 -17q-139 0 -232 79t-93 202q0 149 111.5 234t315.5 96l331 18l16 74q6 26 6 63q0 89 -61.5 140t-172.5 51q-116 0 -191 -53.5t-95 -145.5h-138
q25 142 142.5 229t291.5 87q161 0 259 -80t98 -210q0 -46 -8 -89l-144 -678h-128l33 153h-3q-55 -79 -144.5 -124.5t-193.5 -45.5zM700 1202q-42 0 -71 29.5t-29 71.5t29 71t71 29q43 0 72 -29t29 -71t-29 -71.5t-72 -29.5zM1052 1668l-19 -92h-550l19 92h550z" />
    <glyph glyph-name="AEmacron" unicode="&#x1e2;" horiz-adv-x="1857" 
d="M1172 1327h-161l-527 -766h525zM889 0l95 443h-578l-301 -443h-149l985 1443h1067l-27 -124h-672l-111 -526h635l-26 -122h-636l-116 -547h672l-26 -124h-812zM1740 1720l-20 -92h-617l20 92h617z" />
    <glyph glyph-name="aemacron" unicode="&#x1e3;" horiz-adv-x="1757" 
d="M1244 -17q-143 0 -239.5 70.5t-134.5 194.5h-3q-69 -131 -190 -198t-267 -67q-141 0 -233 81t-92 200q0 147 112 231.5t317 94.5l335 16l17 80q7 27 7 63q0 87 -63.5 139t-174.5 52q-116 0 -191.5 -54.5t-92.5 -144.5h-139q24 140 142 228t291 88q125 0 212 -53.5
t117 -146.5h4q68 96 165.5 148t214.5 52q178 0 286.5 -117.5t108.5 -309.5q0 -71 -10 -134h-782q-4 -40 -4 -68q0 -149 78.5 -238.5t212.5 -89.5q111 0 192.5 50.5t119.5 142.5h131q-41 -138 -164.5 -224t-282.5 -86zM978 603h638q3 15 3 45q0 129 -74 211t-191 82
q-135 0 -235.5 -91t-140.5 -247zM442 97q130 0 230 76t125 191l30 135l-319 -16q-136 -8 -213 -61.5t-77 -143.5q0 -80 61.5 -130.5t162.5 -50.5zM1366 1381l-19 -92h-550l19 92h550z" />
    <glyph glyph-name="Gcaron" unicode="&#x1e6;" horiz-adv-x="1420" 
d="M1432 721l-45 -207q-55 -254 -222.5 -395t-408.5 -141q-268 0 -425 169t-157 444q0 130 29.5 255t91 237t147.5 197t206.5 135t260.5 50q239 0 387.5 -130.5t159.5 -341.5v-10h-138q-14 164 -124 260t-286 96q-142 0 -257.5 -64.5t-187.5 -170.5t-110.5 -237t-38.5 -270
q0 -223 118.5 -358t324.5 -135q187 0 320 112t173 305l17 79h-435l26 121h574zM886 1558l-212 294h122l149 -209h4l238 209h140l-337 -294h-104z" />
    <glyph glyph-name="gcaron" unicode="&#x1e7;" horiz-adv-x="1121" 
d="M459 -385q-177 0 -294.5 85.5t-117.5 211.5h136q9 -80 85 -131.5t193 -51.5q142 0 235.5 77t128.5 223l41 182h-4q-52 -96 -150 -153.5t-208 -57.5q-177 0 -283 118t-106 316q0 120 37.5 232t103.5 199t167 139.5t219 52.5q133 0 227 -76t115 -195h5l52 254h131
l-214 -1010q-43 -201 -174.5 -308t-324.5 -107zM532 117q117 0 209.5 68.5t142 182.5t49.5 252q0 142 -81.5 230.5t-208.5 88.5q-113 0 -204 -67t-141.5 -181.5t-50.5 -252.5q0 -147 75 -234t210 -87zM810 1222h-107l-201 302h121l140 -219h5l235 219h138z" />
    <glyph glyph-name="Kcaron" unicode="&#x1e8;" horiz-adv-x="1209" 
d="M219 0h-139l307 1443h139l-158 -743h4l835 743h183l-715 -640l466 -803h-159l-414 718l-241 -210zM797 1558l-212 294h122l149 -209h4l238 209h140l-337 -294h-104z" />
    <glyph glyph-name="kcaron" unicode="&#x1e9;" horiz-adv-x="928" 
d="M192 0h-134l307 1443h134l-187 -879h4l601 476h174l-545 -436l342 -604h-149l-300 529l-160 -124zM409 1558l-212 294h122l149 -209h4l238 209h140l-337 -294h-104z" />
    <glyph glyph-name="Oogonek" unicode="&#x1ea;" horiz-adv-x="1491" 
d="M907 -394q-26 -18 -98 -18q-79 0 -128 40.5t-49 105.5q0 68 46 126.5t151 119.5v4q-35 -6 -69 -6q-265 0 -424.5 171t-159.5 455q0 141 36 272t103.5 237t158 185.5t206 123t241.5 43.5q266 0 425.5 -171t159.5 -455q0 -261 -126 -473t-334 -325q-294 -156 -294 -270
q0 -39 28 -62t75 -23q46 0 72 13zM1366 836q0 230 -121 366.5t-324 136.5q-172 0 -311.5 -98t-216.5 -265t-77 -368q0 -231 120.5 -367.5t324.5 -136.5q129 0 242 57.5t192.5 156t125 233t45.5 285.5z" />
    <glyph glyph-name="oogonek" unicode="&#x1eb;" horiz-adv-x="1088" 
d="M642 -384q-29 -19 -99 -19q-79 0 -128 40.5t-49 105.5q0 133 190 238v3q-3 -1 -11 -1q-196 0 -312.5 122.5t-116.5 326.5q0 174 69.5 317t192 225.5t271.5 82.5q196 0 313 -122.5t117 -326.5q0 -193 -90.5 -346.5t-238.5 -234.5q-263 -139 -263 -248q0 -38 27.5 -60.5
t74.5 -22.5t72 12zM250 435q0 -153 80 -244t216 -91q172 0 285.5 145t113.5 360q0 153 -80.5 244t-215.5 91q-171 0 -285 -145t-114 -360z" />
    <glyph glyph-name="Oogonekmacron" unicode="&#x1ec;" horiz-adv-x="1491" 
d="M907 -394q-26 -18 -98 -18q-79 0 -128 40.5t-49 105.5q0 68 46 126.5t151 119.5v4q-35 -6 -69 -6q-265 0 -424.5 171t-159.5 455q0 141 36 272t103.5 237t158 185.5t206 123t241.5 43.5q266 0 425.5 -171t159.5 -455q0 -261 -126 -473t-334 -325q-294 -156 -294 -270
q0 -39 28 -62t75 -23q46 0 72 13zM1366 836q0 230 -121 366.5t-324 136.5q-172 0 -311.5 -98t-216.5 -265t-77 -368q0 -231 120.5 -367.5t324.5 -136.5q129 0 242 57.5t192.5 156t125 233t45.5 285.5zM1301 1720l-20 -92h-617l20 92h617z" />
    <glyph glyph-name="oogonekmacron" unicode="&#x1ed;" horiz-adv-x="1088" 
d="M642 -384q-29 -19 -99 -19q-79 0 -128 40.5t-49 105.5q0 133 190 238v3q-3 -1 -11 -1q-196 0 -312.5 122.5t-116.5 326.5q0 174 69.5 317t192 225.5t271.5 82.5q196 0 313 -122.5t117 -326.5q0 -193 -90.5 -346.5t-238.5 -234.5q-263 -139 -263 -248q0 -38 27.5 -60.5
t74.5 -22.5t72 12zM250 435q0 -153 80 -244t216 -91q172 0 285.5 145t113.5 360q0 153 -80.5 244t-215.5 91q-171 0 -285 -145t-114 -360zM1015 1381l-19 -92h-550l19 92h550z" />
    <glyph glyph-name="uni01F1" unicode="&#x1f1;" horiz-adv-x="2617" 
d="M387 1443h422q283 0 441 -153.5t158 -423.5q0 -252 -100 -449t-283 -307t-419 -110h-524zM501 1321l-255 -1199h351q195 0 348.5 93.5t238 259.5t84.5 374q0 229 -122.5 350.5t-359.5 121.5h-285zM1422 0l21 99l1113 1217v4h-826l27 123h1010l-21 -100l-1111 -1216l-1 -4
h865l-26 -123h-1051z" />
    <glyph glyph-name="uni01F2" unicode="&#x1f2;" horiz-adv-x="2338" 
d="M387 1443h422q283 0 441 -153.5t158 -423.5q0 -252 -100 -449t-283 -307t-419 -110h-524zM501 1321l-255 -1199h351q195 0 348.5 93.5t238 259.5t84.5 374q0 229 -122.5 350.5t-359.5 121.5h-285zM1410 0l22 99l796 826l1 4h-620l25 111h789l-23 -101l-793 -824l-1 -4
h620l-24 -111h-792z" />
    <glyph glyph-name="uni01F3" unicode="&#x1f3;" horiz-adv-x="2077" 
d="M498 -17q-174 0 -279 120.5t-105 316.5q0 132 41.5 250.5t112.5 203t168.5 134t205.5 49.5q132 0 229 -75.5t117 -191.5h5l140 653h133l-307 -1443h-134l41 195h-4q-54 -94 -154 -153t-210 -59zM528 100q175 0 291 150.5t116 368.5q0 143 -79.5 231.5t-212.5 88.5
q-165 0 -280.5 -148t-115.5 -364q0 -150 75.5 -238.5t205.5 -88.5zM1150 0l22 99l796 826l1 4h-620l25 111h789l-23 -101l-793 -824l-1 -4h620l-24 -111h-792z" />
    <glyph glyph-name="Gacute" unicode="&#x1f4;" horiz-adv-x="1420" 
d="M1432 721l-45 -207q-55 -254 -222.5 -395t-408.5 -141q-268 0 -425 169t-157 444q0 130 29.5 255t91 237t147.5 197t206.5 135t260.5 50q239 0 387.5 -130.5t159.5 -341.5v-10h-138q-14 164 -124 260t-286 96q-142 0 -257.5 -64.5t-187.5 -170.5t-110.5 -237t-38.5 -270
q0 -223 118.5 -358t324.5 -135q187 0 320 112t173 305l17 79h-435l26 121h574zM998 1558h-129l304 288h158z" />
    <glyph glyph-name="gacute" unicode="&#x1f5;" horiz-adv-x="1121" 
d="M459 -385q-177 0 -294.5 85.5t-117.5 211.5h136q9 -80 85 -131.5t193 -51.5q142 0 235.5 77t128.5 223l41 182h-4q-52 -96 -150 -153.5t-208 -57.5q-177 0 -283 118t-106 316q0 120 37.5 232t103.5 199t167 139.5t219 52.5q133 0 227 -76t115 -195h5l52 254h131
l-214 -1010q-43 -201 -174.5 -308t-324.5 -107zM532 117q117 0 209.5 68.5t142 182.5t49.5 252q0 142 -81.5 230.5t-208.5 88.5q-113 0 -204 -67t-141.5 -181.5t-50.5 -252.5q0 -147 75 -234t210 -87zM807 1222h-127l286 302h152z" />
    <glyph glyph-name="Ngrave" unicode="&#x1f8;" horiz-adv-x="1400" 
d="M219 0h-139l307 1443h139l581 -1236h4l263 1236h139l-307 -1443h-139l-581 1236h-4zM910 1558l-192 288h140l164 -288h-112z" />
    <glyph glyph-name="ngrave" unicode="&#x1f9;" horiz-adv-x="1074" 
d="M56 0l221 1040h127l-39 -182h4q57 93 148 146t207 53q145 0 240 -87t95 -220q0 -52 -13 -120l-135 -630h-133l129 606q14 64 14 108q0 103 -67.5 164t-181.5 61q-127 0 -223 -85.5t-125 -222.5l-135 -631h-133zM808 1222h-109l-183 302h136z" />
    <glyph glyph-name="Aringacute" unicode="&#x1fa;" horiz-adv-x="1261" 
d="M848 1274l-408 -714h525l-113 714h-4zM1051 0l-68 443h-609l-256 -443h-151l844 1443h138l232 -1443h-130zM926 1514q-74 0 -125 47t-51 122q0 78 52.5 129.5t128.5 51.5q75 0 126 -47t51 -122q-1 -78 -53 -129.5t-129 -51.5zM926 1584q48 0 78.5 30t30.5 79
q-1 45 -30 73t-74 28q-47 0 -77.5 -30t-30.5 -79q0 -45 29 -73t74 -28zM1086 2095h132l-175 -168h-118z" />
    <glyph glyph-name="aringacute" unicode="&#x1fb;" horiz-adv-x="1001" 
d="M435 97q126 0 223.5 75t123.5 192l31 141l-310 -17q-140 -8 -216 -62.5t-76 -147.5q0 -82 62 -131.5t162 -49.5zM402 -17q-139 0 -232 79t-93 202q0 149 111.5 234t315.5 96l331 18l16 74q6 26 6 63q0 89 -61.5 140t-172.5 51q-116 0 -191 -53.5t-95 -145.5h-138
q25 142 142.5 229t291.5 87q161 0 259 -80t98 -210q0 -46 -8 -89l-144 -678h-128l33 153h-3q-55 -79 -144.5 -124.5t-193.5 -45.5zM703 1621l174 186h132l-188 -186h-118zM708 1180q-75 0 -127 49t-52 127q0 81 53.5 135t131.5 54q76 0 128.5 -49t51.5 -127
q-1 -82 -54 -135.5t-132 -53.5zM602 1358q0 -48 30 -78t76 -30q51 0 82.5 32.5t30.5 84.5q-1 48 -30.5 78t-76.5 30q-49 0 -80.5 -32.5t-31.5 -84.5z" />
    <glyph glyph-name="AEacute" unicode="&#x1fc;" horiz-adv-x="1857" 
d="M1172 1327h-161l-527 -766h525zM889 0l95 443h-578l-301 -443h-149l985 1443h1067l-27 -124h-672l-111 -526h635l-26 -122h-636l-116 -547h672l-26 -124h-812zM1461 1558h-129l304 288h158z" />
    <glyph glyph-name="aeacute" unicode="&#x1fd;" horiz-adv-x="1757" 
d="M1244 -17q-143 0 -239.5 70.5t-134.5 194.5h-3q-69 -131 -190 -198t-267 -67q-141 0 -233 81t-92 200q0 147 112 231.5t317 94.5l335 16l17 80q7 27 7 63q0 87 -63.5 139t-174.5 52q-116 0 -191.5 -54.5t-92.5 -144.5h-139q24 140 142 228t291 88q125 0 212 -53.5
t117 -146.5h4q68 96 165.5 148t214.5 52q178 0 286.5 -117.5t108.5 -309.5q0 -71 -10 -134h-782q-4 -40 -4 -68q0 -149 78.5 -238.5t212.5 -89.5q111 0 192.5 50.5t119.5 142.5h131q-41 -138 -164.5 -224t-282.5 -86zM978 603h638q3 15 3 45q0 129 -74 211t-191 82
q-135 0 -235.5 -91t-140.5 -247zM442 97q130 0 230 76t125 191l30 135l-319 -16q-136 -8 -213 -61.5t-77 -143.5q0 -80 61.5 -130.5t162.5 -50.5zM1116 1222h-127l286 302h152z" />
    <glyph glyph-name="Oslashacute" unicode="&#x1fe;" horiz-adv-x="1491" 
d="M1354 1846l-333 -288h-129l304 288h158zM1308 1113l-872 -872q123 -137 329 -137q129 0 242 57.5t191.5 156t124 234t45.5 286.5q0 158 -60 275zM375 330l872 872q-123 137 -329 137q-172 0 -310.5 -98t-215.5 -266t-77 -370q0 -158 60 -275zM1573 1378l-164 -164
q99 -153 99 -370q0 -178 -56.5 -338t-154 -276t-236.5 -184t-297 -68q-263 0 -424 167l-155 -155l-75 75l164 164q-99 153 -99 370q0 178 56.5 338t154.5 276t237 184t297 68q264 0 423 -167l155 155z" />
    <glyph glyph-name="oslashacute" unicode="&#x1ff;" horiz-adv-x="1089" 
d="M1079 1524l-311 -302h-127l286 302h152zM915 769l-581 -581q82 -88 213 -88q171 0 285 144t114 359q0 92 -31 166zM282 271l580 580q-80 89 -212 89q-172 0 -286 -144t-114 -359q0 -94 32 -166zM1134 988l-120 -120q66 -109 66 -261q0 -174 -69.5 -317t-192 -225
t-271.5 -82q-188 0 -304 114l-112 -112l-68 67l120 120q-67 111 -67 261q0 174 69.5 317t192 225t272.5 82q188 0 304 -114l112 112z" />
    <glyph glyph-name="Adblgrave" unicode="&#x200;" horiz-adv-x="1261" 
d="M848 1274l-408 -714h525l-113 714h-4zM1051 0l-68 443h-609l-256 -443h-151l844 1443h138l232 -1443h-130zM706 1558l-192 288h140l165 -288h-113zM1005 1558l-193 288h141l164 -288h-112z" />
    <glyph glyph-name="adblgrave" unicode="&#x201;" horiz-adv-x="1001" 
d="M435 97q126 0 223.5 75t123.5 192l31 141l-310 -17q-140 -8 -216 -62.5t-76 -147.5q0 -82 62 -131.5t162 -49.5zM402 -17q-139 0 -232 79t-93 202q0 149 111.5 234t315.5 96l331 18l16 74q6 26 6 63q0 89 -61.5 140t-172.5 51q-116 0 -191 -53.5t-95 -145.5h-138
q25 142 142.5 229t291.5 87q161 0 259 -80t98 -210q0 -46 -8 -89l-144 -678h-128l33 153h-3q-55 -79 -144.5 -124.5t-193.5 -45.5zM598 1222h-101l-180 302h134zM882 1222h-101l-179 302h133z" />
    <glyph glyph-name="Ainvertedbreve" unicode="&#x202;" horiz-adv-x="1261" 
d="M848 1274l-408 -714h525l-113 714h-4zM1051 0l-68 443h-609l-256 -443h-151l844 1443h138l232 -1443h-130zM1202 1546h-99q6 14 6 39q0 69 -47 110t-126 41q-88 0 -152.5 -52t-80.5 -138h-99q23 128 115.5 202t231.5 74q112 0 185.5 -61.5t73.5 -159.5q0 -36 -8 -55z" />
    <glyph glyph-name="ainvertedbreve" unicode="&#x203;" horiz-adv-x="1001" 
d="M435 97q126 0 223.5 75t123.5 192l31 141l-310 -17q-140 -8 -216 -62.5t-76 -147.5q0 -82 62 -131.5t162 -49.5zM402 -17q-139 0 -232 79t-93 202q0 149 111.5 234t315.5 96l331 18l16 74q6 26 6 63q0 89 -61.5 140t-172.5 51q-116 0 -191 -53.5t-95 -145.5h-138
q25 142 142.5 229t291.5 87q161 0 259 -80t98 -210q0 -46 -8 -89l-144 -678h-128l33 153h-3q-55 -79 -144.5 -124.5t-193.5 -45.5zM981 1204h-100q6 20 6 42q0 72 -46.5 115t-126.5 43q-87 0 -151.5 -55t-80.5 -145h-99q23 132 115 209t231 77q112 0 185.5 -64t73.5 -164
q0 -32 -7 -58z" />
    <glyph glyph-name="Edblgrave" unicode="&#x204;" horiz-adv-x="1102" 
d="M979 124l-26 -124h-873l307 1443h873l-27 -124h-733l-110 -519h696l-27 -122h-695l-118 -554h733zM652 1558l-192 288h140l165 -288h-113zM951 1558l-193 288h141l164 -288h-112z" />
    <glyph glyph-name="edblgrave" unicode="&#x205;" horiz-adv-x="1047" 
d="M270 599h636q3 16 3 49q0 128 -71 210.5t-204 82.5q-135 0 -233 -95.5t-131 -246.5zM534 -19q-199 0 -309.5 122.5t-110.5 323.5q0 174 66.5 318t186.5 228t269 84q188 0 297.5 -114.5t109.5 -311.5q0 -81 -11 -139h-779q-4 -31 -4 -60q0 -154 78 -243.5t210 -89.5
q115 0 198.5 56t122.5 155h131q-43 -146 -167 -237.5t-288 -91.5zM613 1222h-101l-180 302h134zM897 1222h-101l-179 302h133z" />
    <glyph glyph-name="Einvertedbreve" unicode="&#x206;" horiz-adv-x="1102" 
d="M979 124l-26 -124h-873l307 1443h873l-27 -124h-733l-110 -519h696l-27 -122h-695l-118 -554h733zM1148 1546h-99q6 14 6 39q0 69 -47 110t-126 41q-88 0 -152.5 -52t-80.5 -138h-99q23 128 115.5 202t231.5 74q112 0 185.5 -61.5t73.5 -159.5q0 -36 -8 -55z" />
    <glyph glyph-name="einvertedbreve" unicode="&#x207;" horiz-adv-x="1047" 
d="M270 599h636q3 16 3 49q0 128 -71 210.5t-204 82.5q-135 0 -233 -95.5t-131 -246.5zM534 -19q-199 0 -309.5 122.5t-110.5 323.5q0 174 66.5 318t186.5 228t269 84q188 0 297.5 -114.5t109.5 -311.5q0 -81 -11 -139h-779q-4 -31 -4 -60q0 -154 78 -243.5t210 -89.5
q115 0 198.5 56t122.5 155h131q-43 -146 -167 -237.5t-288 -91.5zM996 1204h-100q6 20 6 42q0 72 -46.5 115t-126.5 43q-87 0 -151.5 -55t-80.5 -145h-99q23 132 115 209t231 77q112 0 185.5 -64t73.5 -164q0 -32 -7 -58z" />
    <glyph glyph-name="Idblgrave" unicode="&#x208;" horiz-adv-x="413" 
d="M219 0h-139l307 1443h139zM286 1558l-192 288h140l165 -288h-113zM585 1558l-193 288h141l164 -288h-112z" />
    <glyph glyph-name="idblgrave" unicode="&#x209;" horiz-adv-x="378" 
d="M65 0l221 1040h134l-221 -1040h-134zM308 1222h-101l-180 302h134zM592 1222h-101l-179 302h133z" />
    <glyph glyph-name="Iinvertedbreve" unicode="&#x20a;" horiz-adv-x="413" 
d="M219 0h-139l307 1443h139zM782 1546h-99q6 14 6 39q0 69 -47 110t-126 41q-88 0 -152.5 -52t-80.5 -138h-99q23 128 115.5 202t231.5 74q112 0 185.5 -61.5t73.5 -159.5q0 -36 -8 -55z" />
    <glyph glyph-name="iinvertedbreve" unicode="&#x20b;" horiz-adv-x="378" 
d="M65 0l221 1040h134l-221 -1040h-134zM690 1204h-100q6 20 6 42q0 72 -46.5 115t-126.5 43q-87 0 -151.5 -55t-80.5 -145h-99q23 132 115 209t231 77q112 0 185.5 -64t73.5 -164q0 -32 -7 -58z" />
    <glyph glyph-name="Odblgrave" unicode="&#x20c;" horiz-adv-x="1491" 
d="M918 1339q-172 0 -310.5 -98t-215.5 -266t-77 -370q0 -230 122.5 -365.5t327.5 -135.5q129 0 242 57.5t191.5 156t124 234t45.5 286.5q0 230 -122.5 365.5t-327.5 135.5zM764 -22q-266 0 -427.5 170t-161.5 451q0 178 56.5 338t154.5 276t237 184t297 68
q265 0 426.5 -170t161.5 -451q0 -178 -56.5 -338t-154 -276t-236.5 -184t-297 -68zM761 1558l-192 288h140l165 -288h-113zM1060 1558l-193 288h141l164 -288h-112z" />
    <glyph glyph-name="odblgrave" unicode="&#x20d;" horiz-adv-x="1089" 
d="M547 100q171 0 285 144t114 359q0 153 -80.5 245t-215.5 92q-172 0 -286 -144t-114 -359q0 -153 80.5 -245t216.5 -92zM650 1057q196 0 313 -123t117 -327q0 -174 -69.5 -317t-192 -225t-271.5 -82q-196 0 -313.5 123t-117.5 327q0 174 69.5 317t192 225t272.5 82z
M625 1222h-101l-180 302h134zM909 1222h-101l-179 302h133z" />
    <glyph glyph-name="Oinvertedbreve" unicode="&#x20e;" horiz-adv-x="1491" 
d="M918 1339q-172 0 -310.5 -98t-215.5 -266t-77 -370q0 -230 122.5 -365.5t327.5 -135.5q129 0 242 57.5t191.5 156t124 234t45.5 286.5q0 230 -122.5 365.5t-327.5 135.5zM764 -22q-266 0 -427.5 170t-161.5 451q0 178 56.5 338t154.5 276t237 184t297 68
q265 0 426.5 -170t161.5 -451q0 -178 -56.5 -338t-154 -276t-236.5 -184t-297 -68zM1258 1546h-99q6 14 6 39q0 69 -47 110t-126 41q-88 0 -152.5 -52t-80.5 -138h-99q23 128 115.5 202t231.5 74q112 0 185.5 -61.5t73.5 -159.5q0 -36 -8 -55z" />
    <glyph glyph-name="oinvertedbreve" unicode="&#x20f;" horiz-adv-x="1089" 
d="M547 100q171 0 285 144t114 359q0 153 -80.5 245t-215.5 92q-172 0 -286 -144t-114 -359q0 -153 80.5 -245t216.5 -92zM650 1057q196 0 313 -123t117 -327q0 -174 -69.5 -317t-192 -225t-271.5 -82q-196 0 -313.5 123t-117.5 327q0 174 69.5 317t192 225t272.5 82z
M1007 1204h-100q6 20 6 42q0 72 -46.5 115t-126.5 43q-87 0 -151.5 -55t-80.5 -145h-99q23 132 115 209t231 77q112 0 185.5 -64t73.5 -164q0 -32 -7 -58z" />
    <glyph glyph-name="Rdblgrave" unicode="&#x210;" horiz-adv-x="1227" 
d="M80 0l309 1443h468q203 0 315 -101.5t112 -273.5q0 -175 -108.5 -300t-296.5 -158l216 -610h-144l-207 591h-12h-386l-126 -591h-140zM502 1321l-130 -607h372q176 0 286.5 95t110.5 246q0 123 -77.5 194.5t-214.5 71.5h-347zM600 1558l-192 288h140l165 -288h-113z
M899 1558l-193 288h141l164 -288h-112z" />
    <glyph glyph-name="rdblgrave" unicode="&#x211;" horiz-adv-x="665" 
d="M56 0l221 1040h126l-33 -156h4q108 171 295 171q78 0 126 -25l-29 -127q-44 25 -131 25q-124 0 -204 -81.5t-113 -233.5l-130 -613h-132zM473 1222h-101l-180 302h134zM757 1222h-101l-179 302h133z" />
    <glyph glyph-name="Rinvertedbreve" unicode="&#x212;" horiz-adv-x="1227" 
d="M80 0l309 1443h468q203 0 315 -101.5t112 -273.5q0 -175 -108.5 -300t-296.5 -158l216 -610h-144l-207 591h-12h-386l-126 -591h-140zM502 1321l-130 -607h372q176 0 286.5 95t110.5 246q0 123 -77.5 194.5t-214.5 71.5h-347zM1096 1546h-99q6 14 6 39q0 69 -47 110
t-126 41q-88 0 -152.5 -52t-80.5 -138h-99q23 128 115.5 202t231.5 74q112 0 185.5 -61.5t73.5 -159.5q0 -36 -8 -55z" />
    <glyph glyph-name="rinvertedbreve" unicode="&#x213;" horiz-adv-x="665" 
d="M56 0l221 1040h126l-33 -156h4q108 171 295 171q78 0 126 -25l-29 -127q-44 25 -131 25q-124 0 -204 -81.5t-113 -233.5l-130 -613h-132zM855 1204h-100q6 20 6 42q0 72 -46.5 115t-126.5 43q-87 0 -151.5 -55t-80.5 -145h-99q23 132 115 209t231 77q112 0 185.5 -64
t73.5 -164q0 -32 -7 -58z" />
    <glyph glyph-name="Udblgrave" unicode="&#x214;" horiz-adv-x="1399" 
d="M682 -22q-230 0 -362 123t-134 316q-1 63 13 135l189 891h139l-187 -884q-15 -69 -13 -134q4 -148 102 -234.5t275 -86.5t301.5 102.5t163.5 281.5l204 955h139l-209 -980q-49 -232 -208 -358.5t-413 -126.5zM768 1558l-192 288h140l165 -288h-113zM1067 1558l-193 288
h141l164 -288h-112z" />
    <glyph glyph-name="udblgrave" unicode="&#x215;" horiz-adv-x="1073" 
d="M1125 1040l-221 -1040h-127l38 171h-4q-48 -79 -145 -133.5t-214 -54.5q-148 0 -238 84.5t-90 212.5q0 61 14 133l132 627h134l-129 -606q-14 -67 -14 -114q0 -107 61.5 -163t177.5 -56q133 0 231.5 87t126.5 221l135 631h132zM641 1222h-101l-180 302h134zM925 1222
h-101l-179 302h133z" />
    <glyph glyph-name="Uinvertedbreve" unicode="&#x216;" horiz-adv-x="1399" 
d="M682 -22q-230 0 -362 123t-134 316q-1 63 13 135l189 891h139l-187 -884q-15 -69 -13 -134q4 -148 102 -234.5t275 -86.5t301.5 102.5t163.5 281.5l204 955h139l-209 -980q-49 -232 -208 -358.5t-413 -126.5zM1264 1546h-99q6 14 6 39q0 69 -47 110t-126 41
q-88 0 -152.5 -52t-80.5 -138h-99q23 128 115.5 202t231.5 74q112 0 185.5 -61.5t73.5 -159.5q0 -36 -8 -55z" />
    <glyph glyph-name="uinvertedbreve" unicode="&#x217;" horiz-adv-x="1073" 
d="M1125 1040l-221 -1040h-127l38 171h-4q-48 -79 -145 -133.5t-214 -54.5q-148 0 -238 84.5t-90 212.5q0 61 14 133l132 627h134l-129 -606q-14 -67 -14 -114q0 -107 61.5 -163t177.5 -56q133 0 231.5 87t126.5 221l135 631h132zM1024 1204h-100q6 20 6 42q0 72 -46.5 115
t-126.5 43q-87 0 -151.5 -55t-80.5 -145h-99q23 132 115 209t231 77q112 0 185.5 -64t73.5 -164q0 -32 -7 -58z" />
    <glyph glyph-name="Scommaaccent" unicode="&#x218;" horiz-adv-x="1214" 
d="M105 416h137q13 -141 125 -227.5t288 -86.5q161 0 262.5 75.5t101.5 205.5q0 99 -62 160.5t-204 110.5l-107 37q-183 63 -267.5 152t-84.5 226q0 176 135.5 286t350.5 110q216 0 355 -112.5t143 -297.5h-137q-8 128 -106 207t-257 79q-158 0 -250.5 -76t-92.5 -186
q0 -91 64 -152t209 -111l108 -38q176 -59 261 -148.5t85 -221.5q0 -87 -34.5 -164t-97.5 -136.5t-160.5 -94.5t-216.5 -35q-151 0 -273 52.5t-196.5 153t-78.5 232.5zM474 -475h-104l179 351h128z" />
    <glyph glyph-name="scommaaccent" unicode="&#x219;" horiz-adv-x="937" 
d="M202 759q0 130 104.5 214t270.5 84q163 0 267.5 -87t109.5 -225h-127q-9 89 -78.5 145.5t-173.5 56.5q-108 0 -175.5 -50t-67.5 -127q0 -61 42.5 -100t146.5 -73l90 -29q141 -46 202 -109.5t61 -164.5q0 -136 -110.5 -223.5t-281.5 -87.5q-177 0 -291 89.5t-122 229.5
h133q14 -94 90.5 -151.5t195.5 -57.5q110 0 181.5 55.5t71.5 138.5q0 61 -40.5 96t-150.5 71l-90 30q-136 44 -197 109t-61 166zM302 -475h-104l179 351h128z" />
    <glyph glyph-name="Tcommaaccent" unicode="&#x21a;" horiz-adv-x="1188" 
d="M607 0h-139l280 1319h-482l26 124h1104l-26 -124h-482zM380 -475h-104l179 351h128z" />
    <glyph glyph-name="tcommaaccent" unicode="&#x21b;" horiz-adv-x="582" 
d="M400 -6q-109 0 -175 51t-66 146q0 37 11 89l138 649h-152l23 111h153l55 266h134l-57 -266h224l-23 -111h-224l-130 -613q-12 -51 -12 -88q0 -59 38.5 -88.5t107.5 -29.5q44 0 68 3l-24 -112q-42 -7 -89 -7zM173 -475h-104l179 351h128z" />
    <glyph glyph-name="Hcaron" unicode="&#x21e;" horiz-adv-x="1394" 
d="M1200 0h-139l144 677h-841l-145 -677h-139l307 1443h139l-136 -642h841l137 642h139zM918 1558l-212 294h122l149 -209h4l238 209h140l-337 -294h-104z" />
    <glyph glyph-name="hcaron" unicode="&#x21f;" horiz-adv-x="1087" 
d="M58 0l308 1443h134l-125 -583h4q52 87 144 142t210 55q149 0 243 -91t94 -223q0 -51 -12 -113l-138 -630h-132l132 606q12 57 12 101q0 105 -68 168.5t-184 63.5q-131 0 -228 -86.5t-125 -221.5l-135 -631h-134zM410 1558l-212 294h122l149 -209h4l238 209h140l-337 -294
h-104z" />
    <glyph glyph-name="Adotaccent" unicode="&#x226;" horiz-adv-x="1261" 
d="M848 1274l-408 -714h525l-113 714h-4zM1051 0l-68 443h-609l-256 -443h-151l844 1443h138l232 -1443h-130zM934 1625q-43 0 -73.5 30.5t-30.5 73.5t30.5 73.5t73.5 30.5t73.5 -30.5t30.5 -73.5t-30.5 -73.5t-73.5 -30.5z" />
    <glyph glyph-name="adotaccent" unicode="&#x227;" horiz-adv-x="1001" 
d="M435 97q126 0 223.5 75t123.5 192l31 141l-310 -17q-140 -8 -216 -62.5t-76 -147.5q0 -82 62 -131.5t162 -49.5zM402 -17q-139 0 -232 79t-93 202q0 149 111.5 234t315.5 96l331 18l16 74q6 26 6 63q0 89 -61.5 140t-172.5 51q-116 0 -191 -53.5t-95 -145.5h-138
q25 142 142.5 229t291.5 87q161 0 259 -80t98 -210q0 -46 -8 -89l-144 -678h-128l33 153h-3q-55 -79 -144.5 -124.5t-193.5 -45.5zM701 1222q-43 0 -73.5 30.5t-30.5 73.5t30.5 73.5t73.5 30.5t73.5 -30.5t30.5 -73.5t-30.5 -73.5t-73.5 -30.5z" />
    <glyph glyph-name="Ecedilla" unicode="&#x228;" horiz-adv-x="1102" 
d="M1233 1319h-733l-110 -519h696l-27 -122h-695l-118 -554h733l-26 -124h-359l-84 -140q89 -1 138 -39.5t49 -108.5q0 -85 -64 -136.5t-168 -51.5q-100 0 -173 33l19 90q68 -30 145 -30q63 0 99 22.5t36 64.5q0 78 -151 82l-56 1l14 59l89 154h-407l307 1443h873z" />
    <glyph glyph-name="ecedilla" unicode="&#x229;" horiz-adv-x="1047" 
d="M270 599h636q3 16 3 49q0 128 -71 210.5t-204 82.5q-135 0 -233 -95.5t-131 -246.5zM1032 492h-779q-4 -31 -4 -60q0 -154 78 -243.5t210 -89.5q115 0 198.5 56t122.5 155h131q-41 -139 -155.5 -229t-268.5 -99l-73 -122q89 -1 138 -39.5t49 -108.5q0 -85 -64 -136.5
t-168 -51.5q-100 0 -173 33l19 90q68 -30 145 -30q63 0 99 22.5t36 64.5q0 78 -151 82l-56 1l14 59l81 140q-166 22 -256.5 141t-90.5 300q0 174 66.5 318t186.5 228t269 84q188 0 297.5 -114.5t109.5 -311.5q0 -81 -11 -139z" />
    <glyph glyph-name="Odieresismacron" unicode="&#x22a;" horiz-adv-x="1491" 
d="M918 1339q-172 0 -310.5 -98t-215.5 -266t-77 -370q0 -230 122.5 -365.5t327.5 -135.5q129 0 242 57.5t191.5 156t124 234t45.5 286.5q0 230 -122.5 365.5t-327.5 135.5zM764 -22q-266 0 -427.5 170t-161.5 451q0 178 56.5 338t154.5 276t237 184t297 68
q265 0 426.5 -170t161.5 -451q0 -178 -56.5 -338t-154 -276t-236.5 -184t-297 -68zM812 1730q36 0 61.5 -26t25.5 -62t-25.5 -62t-61.5 -26q-37 0 -62.5 25.5t-25.5 62.5t25.5 62.5t62.5 25.5zM1356 1979l-20 -91h-617l20 91h617zM1140 1730q36 0 62 -25.5t26 -62.5
t-26 -62.5t-62 -25.5t-62 25.5t-26 62.5t26 62.5t62 25.5z" />
    <glyph glyph-name="odieresismacron" unicode="&#x22b;" horiz-adv-x="1089" 
d="M547 100q171 0 285 144t114 359q0 153 -80.5 245t-215.5 92q-172 0 -286 -144t-114 -359q0 -153 80.5 -245t216.5 -92zM650 1057q196 0 313 -123t117 -327q0 -174 -69.5 -317t-192 -225t-271.5 -82q-196 0 -313.5 123t-117.5 327q0 174 69.5 317t192 225t272.5 82z
M555 1209q-37 0 -64 27t-27 64q0 38 27 64.5t64 26.5q38 0 65 -26.5t27 -64.5q0 -37 -27 -64t-65 -27zM896 1209q-38 0 -65 27t-27 64q0 38 27 64.5t65 26.5q37 0 64 -26.5t27 -64.5q0 -37 -27 -64t-64 -27zM1078 1668l-19 -92h-550l19 92h550z" />
    <glyph glyph-name="Otildemacron" unicode="&#x22c;" horiz-adv-x="1491" 
d="M918 1339q-172 0 -310.5 -98t-215.5 -266t-77 -370q0 -230 122.5 -365.5t327.5 -135.5q129 0 242 57.5t191.5 156t124 234t45.5 286.5q0 230 -122.5 365.5t-327.5 135.5zM764 -22q-266 0 -427.5 170t-161.5 451q0 178 56.5 338t154.5 276t237 184t297 68
q265 0 426.5 -170t161.5 -451q0 -178 -56.5 -338t-154 -276t-236.5 -184t-297 -68zM1356 1979l-21 -91h-616l20 91h617zM1089 1545q-36 0 -65 15.5t-48 37.5t-36 44t-37 37.5t-43 15.5q-37 0 -67.5 -36t-40.5 -95h-92q19 102 76 159.5t135 57.5q43 0 77.5 -23.5t53 -51.5
t44 -51.5t53.5 -23.5q36 0 65.5 35.5t42.5 96.5h91q-19 -100 -76.5 -159t-132.5 -59z" />
    <glyph glyph-name="otildemacron" unicode="&#x22d;" horiz-adv-x="1089" 
d="M547 100q171 0 285 144t114 359q0 153 -80.5 245t-215.5 92q-172 0 -286 -144t-114 -359q0 -153 80.5 -245t216.5 -92zM650 1057q196 0 313 -123t117 -327q0 -174 -69.5 -317t-192 -225t-271.5 -82q-196 0 -313.5 123t-117.5 327q0 174 69.5 317t192 225t272.5 82z
M849 1175q-37 0 -67.5 16t-51 39.5t-39.5 46.5t-41 39t-47 16q-39 0 -70.5 -38.5t-43.5 -108.5h-93q19 111 77 174t137 63q38 0 69.5 -16t52.5 -39t39.5 -46.5t40 -39.5t44.5 -16q37 0 67 38t45 109h93q-22 -111 -79 -174t-133 -63zM1078 1668l-19 -92h-550l19 92h550z" />
    <glyph glyph-name="Odotaccent" unicode="&#x22e;" horiz-adv-x="1491" 
d="M918 1339q-172 0 -310.5 -98t-215.5 -266t-77 -370q0 -230 122.5 -365.5t327.5 -135.5q129 0 242 57.5t191.5 156t124 234t45.5 286.5q0 230 -122.5 365.5t-327.5 135.5zM764 -22q-266 0 -427.5 170t-161.5 451q0 178 56.5 338t154.5 276t237 184t297 68
q265 0 426.5 -170t161.5 -451q0 -178 -56.5 -338t-154 -276t-236.5 -184t-297 -68zM990 1625q-43 0 -73.5 30.5t-30.5 73.5t30.5 73.5t73.5 30.5t73.5 -30.5t30.5 -73.5t-30.5 -73.5t-73.5 -30.5z" />
    <glyph glyph-name="odotaccent" unicode="&#x22f;" horiz-adv-x="1089" 
d="M547 100q171 0 285 144t114 359q0 153 -80.5 245t-215.5 92q-172 0 -286 -144t-114 -359q0 -153 80.5 -245t216.5 -92zM650 1057q196 0 313 -123t117 -327q0 -174 -69.5 -317t-192 -225t-271.5 -82q-196 0 -313.5 123t-117.5 327q0 174 69.5 317t192 225t272.5 82z
M728 1222q-43 0 -73.5 30.5t-30.5 73.5t30.5 73.5t73.5 30.5t73.5 -30.5t30.5 -73.5t-30.5 -73.5t-73.5 -30.5z" />
    <glyph glyph-name="Odotaccentmacron" unicode="&#x230;" horiz-adv-x="1491" 
d="M918 1339q-172 0 -310.5 -98t-215.5 -266t-77 -370q0 -230 122.5 -365.5t327.5 -135.5q129 0 242 57.5t191.5 156t124 234t45.5 286.5q0 230 -122.5 365.5t-327.5 135.5zM764 -22q-266 0 -427.5 170t-161.5 451q0 178 56.5 338t154.5 276t237 184t297 68
q265 0 426.5 -170t161.5 -451q0 -178 -56.5 -338t-154 -276t-236.5 -184t-297 -68zM981 1570q-42 0 -71.5 29.5t-29.5 70.5q0 42 29.5 71.5t71.5 29.5q41 0 71 -29.5t30 -71.5q0 -41 -30 -70.5t-71 -29.5zM1356 1979l-21 -91h-616l20 91h617z" />
    <glyph glyph-name="odotaccentmacron" unicode="&#x231;" horiz-adv-x="1089" 
d="M547 100q171 0 285 144t114 359q0 153 -80.5 245t-215.5 92q-172 0 -286 -144t-114 -359q0 -153 80.5 -245t216.5 -92zM650 1057q196 0 313 -123t117 -327q0 -174 -69.5 -317t-192 -225t-271.5 -82q-196 0 -313.5 123t-117.5 327q0 174 69.5 317t192 225t272.5 82z
M726 1202q-42 0 -71 29.5t-29 71.5t29 71t71 29q43 0 72 -29t29 -71t-29 -71.5t-72 -29.5zM1078 1668l-19 -92h-550l19 92h550z" />
    <glyph glyph-name="Ymacron" unicode="&#x232;" 
d="M624 0h-140l132 631l-342 812h145l288 -691h4l574 691h160l-693 -831zM1226 1720l-20 -92h-617l20 92h617z" />
    <glyph glyph-name="ymacron" unicode="&#x233;" horiz-adv-x="941" 
d="M89 -369q-54 0 -97 13l20 112q39 -13 80 -13q124 0 218 179l41 76l-173 1042h132l138 -896h4l494 896h147l-663 -1160q-81 -143 -158.5 -196t-182.5 -53zM973 1381l-19 -92h-550l19 92h550z" />
    <glyph glyph-name="dotlessj" unicode="&#x237;" horiz-adv-x="374" 
d="M419 1040l-241 -1129q-30 -139 -107.5 -202t-209.5 -64q-40 0 -75 4l26 115q30 -3 52 -3q79 0 121.5 38.5t61.5 128.5l238 1112h134z" />
    <glyph glyph-name="quoteright" unicode="&#x2bc;" horiz-adv-x="480" 
d="M381 962h-112l199 481h140z" />
    <glyph glyph-name="quoteright" unicode="&#x2019;" horiz-adv-x="480" 
d="M381 962h-112l199 481h140z" />
    <glyph glyph-name="circumflex" unicode="&#x2c6;" horiz-adv-x="1000" 
d="M820 1524l201 -302h-124l-142 216h-4l-234 -216h-134l330 302h107z" />
    <glyph glyph-name="caron" unicode="&#x2c7;" horiz-adv-x="1000" 
d="M754 1222h-107l-201 302h121l140 -219h5l235 219h138z" />
    <glyph glyph-name="breve" unicode="&#x2d8;" horiz-adv-x="1017" 
d="M472 1501h99q-6 -26 -6 -45q0 -71 46.5 -112.5t126.5 -41.5q89 0 152.5 54t79.5 145h99q-23 -133 -114.5 -209.5t-230.5 -76.5q-113 0 -186.5 62.5t-73.5 162.5q0 32 8 61z" />
    <glyph glyph-name="dotaccent" unicode="&#x2d9;" horiz-adv-x="1018" 
d="M734 1222q-43 0 -73.5 30.5t-30.5 73.5t30.5 73.5t73.5 30.5t73.5 -30.5t30.5 -73.5t-30.5 -73.5t-73.5 -30.5z" />
    <glyph glyph-name="ring" unicode="&#x2da;" horiz-adv-x="1000" 
d="M724 1156q-75 0 -127.5 49t-52.5 127q0 81 53.5 134.5t131.5 53.5q77 0 129 -48.5t51 -127.5q-1 -82 -53.5 -135t-131.5 -53zM724 1226q50 0 81.5 32.5t30.5 83.5q-1 48 -30.5 78t-76.5 30q-49 0 -80.5 -32t-31.5 -84q0 -48 30.5 -78t76.5 -30z" />
    <glyph glyph-name="ogonek" unicode="&#x2db;" horiz-adv-x="919" 
d="M501 -312l-20 -96q-28 -13 -83 -13q-95 0 -151 48t-56 133q0 80 60 154t158 124l94 -24q-186 -98 -186 -229q0 -50 33.5 -77t92.5 -27q40 0 58 7z" />
    <glyph glyph-name="tilde" unicode="&#x2dc;" horiz-adv-x="1000" 
d="M851 1228q-37 0 -67.5 16t-51 39t-39.5 46.5t-41 39.5t-47 16q-39 0 -70.5 -38.5t-43.5 -108.5h-93q19 111 77 174t137 63q38 0 69.5 -16t52.5 -39.5t39.5 -46.5t40 -39t44.5 -16q37 0 67 38t45 109h93q-22 -111 -79 -174t-133 -63z" />
    <glyph glyph-name="hungarumlaut" unicode="&#x2dd;" horiz-adv-x="1000" 
d="M666 1222l274 302h149l-306 -302h-117zM373 1222l273 302h150l-306 -302h-117z" />
    <glyph glyph-name="gravecmb" unicode="&#x300;" horiz-adv-x="0" 
d="M265 1222h-109l-183 302h136z" />
    <glyph glyph-name="acutecmb" unicode="&#x301;" horiz-adv-x="0" 
d="M261 1222h-127l286 302h152z" />
    <glyph glyph-name="circumflexcmb" unicode="&#x302;" horiz-adv-x="0" 
d="M320 1524l201 -302h-124l-142 216h-4l-234 -216h-134l330 302h107z" />
    <glyph glyph-name="tildecmb" unicode="&#x303;" horiz-adv-x="0" 
d="M347 1228q-37 0 -67.5 16t-51 39t-39.5 46.5t-41 39.5t-47 16q-39 0 -70.5 -38.5t-43.5 -108.5h-93q19 111 77 174t137 63q38 0 69.5 -16t52.5 -39.5t39.5 -46.5t40 -39t44.5 -16q37 0 67 38t45 109h93q-22 -111 -79 -174t-133 -63z" />
    <glyph glyph-name="macroncmb" unicode="&#x304;" horiz-adv-x="0" 
d="M511 1381l-19 -92h-550l19 92h550z" />
    <glyph glyph-name="brevecmb" unicode="&#x306;" horiz-adv-x="0" 
d="M-50 1501h99q-6 -26 -6 -45q0 -71 46.5 -112.5t126.5 -41.5q89 0 152.5 54t79.5 145h99q-23 -133 -114.5 -209.5t-230.5 -76.5q-113 0 -186.5 62.5t-73.5 162.5q0 32 8 61z" />
    <glyph glyph-name="dotaccentcmb" unicode="&#x307;" horiz-adv-x="0" 
d="M221 1222q-43 0 -73.5 30.5t-30.5 73.5t30.5 73.5t73.5 30.5t73.5 -30.5t30.5 -73.5t-30.5 -73.5t-73.5 -30.5z" />
    <glyph glyph-name="dieresiscmb" unicode="&#x308;" horiz-adv-x="0" 
d="M49 1227q-37 0 -64 27t-27 64q0 38 27 64.5t64 26.5q38 0 65 -26.5t27 -64.5q0 -37 -27 -64t-65 -27zM390 1227q-38 0 -65 27t-27 64q0 38 27 64.5t65 26.5t64.5 -26.5t26.5 -64.5t-26.5 -64.5t-64.5 -26.5z" />
    <glyph glyph-name="hookabovecmb" unicode="&#x309;" horiz-adv-x="0" 
d="M92 1435l18 84q43 24 116 24q68 0 114 -38t46 -96q0 -70 -50 -125.5t-133 -80.5l-36 68q55 18 84 49t29 69q0 31 -23.5 50.5t-60.5 19.5q-59 0 -104 -24z" />
    <glyph glyph-name="ringcmb" unicode="&#x30a;" horiz-adv-x="0" 
d="M221 1156q-75 0 -127.5 49t-52.5 127q0 81 53.5 134.5t131.5 53.5q77 0 129 -48.5t51 -127.5q-1 -82 -53.5 -135t-131.5 -53zM221 1226q50 0 81.5 32.5t30.5 83.5q-1 48 -30.5 78t-76.5 30q-49 0 -80.5 -32t-31.5 -84q0 -48 30.5 -78t76.5 -30z" />
    <glyph glyph-name="hungarumlautcmb" unicode="&#x30b;" horiz-adv-x="0" 
d="M283 1222l274 302h149l-306 -302h-117zM-10 1222l273 302h150l-306 -302h-117z" />
    <glyph glyph-name="caroncmb" unicode="&#x30c;" horiz-adv-x="0" 
d="M264 1222h-107l-201 302h121l140 -219h5l235 219h138z" />
    <glyph glyph-name="dblgravecmb" unicode="&#x30f;" horiz-adv-x="0" 
d="M118 1222h-101l-180 302h134zM402 1222h-101l-179 302h133z" />
    <glyph glyph-name="invertedbrevecmb" unicode="&#x311;" horiz-adv-x="0" 
d="M503 1215h-100q6 20 6 42q0 72 -46.5 115t-126.5 43q-87 0 -151.5 -55t-80.5 -145h-99q23 132 115 209t231 77q112 0 185.5 -64t73.5 -164q0 -32 -7 -58z" />
    <glyph glyph-name="horncmb" unicode="&#x31b;" horiz-adv-x="0" 
d="M-24 979l23 108q27 -33 90 -33q65 0 103 36.5t56 121.5l32 153h121l-40 -188q-50 -232 -273 -232q-73 0 -112 34z" />
    <glyph glyph-name="dotbelowcmb" unicode="&#x323;" horiz-adv-x="0" 
d="M-119 -380q-43 0 -73.5 30.5t-30.5 73.5t30.5 73.5t73.5 30.5t73.5 -30.5t30.5 -73.5t-30.5 -73.5t-73.5 -30.5z" />
    <glyph glyph-name="dieresisbelowcmb" unicode="&#x324;" horiz-adv-x="0" 
d="M-290 -385q-37 0 -64 27t-27 64q0 38 27 64.5t64 26.5q38 0 65 -26.5t27 -64.5q0 -37 -27 -64t-65 -27zM51 -385q-38 0 -65 27t-27 64q0 38 27 64.5t65 26.5q37 0 64 -26.5t27 -64.5q0 -37 -27 -64t-64 -27z" />
    <glyph glyph-name="ringbelowcmb" unicode="&#x325;" horiz-adv-x="0" 
d="M-126 -476q-75 0 -127.5 49t-52.5 127q0 81 53.5 134.5t131.5 53.5q77 0 129 -48.5t51 -127.5q-1 -82 -53.5 -135t-131.5 -53zM-126 -406q50 0 81.5 32.5t30.5 83.5q-1 48 -30.5 78t-76.5 30q-49 0 -80.5 -32t-31.5 -84q0 -48 30.5 -78t76.5 -30z" />
    <glyph glyph-name="commabelowcmb" unicode="&#x326;" horiz-adv-x="0" 
d="M-217 -475h-104l179 351h128z" />
    <glyph glyph-name="cedillacmb" unicode="&#x327;" horiz-adv-x="0" 
d="M-211 -213l14 59l95 164h102l-1 -10l-84 -140q89 -1 138 -39.5t49 -108.5q0 -85 -64 -136.5t-168 -51.5q-100 0 -173 33l19 90q68 -30 145 -30q63 0 99 22.5t36 64.5q0 78 -151 82z" />
    <glyph glyph-name="ogonekcmb" unicode="&#x328;" horiz-adv-x="0" 
d="M28 -312l-20 -96q-28 -13 -83 -13q-95 0 -151 48t-56 133q0 80 60 154t158 124l94 -24q-186 -98 -186 -229q0 -50 33.5 -77t92.5 -27q40 0 58 7z" />
    <glyph glyph-name="circumflexbelowcmb" unicode="&#x32d;" horiz-adv-x="0" 
d="M-50 -165l213 -294h-121l-149 209h-5l-238 -209h-140l337 294h103z" />
    <glyph glyph-name="brevebelowcmb" unicode="&#x32e;" horiz-adv-x="0" 
d="M-398 -156h99q-5 -15 -5 -38q0 -71 46.5 -111.5t126.5 -40.5q88 0 152 51t80 139h99q-24 -130 -116 -203t-231 -73q-113 0 -185.5 61t-72.5 161q0 30 7 54z" />
    <glyph glyph-name="tildebelowcmb" unicode="&#x330;" horiz-adv-x="0" 
d="M2 -417q-37 0 -67.5 16t-51 39.5t-39.5 46.5t-41 39t-47 16q-39 0 -70.5 -38.5t-43.5 -108.5h-93q19 111 77 174t137 63q38 0 69.5 -16t52.5 -39t39.5 -46.5t40 -39.5t44.5 -16q37 0 67 38t45 109h93q-22 -111 -79 -174t-133 -63z" />
    <glyph glyph-name="macronbelowcmb" unicode="&#x331;" horiz-adv-x="0" 
d="M201 -242l-20 -92h-617l20 92h617z" />
    <glyph glyph-name="macronbelowcmb" unicode="&#x332;" horiz-adv-x="0" 
d="M201 -242l-20 -92h-617l20 92h617z" />
    <glyph glyph-name="greekquestionmark" unicode="&#x37e;" horiz-adv-x="518" 
d="M381 748q-39 0 -66.5 27t-27.5 67q0 39 27.5 66t66.5 27t66.5 -27t27.5 -66q0 -40 -27.5 -67t-66.5 -27zM120 -276h-112l199 482h140z" />
    <glyph glyph-name="tonosgreek" unicode="&#x384;" horiz-adv-x="805" 
d="M479 1190l140 297h169l-198 -297h-111z" />
    <glyph glyph-name="dieresistonosgreek" unicode="&#x385;" horiz-adv-x="1202" 
d="M805 1222h-104l105 313h162zM1055 1230q-38 0 -65.5 27.5t-27.5 64.5q0 38 27 65.5t65 27.5q39 0 66 -27t28 -66q0 -38 -27.5 -65t-65.5 -27zM566 1230q-38 0 -65.5 27t-27.5 65q-1 38 26.5 65.5t65.5 27.5t65.5 -27.5t28.5 -65.5q0 -38 -27.5 -65t-65.5 -27z" />
    <glyph glyph-name="Alphatonosgreek" unicode="&#x386;" horiz-adv-x="1261" 
d="M848 1274l-408 -714h525l-113 714h-4zM1051 0l-68 443h-609l-256 -443h-151l844 1443h138l232 -1443h-130zM343 1146l141 297h169l-199 -297h-111z" />
    <glyph glyph-name="anoteleia" unicode="&#x387;" horiz-adv-x="518" 
d="M345 582q-39 0 -66.5 27t-27.5 66q0 40 27.5 67t66.5 27t66 -27t27 -67q0 -39 -27 -66t-66 -27z" />
    <glyph glyph-name="Epsilontonosgreek" unicode="&#x388;" horiz-adv-x="1324" 
d="M186 1146l141 297h169l-199 -297h-111zM1201 124l-26 -124h-873l307 1443h873l-27 -124h-733l-110 -519h696l-27 -122h-695l-118 -554h733z" />
    <glyph glyph-name="Etatonosgreek" unicode="&#x389;" horiz-adv-x="1616" 
d="M186 1146l141 297h169l-199 -297h-111zM1422 0h-139l144 677h-841l-145 -677h-139l307 1443h139l-136 -642h841l137 642h139z" />
    <glyph glyph-name="Iotatonosgreek" unicode="&#x38a;" horiz-adv-x="642" 
d="M186 1146l141 297h169l-199 -297h-111zM441 0h-139l307 1443h139z" />
    <glyph glyph-name="Omicrontonosgreek" unicode="&#x38c;" horiz-adv-x="1630" 
d="M186 1146l141 297h169l-199 -297h-111zM1057 1339q-172 0 -310.5 -98t-215.5 -266t-77 -370q0 -230 122.5 -365.5t327.5 -135.5q129 0 242 57.5t191.5 156t124 234t45.5 286.5q0 230 -122.5 365.5t-327.5 135.5zM903 -22q-266 0 -427.5 170t-161.5 451q0 178 56.5 338
t154.5 276t237 184t297 68q265 0 426.5 -170t161.5 -451q0 -178 -56.5 -338t-154 -276t-236.5 -184t-297 -68z" />
    <glyph glyph-name="Upsilontonosgreek" unicode="&#x38e;" horiz-adv-x="1596" 
d="M284 1146l141 297h169l-199 -297h-111zM1001 0h-140l132 631l-342 812h145l288 -691h4l574 691h160l-693 -831z" />
    <glyph glyph-name="Omegatonosgreek" unicode="&#x38f;" horiz-adv-x="1701" 
d="M186 1146l141 297h169l-199 -297h-111zM1036 0l33 154q233 110 361 298t128 429q0 206 -123.5 332.5t-331.5 126.5q-179 0 -318 -89t-214 -242t-75 -344q0 -344 311 -511l-33 -154h-521l26 124h361v6q-284 179 -284 533q0 169 55 316.5t153.5 255t242.5 169.5t313 62
q264 0 421 -157.5t157 -415.5q0 -245 -127.5 -450.5t-345.5 -312.5v-6h373l-26 -124h-536z" />
    <glyph glyph-name="iotadieresistonosgreek" unicode="&#x390;" horiz-adv-x="519" 
d="M409 1040l-154 -724q-11 -53 -11 -88q0 -58 37.5 -89.5t108.5 -31.5q44 0 76 6l-24 -112q-62 -10 -98 -10q-111 0 -175.5 53.5t-64.5 146.5q0 40 10 89l162 760h133zM420 1211h-104l105 313h162zM670 1219q-38 0 -65.5 27.5t-27.5 64.5q0 38 27 65.5t65 27.5q39 0 66 -27
t28 -66q0 -38 -27.5 -65t-65.5 -27zM181 1219q-38 0 -65.5 27t-27.5 65q-1 38 26.5 65.5t65.5 27.5t65.5 -27.5t28.5 -65.5q0 -38 -27.5 -65t-65.5 -27z" />
    <glyph glyph-name="Alphagreek" unicode="&#x391;" horiz-adv-x="1261" 
d="M848 1274l-408 -714h525l-113 714h-4zM1051 0l-68 443h-609l-256 -443h-151l844 1443h138l232 -1443h-130z" />
    <glyph glyph-name="Betagreek" unicode="&#x392;" horiz-adv-x="1256" 
d="M644 0h-564l307 1443h496q174 0 279 -87t105 -230q0 -137 -93.5 -241.5t-236.5 -136.5l-1 -4q121 -17 191.5 -98t70.5 -199q0 -198 -153.5 -322.5t-400.5 -124.5zM500 1322l-110 -520h348q167 0 277 84t110 213q0 108 -74.5 165.5t-216.5 57.5h-334zM245 121h397
q182 0 297 89t115 226q0 122 -83.5 185t-234.5 63h-371z" />
    <glyph glyph-name="Gammagreek" unicode="&#x393;" horiz-adv-x="1080" 
d="M238 0h-140l307 1443h838l-27 -124h-698z" />
    <glyph glyph-name="Deltagreek" unicode="&#x394;" horiz-adv-x="1316" 
d="M1189 0h-1176l20 97l805 1346h138l234 -1346zM875 1274l-674 -1146l-1 -4h875l1 2l-197 1148h-4z" />
    <glyph glyph-name="Deltagreek" unicode="&#x2206;" horiz-adv-x="1316" 
d="M1189 0h-1176l20 97l805 1346h138l234 -1346zM875 1274l-674 -1146l-1 -4h875l1 2l-197 1148h-4z" />
    <glyph glyph-name="Epsilongreek" unicode="&#x395;" horiz-adv-x="1102" 
d="M979 124l-26 -124h-873l307 1443h873l-27 -124h-733l-110 -519h696l-27 -122h-695l-118 -554h733z" />
    <glyph glyph-name="Zetagreek" unicode="&#x396;" horiz-adv-x="1226" 
d="M31 0l21 99l1113 1217v4h-826l27 123h1010l-21 -100l-1111 -1216l-1 -4h865l-26 -123h-1051z" />
    <glyph glyph-name="Etagreek" unicode="&#x397;" horiz-adv-x="1394" 
d="M1200 0h-139l144 677h-841l-145 -677h-139l307 1443h139l-136 -642h841l137 642h139z" />
    <glyph glyph-name="Thetagreek" unicode="&#x398;" horiz-adv-x="1536" 
d="M1175 661h-643l26 122h643zM789 -22q-266 0 -429.5 170.5t-163.5 450.5q0 178 57 338t155.5 276t238 184t297.5 68q266 0 429 -170t163 -451q0 -178 -57 -338t-155 -276t-237.5 -184t-297.5 -68zM1396 838q0 229 -124 365t-329 136q-172 0 -311.5 -98t-217.5 -266
t-78 -370q0 -229 124.5 -365t329.5 -136q172 0 311.5 98t217 266t77.5 370z" />
    <glyph glyph-name="Iotagreek" unicode="&#x399;" horiz-adv-x="413" 
d="M219 0h-139l307 1443h139z" />
    <glyph glyph-name="Kappagreek" unicode="&#x39a;" horiz-adv-x="1209" 
d="M219 0h-139l307 1443h139l-158 -743h4l835 743h183l-715 -640l466 -803h-159l-414 718l-241 -210z" />
    <glyph glyph-name="Lambdagreek" unicode="&#x39b;" horiz-adv-x="1247" 
d="M841 1274l-713 -1274h-151l827 1443h138l215 -1443h-130l-182 1274h-4z" />
    <glyph glyph-name="Mugreek" unicode="&#x39c;" horiz-adv-x="1667" 
d="M210 0h-130l307 1443h150l267 -1271h4l802 1271h170l-307 -1443h-130l254 1192h-6l-755 -1185h-119l-250 1185h-5z" />
    <glyph glyph-name="Nugreek" unicode="&#x39d;" horiz-adv-x="1400" 
d="M219 0h-139l307 1443h139l581 -1236h4l263 1236h139l-307 -1443h-139l-581 1236h-4z" />
    <glyph glyph-name="Xigreek" unicode="&#x39e;" horiz-adv-x="1263" 
d="M360 1443h1043l-27 -128h-1043zM1162 675h-888l28 127h887zM81 128h1042l-26 -128h-1043z" />
    <glyph glyph-name="Omicrongreek" unicode="&#x39f;" horiz-adv-x="1491" 
d="M918 1339q-172 0 -310.5 -98t-215.5 -266t-77 -370q0 -230 122.5 -365.5t327.5 -135.5q129 0 242 57.5t191.5 156t124 234t45.5 286.5q0 230 -122.5 365.5t-327.5 135.5zM764 -22q-266 0 -427.5 170t-161.5 451q0 178 56.5 338t154.5 276t237 184t297 68
q265 0 426.5 -170t161.5 -451q0 -178 -56.5 -338t-154 -276t-236.5 -184t-297 -68z" />
    <glyph glyph-name="Pigreek" unicode="&#x3a0;" horiz-adv-x="1410" 
d="M1198 0h-140l282 1319h-822l-281 -1319h-139l307 1443h1100z" />
    <glyph glyph-name="Rhogreek" unicode="&#x3a1;" horiz-adv-x="1195" 
d="M389 1443h475q182 0 299 -106.5t117 -278.5q0 -157 -76 -274.5t-207.5 -178.5t-299.5 -61h-361l-116 -544h-140zM502 1321l-140 -655h330q201 0 323.5 101t122.5 279q0 127 -84.5 201t-232.5 74h-319z" />
    <glyph glyph-name="Sigmagreek" unicode="&#x3a3;" horiz-adv-x="1258" 
d="M256 127v-4h864l-26 -123h-1045l21 99l565 653l-275 587l22 104h999l-26 -123h-832l-1 -4l261 -562l-4 -16z" />
    <glyph glyph-name="Taugreek" unicode="&#x3a4;" horiz-adv-x="1188" 
d="M607 0h-139l280 1319h-482l26 124h1104l-26 -124h-482z" />
    <glyph glyph-name="Upsilongreek" unicode="&#x3a5;" 
d="M624 0h-140l132 631l-342 812h145l288 -691h4l574 691h160l-693 -831z" />
    <glyph glyph-name="Phigreek" unicode="&#x3a6;" horiz-adv-x="1631" 
d="M676 -58l29 137q-263 20 -406.5 161t-143.5 373q0 159 58.5 295.5t164.5 235.5t260.5 156.5t339.5 60.5l28 134h139l-28 -134q263 -20 406.5 -161t143.5 -374q0 -158 -59 -294.5t-164.5 -235.5t-260.5 -156.5t-339 -60.5l-29 -137h-139zM732 202l219 1035
q-198 -1 -348 -80.5t-229 -217t-79 -312.5q0 -190 112.5 -302t324.5 -123zM871 203q199 1 348.5 80t228.5 216.5t79 314.5q0 189 -112.5 301t-323.5 122z" />
    <glyph glyph-name="Chigreek" unicode="&#x3a7;" horiz-adv-x="1255" 
d="M-23 0l662 731l-345 712h156l291 -614h5l548 614h177l-660 -731l344 -712h-156l-291 615h-6l-548 -615h-177z" />
    <glyph glyph-name="Psigreek" unicode="&#x3a8;" horiz-adv-x="1569" 
d="M798 0h-140l73 345q-231 17 -351 126t-120 300q0 63 15 133l113 539h139l-112 -535q-16 -73 -16 -136q0 -285 359 -301l207 972h140l-207 -972q232 2 358.5 115t173.5 336l111 521h139l-111 -526q-42 -194 -123.5 -315.5t-222 -185.5t-352.5 -71z" />
    <glyph glyph-name="Omegagreek" unicode="&#x3a9;" horiz-adv-x="1532" 
d="M867 0l33 154q233 110 361 298t128 429q0 206 -123.5 332.5t-331.5 126.5q-179 0 -318 -89t-214 -242t-75 -344q0 -344 311 -511l-33 -154h-521l26 124h361v6q-284 179 -284 533q0 169 55 316.5t153.5 255t242.5 169.5t313 62q264 0 421 -157.5t157 -415.5
q0 -245 -127.5 -450.5t-345.5 -312.5v-6h373l-26 -124h-536z" />
    <glyph glyph-name="Omegagreek" unicode="&#x2126;" horiz-adv-x="1532" 
d="M867 0l33 154q233 110 361 298t128 429q0 206 -123.5 332.5t-331.5 126.5q-179 0 -318 -89t-214 -242t-75 -344q0 -344 311 -511l-33 -154h-521l26 124h361v6q-284 179 -284 533q0 169 55 316.5t153.5 255t242.5 169.5t313 62q264 0 421 -157.5t157 -415.5
q0 -245 -127.5 -450.5t-345.5 -312.5v-6h373l-26 -124h-536z" />
    <glyph glyph-name="Iotadieresisgreek" unicode="&#x3aa;" horiz-adv-x="413" 
d="M219 0h-139l307 1443h139zM339 1612q-37 0 -64 27t-27 64q0 38 27 64.5t64 26.5q38 0 65 -26.5t27 -64.5q0 -37 -27 -64t-65 -27zM680 1612q-38 0 -65 27t-27 64q0 38 27 64.5t65 26.5t64.5 -26.5t26.5 -64.5q0 -37 -26.5 -64t-64.5 -27z" />
    <glyph glyph-name="Upsilondieresisgreek" unicode="&#x3ab;" 
d="M624 0h-140l132 631l-342 812h145l288 -691h4l574 691h160l-693 -831zM740 1612q-37 0 -64 27t-27 64q0 38 27 64.5t64 26.5q38 0 65 -26.5t27 -64.5q0 -37 -27 -64t-65 -27zM1081 1612q-38 0 -65 27t-27 64q0 38 27 64.5t65 26.5t64.5 -26.5t26.5 -64.5q0 -37 -27 -64
t-64 -27z" />
    <glyph glyph-name="alphatonosgreek" unicode="&#x3ac;" horiz-adv-x="1197" 
d="M481 -17q-166 0 -266.5 118.5t-100.5 314.5q0 177 68.5 324t188 232t263.5 85q136 0 224.5 -77.5t108.5 -195.5h5l55 256h128l-161 -754q-16 -79 -16 -104q0 -38 20 -54.5t66 -16.5q30 0 54 6l-24 -111q-33 -10 -78 -10q-89 0 -131.5 36.5t-42.5 121.5q0 3 8 51h-4
q-56 -100 -155.5 -161t-209.5 -61zM515 99q108 0 201 70t146.5 189.5t53.5 258.5q0 146 -79 234.5t-204 88.5q-110 0 -199 -69.5t-138 -188t-49 -260.5q0 -146 73.5 -234.5t194.5 -88.5zM682 1190l140 297h169l-198 -297h-111z" />
    <glyph glyph-name="epsilontonosgreek" unicode="&#x3ad;" horiz-adv-x="1045" 
d="M501 -11q-175 0 -281.5 71t-106.5 203q0 106 68.5 177.5t182.5 95.5v2q-69 19 -109.5 72t-40.5 122q0 147 118.5 233.5t306.5 86.5q211 0 317 -94t107 -240h-130q-6 100 -77 158.5t-218 58.5q-134 0 -211 -54.5t-77 -141.5q0 -73 57.5 -113t166.5 -40h152l-25 -115h-171
q-133 0 -205 -52t-72 -142q0 -80 70.5 -126t194.5 -46q131 0 231.5 58t135.5 153h136q-40 -149 -179 -238t-341 -89zM679 1190l140 297h169l-198 -297h-111z" />
    <glyph glyph-name="etatonosgreek" unicode="&#x3ae;" horiz-adv-x="1222" 
d="M833 -345l205 951q12 57 12 96q0 106 -68.5 168.5t-180.5 62.5q-134 0 -231 -86t-128 -229l-131 -618h-133l169 793q7 34 7 59q0 40 -20 58.5t-67 18.5q-32 0 -56 -6l23 111q33 10 79 10q81 0 120.5 -31t46.5 -103q0 -42 -3 -57h4q60 95 156 146.5t214 51.5
q146 0 241.5 -88t95.5 -231q0 -47 -15 -116l-207 -961h-133zM811 1190l140 297h169l-198 -297h-111z" />
    <glyph glyph-name="iotatonosgreek" unicode="&#x3af;" horiz-adv-x="519" 
d="M409 1040l-154 -724q-11 -53 -11 -88q0 -58 37.5 -89.5t108.5 -31.5q44 0 76 6l-24 -112q-62 -10 -98 -10q-111 0 -175.5 53.5t-64.5 146.5q0 40 10 89l162 760h133zM358 1190l140 297h169l-198 -297h-111z" />
    <glyph glyph-name="upsilondieresistonosgreek" unicode="&#x3b0;" horiz-adv-x="1043" 
d="M892 1040h132q17 -90 17 -212q0 -391 -154.5 -618t-423.5 -227q-157 0 -245 80t-88 218q0 70 16 143l130 616h134l-115 -541q-28 -131 -28 -203q0 -93 53 -144t155 -51q199 0 315.5 200t116.5 536q0 85 -15 203zM719 1211h-104l105 313h162zM969 1219q-38 0 -65.5 27.5
t-27.5 64.5q0 38 27 65.5t65 27.5q39 0 66 -27t28 -66q0 -38 -27.5 -65t-65.5 -27zM480 1219q-38 0 -65.5 27t-27.5 65q-1 38 26.5 65.5t65.5 27.5t65.5 -27.5t28.5 -65.5q0 -38 -27.5 -65t-65.5 -27z" />
    <glyph glyph-name="alphagreek" unicode="&#x3b1;" horiz-adv-x="1197" 
d="M481 -17q-166 0 -266.5 118.5t-100.5 314.5q0 177 68.5 324t188 232t263.5 85q136 0 224.5 -77.5t108.5 -195.5h5l55 256h128l-161 -754q-16 -79 -16 -104q0 -38 20 -54.5t66 -16.5q30 0 54 6l-24 -111q-33 -10 -78 -10q-89 0 -131.5 36.5t-42.5 121.5q0 3 8 51h-4
q-56 -100 -155.5 -161t-209.5 -61zM515 99q108 0 201 70t146.5 189.5t53.5 258.5q0 146 -79 234.5t-204 88.5q-110 0 -199 -69.5t-138 -188t-49 -260.5q0 -146 73.5 -234.5t194.5 -88.5z" />
    <glyph glyph-name="betagreek" unicode="&#x3b2;" horiz-adv-x="1142" 
d="M285 1021q47 226 160 332.5t305 106.5q167 0 268 -86.5t101 -231.5q0 -132 -70 -226.5t-204 -133.5v-3q267 -65 267 -330q0 -94 -32 -177.5t-91.5 -148t-153.5 -102.5t-209 -38q-137 0 -240.5 75.5t-128.5 194.5h-5l-126 -598h-132zM539 715l26 119h106q144 0 232.5 79.5
t88.5 206.5q0 103 -65.5 163t-187.5 60q-121 0 -205 -82t-120 -252l-103 -482q-16 -75 -16 -121q0 -136 96.5 -220.5t243.5 -84.5q145 0 245.5 94.5t100.5 240.5q0 131 -85.5 205t-237.5 74h-119z" />
    <glyph glyph-name="gammagreek" unicode="&#x3b3;" horiz-adv-x="1013" 
d="M938 1040h131q-7 -93 -30 -186q-47 -202 -174 -396.5t-401 -479.5l-66 -311h-131l66 315l-141 1058h132l115 -926q210 224 320.5 398t150.5 346q21 91 28 182z" />
    <glyph glyph-name="deltagreek" unicode="&#x3b4;" horiz-adv-x="1080" 
d="M537 -17q-188 0 -311.5 117.5t-123.5 317.5q0 220 129.5 366t350.5 165h10l1 2q-180 91 -180 236q0 123 103.5 195t279.5 72q101 0 190 -22.5t133 -59.5l-29 -116q-125 82 -317 82q-106 0 -167 -39t-61 -110q0 -50 40 -88.5t160 -101.5q174 -93 251 -204t77 -250
q0 -113 -36 -214t-102.5 -178.5t-169.5 -123.5t-228 -46zM551 98q166 0 277 125t111 317q0 142 -85.5 232.5t-219.5 90.5q-170 0 -284 -119.5t-114 -316.5q0 -153 91.5 -241t223.5 -88z" />
    <glyph glyph-name="epsilongreek" unicode="&#x3b5;" horiz-adv-x="1045" 
d="M501 -11q-175 0 -281.5 71t-106.5 203q0 106 68.5 177.5t182.5 95.5v2q-69 19 -109.5 72t-40.5 122q0 147 118.5 233.5t306.5 86.5q211 0 317 -94t107 -240h-130q-6 100 -77 158.5t-218 58.5q-134 0 -211 -54.5t-77 -141.5q0 -73 57.5 -113t166.5 -40h152l-25 -115h-171
q-133 0 -205 -52t-72 -142q0 -80 70.5 -126t194.5 -46q131 0 231.5 58t135.5 153h136q-40 -149 -179 -238t-341 -89z" />
    <glyph glyph-name="zetagreek" unicode="&#x3b6;" horiz-adv-x="865" 
d="M693 -372l-100 37q52 62 73.5 100.5t21.5 82.5q0 51 -36.5 83t-139.5 74q-212 87 -301 188t-89 261q0 235 189.5 455t538.5 411l1 4h-509l26 119h700l6 -118q-382 -191 -598.5 -414t-216.5 -447q0 -119 61 -188.5t228 -141.5q162 -69 218 -123.5t56 -140.5
q0 -127 -129 -242z" />
    <glyph glyph-name="etagreek" unicode="&#x3b7;" horiz-adv-x="1222" 
d="M833 -345l205 951q12 57 12 96q0 106 -68.5 168.5t-180.5 62.5q-134 0 -231 -86t-128 -229l-131 -618h-133l169 793q7 34 7 59q0 40 -20 58.5t-67 18.5q-32 0 -56 -6l23 111q33 10 79 10q81 0 120.5 -31t46.5 -103q0 -42 -3 -57h4q60 95 156 146.5t214 51.5
q146 0 241.5 -88t95.5 -231q0 -47 -15 -116l-207 -961h-133z" />
    <glyph glyph-name="thetagreek" unicode="&#x3b8;" horiz-adv-x="1115" 
d="M519 -17q-189 0 -288.5 124t-99.5 362q0 122 26 270q63 358 212 539.5t372 181.5q190 0 288.5 -126t98.5 -365q0 -118 -26 -265q-62 -354 -211 -537.5t-372 -183.5zM526 100q164 0 270.5 138.5t164.5 430.5h-680q-16 -108 -16 -208q0 -168 65 -264.5t196 -96.5zM302 786
h678q14 93 14 182q0 374 -268 374q-157 0 -262.5 -138t-161.5 -418z" />
    <glyph glyph-name="iotagreek" unicode="&#x3b9;" horiz-adv-x="519" 
d="M409 1040l-154 -724q-11 -53 -11 -88q0 -58 37.5 -89.5t108.5 -31.5q44 0 76 6l-24 -112q-62 -10 -98 -10q-111 0 -175.5 53.5t-64.5 146.5q0 40 10 89l162 760h133z" />
    <glyph glyph-name="kappagreek" unicode="&#x3ba;" horiz-adv-x="1065" 
d="M1020 1044q55 0 86 -10l-25 -111q-31 6 -56 6q-39 0 -72 -19t-82 -67l-197 -194l284 -649h-137l-239 559l-331 -328l-49 -231h-133l220 1040h133l-127 -600h2l457 457q89 89 141.5 118t124.5 29z" />
    <glyph glyph-name="lambdagreek" unicode="&#x3bb;" horiz-adv-x="1034" 
d="M965 111q25 0 52 6l-24 -111q-36 -10 -80 -10q-89 0 -132.5 43.5t-57.5 144.5l-86 627h-2l-482 -811h-152l609 991l-18 118q-15 96 -37.5 146.5t-50.5 66.5t-76 16q-30 0 -57 -7l24 112q35 11 82 11q72 0 117.5 -27t77.5 -97.5t49 -195.5l128 -920q8 -57 34 -80t82 -23z
" />
    <glyph glyph-name="nugreek" unicode="&#x3bd;" horiz-adv-x="1015" 
d="M1069 1040q-7 -88 -31 -190q-33 -137 -101.5 -267t-174 -264.5t-277.5 -318.5h-154l-139 1040h132l115 -927h4q201 214 311.5 388t153.5 352q23 97 30 187h131z" />
    <glyph glyph-name="xigreek" unicode="&#x3be;" horiz-adv-x="887" 
d="M701 -372l-101 37q55 65 75.5 103.5t20.5 79.5q0 51 -36 82.5t-142 75.5q-223 92 -316 183.5t-93 219.5q0 141 98.5 232t283.5 116l1 2q-101 32 -155.5 97t-54.5 155q0 224 299 311v3h-244l24 118h683l6 -107l-122 -10q-249 -21 -384.5 -97t-135.5 -197q0 -105 96 -161
t273 -56h95l-25 -118h-87q-258 0 -385 -70.5t-127 -204.5q0 -86 67.5 -149.5t238.5 -138.5q162 -69 219 -122.5t57 -139.5q0 -68 -30.5 -125t-98.5 -119z" />
    <glyph glyph-name="omicrongreek" unicode="&#x3bf;" horiz-adv-x="1089" 
d="M547 100q171 0 285 144t114 359q0 153 -80.5 245t-215.5 92q-172 0 -286 -144t-114 -359q0 -153 80.5 -245t216.5 -92zM650 1057q196 0 313 -123t117 -327q0 -174 -69.5 -317t-192 -225t-271.5 -82q-196 0 -313.5 123t-117.5 327q0 174 69.5 317t192 225t272.5 82z" />
    <glyph glyph-name="pigreek" unicode="&#x3c0;" horiz-adv-x="1230" 
d="M825 249l144 676h-478l-197 -925h-127l196 925h-191l24 115h1134l-24 -115h-209l-143 -674q-11 -48 -11 -72q0 -39 19 -55.5t70 -16.5q31 0 58 6l-24 -112q-40 -10 -79 -10q-87 0 -132.5 39.5t-45.5 111.5q0 31 16 107z" />
    <glyph glyph-name="rhogreek" unicode="&#x3c1;" horiz-adv-x="1109" 
d="M578 101q162 0 278 139t116 368q0 154 -82.5 243t-222.5 89q-113 0 -201 -71.5t-134 -187.5t-46 -253q0 -147 82 -237t210 -90zM673 1057q195 0 312 -125t117 -321q0 -177 -68.5 -321t-187.5 -225.5t-264 -81.5q-144 0 -234 78t-112 192h-5l-127 -598h-131l189 889
q56 260 190 386.5t321 126.5z" />
    <glyph glyph-name="sigmafinalgreek" unicode="&#x3c2;" horiz-adv-x="1024" 
d="M824 -125q0 -72 -31 -128.5t-98 -118.5l-101 37q52 60 74 99.5t22 83.5q0 50 -36 82.5t-136 73.5q-206 84 -300.5 201.5t-94.5 288.5q0 154 62 281t184.5 204.5t283.5 77.5q174 0 286.5 -100.5t125.5 -238.5h-132q-18 100 -94 161t-196 61q-90 0 -164 -37.5t-121 -100
t-72.5 -141t-25.5 -162.5q0 -129 70 -214t224 -153q157 -67 213.5 -122t56.5 -135z" />
    <glyph glyph-name="sigmagreek" unicode="&#x3c3;" horiz-adv-x="1135" 
d="M520 -17q-187 0 -297.5 120.5t-110.5 313.5q0 177 66 317.5t194 223t298 82.5h584l-24 -115h-319l-1 -3q144 -96 144 -311q0 -171 -67 -314t-190.5 -228.5t-276.5 -85.5zM519 100q119 0 211 67t141 181.5t49 256.5q0 152 -72 235t-199 83q-172 0 -287.5 -140t-115.5 -361
q0 -150 72.5 -236t200.5 -86z" />
    <glyph glyph-name="taugreek" unicode="&#x3c4;" horiz-adv-x="906" 
d="M714 113l-24 -112q-42 -10 -109 -10q-118 0 -185.5 51t-67.5 145q0 47 10 88l138 650h-341l24 115h870l-25 -115h-396l-130 -612q-11 -55 -11 -89q0 -117 168 -117q43 0 79 6z" />
    <glyph glyph-name="upsilongreek" unicode="&#x3c5;" horiz-adv-x="1043" 
d="M892 1040h132q17 -90 17 -212q0 -391 -154.5 -618t-423.5 -227q-157 0 -245 80t-88 218q0 70 16 143l130 616h134l-115 -541q-28 -131 -28 -203q0 -93 53 -144t155 -51q199 0 315.5 200t116.5 536q0 85 -15 203z" />
    <glyph glyph-name="phigreek" unicode="&#x3c6;" horiz-adv-x="1393" 
d="M503 -345l71 333q-212 23 -333 140t-121 301q0 278 187.5 449.5t491.5 173.5l54 254h130l-54 -255q210 -22 331 -140.5t121 -302.5q0 -181 -85.5 -322.5t-240 -219.5t-352.5 -78l-70 -333h-130zM597 100l179 841q-235 -3 -378.5 -140t-143.5 -357q0 -144 90.5 -234
t252.5 -110zM727 99q236 8 378 142.5t142 353.5q0 142 -91.5 234t-250.5 110z" />
    <glyph glyph-name="chigreek" unicode="&#x3c7;" horiz-adv-x="1091" 
d="M880 -349q-83 0 -125.5 32.5t-66.5 114.5l-123 416h-12l-415 -559h-144l531 697l-139 464q-19 63 -47 88t-84 25q-31 0 -57 -6l24 111q36 10 81 10q79 0 126 -35t71 -117l126 -422h12l415 570h143l-529 -708l133 -451q18 -63 47 -88.5t85 -25.5q30 0 55 5l-24 -111
q-42 -10 -83 -10z" />
    <glyph glyph-name="psigreek" unicode="&#x3c8;" horiz-adv-x="1319" 
d="M597 -345h-131l71 334q-407 9 -407 301q0 60 21 154l125 596h134l-129 -608q-14 -62 -14 -119q0 -102 70.5 -151.5t225.5 -54.5l253 1199h131l-254 -1199q130 3 226.5 58.5t154.5 155t86 229t28 291.5q0 71 -15 199h132q17 -93 17 -210q0 -115 -13.5 -216.5t-43.5 -198
t-81 -172t-121.5 -133.5t-171 -89t-223.5 -32z" />
    <glyph glyph-name="omegagreek" unicode="&#x3c9;" horiz-adv-x="1464" 
d="M1420 620q0 -178 -57.5 -324.5t-159 -229.5t-224.5 -83q-108 0 -177.5 60t-81.5 179h-2q-49 -112 -128 -175.5t-178 -63.5q-146 0 -223.5 97t-77.5 277q0 190 84.5 379t218.5 304h145q-146 -131 -230 -314t-84 -371q0 -116 48.5 -185.5t132.5 -69.5q96 0 163.5 74.5
t96.5 209.5l74 349h131l-66 -317q-11 -53 -11 -97q0 -107 45.5 -163t133.5 -56q128 0 210.5 148t82.5 381q0 231 -79 411h145q68 -162 68 -420z" />
    <glyph glyph-name="iotadieresisgreek" unicode="&#x3ca;" horiz-adv-x="519" 
d="M409 1040l-154 -724q-11 -53 -11 -88q0 -58 37.5 -89.5t108.5 -31.5q44 0 76 6l-24 -112q-62 -10 -98 -10q-111 0 -175.5 53.5t-64.5 146.5q0 40 10 89l162 760h133zM230 1227q-37 0 -64 27t-27 64q0 38 27 64.5t64 26.5q38 0 65 -26.5t27 -64.5q0 -37 -27 -64t-65 -27z
M571 1227q-38 0 -65 27t-27 64q0 38 27 64.5t65 26.5t64.5 -26.5t26.5 -64.5t-27 -64.5t-64 -26.5z" />
    <glyph glyph-name="upsilondieresisgreek" unicode="&#x3cb;" horiz-adv-x="1043" 
d="M892 1040h132q17 -90 17 -212q0 -391 -154.5 -618t-423.5 -227q-157 0 -245 80t-88 218q0 70 16 143l130 616h134l-115 -541q-28 -131 -28 -203q0 -93 53 -144t155 -51q199 0 315.5 200t116.5 536q0 85 -15 203zM530 1227q-37 0 -64 27t-27 64q0 38 27 64.5t64 26.5
q38 0 65 -26.5t27 -64.5q0 -37 -27 -64t-65 -27zM871 1227q-38 0 -65 27t-27 64q0 38 27 64.5t65 26.5t64.5 -26.5t26.5 -64.5t-27 -64.5t-64 -26.5z" />
    <glyph glyph-name="omicrontonosgreek" unicode="&#x3cc;" horiz-adv-x="1089" 
d="M547 100q171 0 285 144t114 359q0 153 -80.5 245t-215.5 92q-172 0 -286 -144t-114 -359q0 -153 80.5 -245t216.5 -92zM650 1057q196 0 313 -123t117 -327q0 -174 -69.5 -317t-192 -225t-271.5 -82q-196 0 -313.5 123t-117.5 327q0 174 69.5 317t192 225t272.5 82z
M684 1190l140 297h169l-198 -297h-111z" />
    <glyph glyph-name="upsilontonosgreek" unicode="&#x3cd;" horiz-adv-x="1043" 
d="M892 1040h132q17 -90 17 -212q0 -391 -154.5 -618t-423.5 -227q-157 0 -245 80t-88 218q0 70 16 143l130 616h134l-115 -541q-28 -131 -28 -203q0 -93 53 -144t155 -51q199 0 315.5 200t116.5 536q0 85 -15 203zM657 1190l140 297h169l-198 -297h-111z" />
    <glyph glyph-name="omegatonosgreek" unicode="&#x3ce;" horiz-adv-x="1464" 
d="M1420 620q0 -178 -57.5 -324.5t-159 -229.5t-224.5 -83q-108 0 -177.5 60t-81.5 179h-2q-49 -112 -128 -175.5t-178 -63.5q-146 0 -223.5 97t-77.5 277q0 190 84.5 379t218.5 304h145q-146 -131 -230 -314t-84 -371q0 -116 48.5 -185.5t132.5 -69.5q96 0 163.5 74.5
t96.5 209.5l74 349h131l-66 -317q-11 -53 -11 -97q0 -107 45.5 -163t133.5 -56q128 0 210.5 148t82.5 381q0 231 -79 411h145q68 -162 68 -420zM899 1190l140 297h169l-198 -297h-111z" />
    <glyph glyph-name="uni0400" unicode="&#x400;" horiz-adv-x="1112" 
d="M984 124l-26 -124h-873l307 1443h873l-27 -124h-733l-110 -519h696l-27 -122h-695l-118 -554h733zM784 1558l-192 288h140l164 -288h-112z" />
    <glyph glyph-name="Iocyrillic" unicode="&#x401;" horiz-adv-x="1112" 
d="M984 124l-26 -124h-873l307 1443h873l-27 -124h-733l-110 -519h696l-27 -122h-695l-118 -554h733zM710 1612q-37 0 -64 27t-27 64q0 38 27 64.5t64 26.5q38 0 65 -26.5t27 -64.5q0 -37 -27 -64t-65 -27zM1051 1612q-38 0 -65 27t-27 64q0 38 27 64.5t65 26.5t64.5 -26.5
t26.5 -64.5q0 -37 -27 -64t-64 -27z" />
    <glyph glyph-name="Djecyrillic" unicode="&#x402;" horiz-adv-x="1646" 
d="M490 0l281 1320h-482l26 123h1104l-26 -123h-483l-123 -579h11q68 69 165 109t199 40q198 0 308 -107.5t110 -298.5q0 -220 -139 -359t-359 -139q-106 0 -147 15l27 123q32 -13 122 -13q153 0 255 102.5t102 256.5q0 142 -76 219t-217 77q-108 0 -219.5 -56t-178.5 -142
l-120 -568h-140z" />
    <glyph glyph-name="Gjecyrillic" unicode="&#x403;" horiz-adv-x="1059" 
d="M224 0h-139l307 1443h851l-27 -124h-711zM890 1558h-129l304 288h158z" />
    <glyph glyph-name="Ecyrillic" unicode="&#x404;" horiz-adv-x="1396" 
d="M1346 411q-67 -206 -232.5 -323.5t-389.5 -117.5q-140 0 -250.5 51t-181 148t-96.5 237t4 319q29 216 128.5 384.5t262 266t361.5 97.5q135 0 250 -56t187 -159.5t77 -232.5q1 -6 1 -23h-139q-4 152 -115.5 248t-276.5 96q-210 0 -369.5 -150t-217.5 -395h693l-26 -124
h-689q-34 -264 77.5 -422t333.5 -158q166 0 289.5 86t178.5 228h140z" />
    <glyph glyph-name="Dzecyrillic" unicode="&#x405;" horiz-adv-x="1224" 
d="M110 416h137q13 -141 125 -227.5t288 -86.5q161 0 262.5 75.5t101.5 205.5q0 99 -62 160.5t-204 110.5l-107 37q-183 63 -267.5 152t-84.5 226q0 176 135.5 286t350.5 110q216 0 355 -112.5t143 -297.5h-137q-8 128 -106 207t-257 79q-158 0 -250.5 -76t-92.5 -186
q0 -91 64 -152t209 -111l108 -38q176 -59 261 -148.5t85 -221.5q0 -87 -34.5 -164t-97.5 -136.5t-160.5 -94.5t-216.5 -35q-151 0 -273 52.5t-196.5 153t-78.5 232.5z" />
    <glyph glyph-name="Icyrillic" unicode="&#x406;" horiz-adv-x="423" 
d="M224 0h-139l307 1443h139z" />
    <glyph glyph-name="Yicyrillic" unicode="&#x407;" horiz-adv-x="423" 
d="M224 0h-139l307 1443h139zM344 1612q-37 0 -64 27t-27 64q0 38 27 64.5t64 26.5q38 0 65 -26.5t27 -64.5q0 -37 -27 -64t-65 -27zM685 1612q-38 0 -65 27t-27 64q0 38 27 64.5t65 26.5t64.5 -26.5t26.5 -64.5q0 -37 -27 -64t-64 -27z" />
    <glyph glyph-name="Jecyrillic" unicode="&#x408;" horiz-adv-x="1006" 
d="M70 318v22h138v-6q0 -104 68.5 -166.5t181.5 -62.5q115 0 190 73.5t105 216.5l222 1048h139l-229 -1083q-39 -183 -153 -283t-288 -100q-163 0 -268.5 97t-105.5 244z" />
    <glyph glyph-name="Ljecyrillic" unicode="&#x409;" horiz-adv-x="2080" 
d="M461 510q-72 -265 -173 -392t-273 -127q-38 0 -63 10l26 123q19 -7 53 -7q107 0 176 101t123 299l252 926h834l-116 -544h307q199 0 322.5 -107t123.5 -284q0 -101 -40 -193.5t-110 -162t-173.5 -111t-222.5 -41.5h-538l281 1319h-567zM1580 777h-305l-140 -655h359
q179 0 298 105t119 261q0 141 -89 215t-242 74z" />
    <glyph glyph-name="Njecyrillic" unicode="&#x40a;" horiz-adv-x="2085" 
d="M1006 0l145 677h-781l-144 -677h-139l307 1443h139l-136 -642h779l137 642h140l-137 -643h320q188 0 305.5 -96t117.5 -254q0 -89 -37.5 -171t-104 -144t-165.5 -98.5t-215 -36.5h-531zM1171 122h352q179 0 286.5 87.5t107.5 224.5q0 117 -83.5 180.5t-224.5 63.5h-319z
" />
    <glyph glyph-name="Tshecyrillic" unicode="&#x40b;" horiz-adv-x="1656" 
d="M1140 766q-125 0 -236 -59.5t-171 -138.5l-121 -568h-139l280 1319h-482l27 124h1104l-27 -124h-483l-122 -576h13q172 147 382 147q217 0 319.5 -136t53.5 -368l-83 -386h-139l83 392q38 178 -32 276t-227 98z" />
    <glyph glyph-name="Kjecyrillic" unicode="&#x40c;" horiz-adv-x="1222" 
d="M1251 1846l-333 -288h-129l304 288h158zM1408 1443l-876 -709l612 -734h-169l-592 706h-8l-151 -706h-139l307 1443h139l-141 -671h8l821 671h189z" />
    <glyph glyph-name="uni040D" unicode="&#x40d;" horiz-adv-x="1407" 
d="M1071 0l256 1206h-12l-1092 -1206h-138l307 1443h138l-257 -1207h12l1093 1207h137l-307 -1443h-137zM909 1558l-192 288h140l164 -288h-112z" />
    <glyph glyph-name="Ushortcyrillic" unicode="&#x40e;" horiz-adv-x="1203" 
d="M219 -10q-50 0 -74 12l26 124q27 -9 73 -9q86 0 154 46t149 162l-262 1118h143l216 -961h12l606 961h156l-693 -1072q-69 -107 -122 -173.5t-113.5 -116t-125 -70.5t-145.5 -21zM599 1820h120q-17 -83 27 -132.5t129 -49.5q86 0 151.5 49.5t83.5 132.5h120
q-27 -128 -125 -201t-239 -73q-144 0 -219 73.5t-48 200.5z" />
    <glyph glyph-name="Dzhecyrillic" unicode="&#x40f;" horiz-adv-x="1383" 
d="M1185 0h-460l-61 -285h-123l61 285h-517l307 1443h137l-281 -1318h825l280 1318h139z" />
    <glyph glyph-name="Acyrillic" unicode="&#x410;" horiz-adv-x="1271" 
d="M853 1274l-408 -714h525l-113 714h-4zM1056 0l-68 443h-609l-256 -443h-151l844 1443h138l232 -1443h-130z" />
    <glyph glyph-name="Becyrillic" unicode="&#x411;" horiz-adv-x="1200" 
d="M623 0h-538l307 1443h838l-27 -124h-698l-99 -467h317q200 0 323 -101.5t123 -266.5q0 -96 -40 -184t-110 -154.5t-173.5 -106t-222.5 -39.5zM250 122h360q179 0 298 98t119 244q0 127 -88.5 196t-242.5 69h-316z" />
    <glyph glyph-name="Vecyrillic" unicode="&#x412;" horiz-adv-x="1266" 
d="M649 0h-564l307 1443h496q174 0 279 -87t105 -230q0 -137 -93.5 -241.5t-236.5 -136.5l-1 -4q121 -17 191.5 -98t70.5 -199q0 -198 -153.5 -322.5t-400.5 -124.5zM505 1322l-110 -520h348q167 0 277 84t110 213q0 108 -74.5 165.5t-216.5 57.5h-334zM250 121h397
q182 0 297 89t115 226q0 122 -83.5 185t-234.5 63h-371z" />
    <glyph glyph-name="Gecyrillic" unicode="&#x413;" horiz-adv-x="1059" 
d="M224 0h-139l307 1443h851l-27 -124h-711z" />
    <glyph glyph-name="Decyrillic" unicode="&#x414;" horiz-adv-x="1409" 
d="M451 503q-38 -136 -80 -223.5t-108 -145.5l-2 -10h768l254 1195h-609zM81 0l-61 -285h-128l87 409h103q154 72 238 384l255 935h874l-281 -1319h183l-86 -409h-128l61 285h-1117z" />
    <glyph glyph-name="Iecyrillic" unicode="&#x415;" horiz-adv-x="1112" 
d="M984 124l-26 -124h-873l307 1443h873l-27 -124h-733l-110 -519h696l-27 -122h-695l-118 -554h733z" />
    <glyph glyph-name="Zhecyrillic" unicode="&#x416;" horiz-adv-x="1908" 
d="M985 710l-832 -710h-188l895 762l-505 681h156l488 -668h8l143 668h136l-143 -670h9l773 670h179l-825 -713l548 -730h-159l-529 708h-9l-151 -708h-136l150 710h-8z" />
    <glyph glyph-name="Zecyrillic" unicode="&#x417;" horiz-adv-x="1173" 
d="M455 683l26 124h207q163 0 268 79.5t105 204.5q0 116 -84.5 186.5t-221.5 70.5q-131 0 -228 -72.5t-124 -187.5h-133q31 170 168 274t329 104q190 0 311 -100.5t121 -260.5q0 -138 -99 -240.5t-251 -121.5l-1 -4q125 -27 197 -110.5t72 -207.5q0 -191 -152 -317.5
t-387 -126.5q-226 0 -363 119t-128 289h132q-1 -122 101 -205t269 -83q169 0 278.5 89t109.5 224q0 128 -88 200.5t-241 72.5h-193z" />
    <glyph glyph-name="Iicyrillic" unicode="&#x418;" horiz-adv-x="1407" 
d="M1071 0l256 1206h-12l-1092 -1206h-138l307 1443h138l-257 -1207h12l1093 1207h137l-307 -1443h-137z" />
    <glyph glyph-name="Iishortcyrillic" unicode="&#x419;" horiz-adv-x="1407" 
d="M1071 0l256 1206h-12l-1092 -1206h-138l307 1443h138l-257 -1207h12l1093 1207h137l-307 -1443h-137zM712 1820h120q-17 -83 27 -132.5t129 -49.5q86 0 151.5 49.5t83.5 132.5h120q-27 -128 -125 -201t-239 -73q-144 0 -219 73.5t-48 200.5z" />
    <glyph glyph-name="Kacyrillic" unicode="&#x41a;" horiz-adv-x="1222" 
d="M1408 1443l-876 -709l612 -734h-169l-592 706h-8l-151 -706h-139l307 1443h139l-141 -671h8l821 671h189z" />
    <glyph glyph-name="Elcyrillic" unicode="&#x41b;" horiz-adv-x="1320" 
d="M1122 0h-140l281 1319h-580l-222 -809q-34 -125 -71 -213.5t-89 -161t-123 -108.5t-163 -36q-35 0 -63 10l26 123q16 -7 53 -7q57 0 103.5 29t82 86t62 124.5t51.5 160.5l252 926h847z" />
    <glyph glyph-name="Emcyrillic" unicode="&#x41c;" horiz-adv-x="1677" 
d="M215 0h-130l307 1443h150l267 -1271h4l802 1271h170l-307 -1443h-130l254 1192h-6l-755 -1185h-119l-250 1185h-5z" />
    <glyph glyph-name="Encyrillic" unicode="&#x41d;" horiz-adv-x="1404" 
d="M1205 0h-139l144 677h-841l-145 -677h-139l307 1443h139l-136 -642h841l137 642h139z" />
    <glyph glyph-name="Ocyrillic" unicode="&#x41e;" horiz-adv-x="1501" 
d="M923 1339q-172 0 -310.5 -98t-215.5 -266t-77 -370q0 -230 122.5 -365.5t327.5 -135.5q129 0 242 57.5t191.5 156t124 234t45.5 286.5q0 230 -122.5 365.5t-327.5 135.5zM769 -22q-266 0 -427.5 170t-161.5 451q0 178 56.5 338t154.5 276t237 184t297 68
q265 0 426.5 -170t161.5 -451q0 -178 -56.5 -338t-154 -276t-236.5 -184t-297 -68z" />
    <glyph glyph-name="Pecyrillic" unicode="&#x41f;" horiz-adv-x="1383" 
d="M1185 0h-137l280 1318h-824l-280 -1318h-139l307 1443h1100z" />
    <glyph glyph-name="Ercyrillic" unicode="&#x420;" horiz-adv-x="1205" 
d="M394 1443h475q182 0 299 -106.5t117 -278.5q0 -157 -76 -274.5t-207.5 -178.5t-299.5 -61h-361l-116 -544h-140zM507 1321l-140 -655h330q201 0 323.5 101t122.5 279q0 127 -84.5 201t-232.5 74h-319z" />
    <glyph glyph-name="Escyrillic" unicode="&#x421;" horiz-adv-x="1392" 
d="M1325 976q0 5 -2 17q-10 157 -123 251.5t-288 94.5q-169 0 -305 -96.5t-211.5 -266t-75.5 -379.5q0 -226 120.5 -359.5t324.5 -133.5q160 0 281 81t176 226h139q-62 -200 -223.5 -316.5t-375.5 -116.5q-265 0 -423.5 167t-158.5 446q0 183 55.5 345t152.5 278.5
t234 183.5t293 67q236 0 386.5 -128.5t160.5 -341.5q1 -10 1 -19h-138z" />
    <glyph glyph-name="Tecyrillic" unicode="&#x422;" horiz-adv-x="1198" 
d="M612 0h-139l280 1319h-482l26 124h1104l-26 -124h-482z" />
    <glyph glyph-name="Ucyrillic" unicode="&#x423;" horiz-adv-x="1203" 
d="M219 -10q-50 0 -74 12l26 124q27 -9 73 -9q86 0 154 46t149 162l-262 1118h143l216 -961h12l606 961h156l-693 -1072q-69 -107 -122 -173.5t-113.5 -116t-125 -70.5t-145.5 -21z" />
    <glyph glyph-name="Efcyrillic" unicode="&#x424;" horiz-adv-x="1579" 
d="M797 -17h-136l33 154q-250 8 -392 136.5t-142 348.5q0 194 100.5 350t279.5 246.5t404 94.5l31 147h135l-31 -147q250 -8 392 -136.5t142 -348.5q0 -194 -100.5 -350t-279.5 -246.5t-404 -94.5zM300 625q0 -168 111 -264.5t309 -100.5l198 930q-269 -7 -443.5 -166.5
t-174.5 -398.5zM1474 825q0 168 -111.5 264.5t-309.5 100.5l-198 -930q269 7 444 166.5t175 398.5z" />
    <glyph glyph-name="Xacyrillic" unicode="&#x425;" horiz-adv-x="1265" 
d="M-18 0l662 731l-345 712h156l291 -614h5l548 614h177l-660 -731l344 -712h-156l-291 615h-6l-548 -615h-177z" />
    <glyph glyph-name="Tsecyrillic" unicode="&#x426;" horiz-adv-x="1475" 
d="M1307 -285h-128l61 285h-1153l308 1443h140l-281 -1318h816l280 1318h142l-281 -1319h183z" />
    <glyph glyph-name="Checyrillic" unicode="&#x427;" horiz-adv-x="1278" 
d="M1080 0h-140l144 676h-12q-71 -54 -173.5 -88.5t-226.5 -34.5q-154 0 -258 66.5t-143 184.5t-7 268l79 371h140l-80 -372q-37 -176 39.5 -283.5t252.5 -107.5q136 0 246 42t174 102l132 619h140z" />
    <glyph glyph-name="Shacyrillic" unicode="&#x428;" horiz-adv-x="1832" 
d="M85 0l307 1443h139l-281 -1319h565l281 1319h140l-281 -1319h565l281 1319h139l-307 -1443h-1548z" />
    <glyph glyph-name="Shchacyrillic" unicode="&#x429;" horiz-adv-x="1900" 
d="M1755 -285h-127l61 285h-1604l307 1443h139l-281 -1319h565l281 1319h140l-281 -1319h565l281 1319h139l-281 -1319h183z" />
    <glyph glyph-name="Hardsigncyrillic" unicode="&#x42a;" horiz-adv-x="1438" 
d="M854 0h-538l281 1319h-339l27 124h478l-119 -558h307q201 0 324 -106t123 -282q0 -219 -154.5 -358t-389.5 -139zM924 763h-305l-137 -641h359q180 0 297.5 103t117.5 264q0 130 -89 202t-243 72z" />
    <glyph glyph-name="Yericyrillic" unicode="&#x42b;" horiz-adv-x="1606" 
d="M693 763h-306l-137 -641h360q180 0 297 103t117 264q0 132 -89.5 203t-241.5 71zM85 0l307 1443h139l-118 -558h307q199 0 322.5 -105.5t123.5 -282.5q0 -145 -71 -259t-194.5 -176t-277.5 -62h-538zM1411 0h-139l307 1443h139z" />
    <glyph glyph-name="Softsigncyrillic" unicode="&#x42c;" horiz-adv-x="1192" 
d="M693 763h-306l-137 -641h360q180 0 297 103t117 264q0 132 -89.5 203t-241.5 71zM85 0l307 1443h139l-118 -558h307q199 0 322.5 -105.5t123.5 -282.5q0 -145 -71 -259t-194.5 -176t-277.5 -62h-538z" />
    <glyph glyph-name="Ereversedcyrillic" unicode="&#x42d;" horiz-adv-x="1377" 
d="M643 -22q-209 0 -355.5 124.5t-158.5 312.5h141q21 -142 127 -226.5t262 -84.5q214 0 370.5 155.5t207.5 418.5h-677l26 122h669q18 243 -93.5 390t-314.5 147q-162 0 -286 -88.5t-188 -250.5h-139q66 220 231.5 343.5t394.5 123.5q186 0 315.5 -93.5t183 -263
t19.5 -389.5q-44 -337 -244 -539t-491 -202z" />
    <glyph glyph-name="IUcyrillic" unicode="&#x42e;" horiz-adv-x="1969" 
d="M1239 104q171 0 309.5 98t216 267.5t77.5 374.5q0 226 -119 360.5t-319 134.5q-130 0 -243 -58.5t-191.5 -158.5t-123.5 -236t-45 -287q0 -226 119 -360.5t319 -134.5zM395 801h286q28 142 93.5 263.5t158.5 210.5t214.5 139.5t256.5 50.5q262 0 420 -169.5t158 -447.5
q0 -179 -57 -340t-155 -277.5t-236.5 -184.5t-294.5 -68q-262 0 -420 169t-158 447q0 42 3 83h-296l-144 -677h-139l307 1443h139z" />
    <glyph glyph-name="IAcyrillic" unicode="&#x42f;" horiz-adv-x="1248" 
d="M746 687h310l135 634h-360q-179 0 -298 -101.5t-119 -251.5q0 -135 89 -208t243 -73zM718 566l-517 -566h-178l536 587q-134 37 -210.5 132t-76.5 229q0 98 40 187.5t110 158t173.5 109t222.5 40.5h538l-307 -1443h-139l120 565h-298q-10 0 -14 1z" />
    <glyph glyph-name="acyrillic" unicode="&#x430;" horiz-adv-x="1001" 
d="M435 97q126 0 223.5 75t123.5 192l31 141l-310 -17q-140 -8 -216 -62.5t-76 -147.5q0 -82 62 -131.5t162 -49.5zM402 -17q-139 0 -232 79t-93 202q0 149 111.5 234t315.5 96l331 18l16 74q6 26 6 63q0 89 -61.5 140t-172.5 51q-116 0 -191 -53.5t-95 -145.5h-138
q25 142 142.5 229t291.5 87q161 0 259 -80t98 -210q0 -46 -8 -89l-144 -678h-128l33 153h-3q-55 -79 -144.5 -124.5t-193.5 -45.5z" />
    <glyph glyph-name="becyrillic" unicode="&#x431;" horiz-adv-x="1102" 
d="M688 1035q179 0 289.5 -120.5t110.5 -313.5q0 -272 -148.5 -445t-384.5 -173q-197 0 -314 134.5t-117 362.5q0 151 50 326q57 204 135 329t201.5 191.5t302.5 72.5q31 0 145 6q67 4 137 18t106 31l-25 -124q-68 -37 -237 -46q-44 -7 -148 -7q-192 -5 -301 -108t-181 -333
h12q137 199 367 199zM564 101q161 0 273 138t112 335q0 160 -78 251t-216 91q-175 0 -286.5 -136t-111.5 -345q0 -150 84 -242t223 -92z" />
    <glyph glyph-name="vecyrillic" unicode="&#x432;" horiz-adv-x="981" 
d="M61 0l221 1040h391q137 0 214 -62t77 -169q0 -98 -66 -168t-170 -91l-2 -12q89 -12 142.5 -64.5t53.5 -135.5q0 -149 -119.5 -243.5t-314.5 -94.5h-427zM562 482h-265l-79 -371h290q125 0 201 61t76 157q0 153 -223 153zM650 929h-258l-71 -337h250q113 0 184.5 56.5
t71.5 143.5q0 137 -177 137z" />
    <glyph glyph-name="gecyrillic" unicode="&#x433;" horiz-adv-x="830" 
d="M909 929h-516l-198 -929h-134l221 1040h650z" />
    <glyph glyph-name="decyrillic" unicode="&#x434;" horiz-adv-x="1168" 
d="M812 111l174 818h-449q-9 -34 -66.5 -236.5t-70.5 -244.5q-71 -241 -161 -325l-2 -12h575zM35 -275h-124l83 386h85q57 36 109.5 127.5t87.5 213.5q44 139 167 588h699l-196 -929h167l-82 -386h-124l58 275h-871z" />
    <glyph glyph-name="iecyrillic" unicode="&#x435;" horiz-adv-x="1057" 
d="M275 599h636q3 16 3 49q0 128 -71 210.5t-204 82.5q-135 0 -233 -95.5t-131 -246.5zM539 -19q-199 0 -309.5 122.5t-110.5 323.5q0 174 66.5 318t186.5 228t269 84q188 0 297.5 -114.5t109.5 -311.5q0 -81 -11 -139h-779q-4 -31 -4 -60q0 -154 78 -243.5t210 -89.5
q115 0 198.5 56t122.5 155h131q-43 -146 -167 -237.5t-288 -91.5z" />
    <glyph glyph-name="zhecyrillic" unicode="&#x436;" horiz-adv-x="1435" 
d="M1569 1040l-592 -504l397 -536h-155l-376 506h-6l-108 -506h-133l107 507h-5l-572 -507h-179l631 559l-365 481h153l346 -467h5l100 467h133l-99 -467h6l542 467h170z" />
    <glyph glyph-name="zecyrillic" unicode="&#x437;" horiz-adv-x="957" 
d="M883 318q-2 -147 -123.5 -241.5t-303.5 -94.5q-170 0 -271 90.5t-105 231.5h131q3 -87 72.5 -146.5t181.5 -59.5q122 0 203 63t81 157q1 79 -57 119.5t-165 40.5h-156l24 109h160q106 0 175.5 52.5t70.5 131.5q1 78 -58 123.5t-161 45.5q-104 0 -180 -57t-102 -151h-132
q37 149 148.5 236.5t276.5 87.5q157 0 251.5 -74t92.5 -191q-1 -94 -65.5 -164.5t-157.5 -86.5l-1 -5q79 -18 125 -74.5t45 -142.5z" />
    <glyph glyph-name="iicyrillic" unicode="&#x438;" horiz-adv-x="1088" 
d="M196 0h-135l221 1040h134l-177 -830h8l753 830h134l-221 -1040h-133l177 831h-8z" />
    <glyph glyph-name="iishortcyrillic" unicode="&#x439;" horiz-adv-x="1088" 
d="M196 0h-135l221 1040h134l-177 -830h8l753 830h134l-221 -1040h-133l177 831h-8zM492 1513h117q-19 -88 22 -146.5t129 -58.5q92 0 156.5 58.5t83.5 146.5h120q-29 -135 -124.5 -216.5t-247.5 -81.5q-139 0 -211.5 84t-44.5 214z" />
    <glyph glyph-name="kacyrillic" unicode="&#x43a;" horiz-adv-x="940" 
d="M1065 1040l-612 -501l419 -539h-165l-398 507h-7l-107 -507h-134l221 1040h134l-100 -467h7l565 467h177z" />
    <glyph glyph-name="elcyrillic" unicode="&#x43b;" horiz-adv-x="1056" 
d="M391 448q-73 -247 -154 -352t-218 -105q-35 0 -63 10l26 121q24 -8 50 -8q73 0 129 84.5t105 254.5q17 55 85.5 297t80.5 290h666l-221 -1040h-134l198 929h-413q-128 -452 -137 -481z" />
    <glyph glyph-name="emcyrillic" unicode="&#x43c;" horiz-adv-x="1367" 
d="M195 0h-134l221 1040h158l217 -858h5l589 858h163l-221 -1040h-134l170 801h-7l-543 -780h-96l-211 780h-7z" />
    <glyph glyph-name="encyrillic" unicode="&#x43d;" horiz-adv-x="1068" 
d="M61 0l221 1040h135l-95 -445h563l95 445h134l-221 -1040h-134l103 484h-564l-103 -484h-134z" />
    <glyph glyph-name="ocyrillic" unicode="&#x43e;" horiz-adv-x="1099" 
d="M552 100q171 0 285 144t114 359q0 153 -80.5 245t-215.5 92q-172 0 -286 -144t-114 -359q0 -153 80.5 -245t216.5 -92zM655 1057q196 0 313 -123t117 -327q0 -174 -69.5 -317t-192 -225t-271.5 -82q-196 0 -313.5 123t-117.5 327q0 174 69.5 317t192 225t272.5 82z" />
    <glyph glyph-name="pecyrillic" unicode="&#x43f;" horiz-adv-x="1059" 
d="M750 0l198 929h-555l-198 -929h-134l221 1040h823l-221 -1040h-134z" />
    <glyph glyph-name="ercyrillic" unicode="&#x440;" horiz-adv-x="1130" 
d="M594 101q166 0 279 143.5t113 357.5q0 158 -75 248t-208 90q-116 0 -209 -72t-143.5 -190.5t-50.5 -256.5q0 -143 80.5 -231.5t213.5 -88.5zM118 -345h-131l295 1385h130l-42 -197h4q54 97 151.5 155.5t207.5 58.5q176 0 279.5 -121.5t103.5 -325.5q0 -176 -68 -320
t-187 -225.5t-265 -81.5q-131 0 -227.5 74t-120.5 190h-5z" />
    <glyph glyph-name="escyrillic" unicode="&#x441;" horiz-adv-x="1031" 
d="M652 1057q184 0 291.5 -101t113.5 -250v-5h-129q-8 104 -82.5 171.5t-194.5 67.5q-171 0 -282.5 -143t-111.5 -361q0 -154 79 -245t209 -91q109 0 191.5 56.5t120.5 153.5h131q-43 -145 -165 -236t-279 -91q-199 0 -311 123.5t-112 324.5q0 175 68 318t190 225.5
t273 82.5z" />
    <glyph glyph-name="tecyrillic" unicode="&#x442;" horiz-adv-x="878" 
d="M1017 1040l-23 -111h-348l-198 -929h-134l198 929h-349l24 111h830z" />
    <glyph glyph-name="ucyrillic" unicode="&#x443;" horiz-adv-x="951" 
d="M94 -369q-54 0 -97 13l20 112q39 -13 80 -13q124 0 218 179l41 76l-173 1042h132l138 -896h4l494 896h147l-663 -1160q-81 -143 -158.5 -196t-182.5 -53z" />
    <glyph glyph-name="efcyrillic" unicode="&#x444;" horiz-adv-x="1402" 
d="M633 -357h-131l73 341q-206 8 -330 130t-124 315q0 180 84.5 322.5t240.5 224t358 84.5l73 341h131l-74 -344q206 -8 330 -129.5t124 -314.5q0 -274 -188.5 -450.5t-493.5 -180.5zM1251 596q0 158 -91 249t-250 96l-180 -844q232 8 376.5 148.5t144.5 350.5zM259 445
q0 -158 91 -249t250 -96l179 844q-153 -5 -272 -71.5t-183.5 -178t-64.5 -249.5z" />
    <glyph glyph-name="hacyrillic" unicode="&#x445;" horiz-adv-x="937" 
d="M509 417h-4l-369 -417h-158l473 530l-254 510h139l205 -418h4l370 418h158l-474 -531l255 -509h-140z" />
    <glyph glyph-name="tsecyrillic" unicode="&#x446;" horiz-adv-x="1130" 
d="M994 -275h-124l59 275h-868l221 1040h134l-198 -929h555l198 929h134l-198 -929h168z" />
    <glyph glyph-name="checyrillic" unicode="&#x447;" horiz-adv-x="1005" 
d="M831 0h-134l99 468h-13q-120 -89 -283 -89q-168 0 -247 105.5t-42 279.5l58 276h134l-60 -280q-27 -126 21.5 -195t168.5 -69q82 0 159 29.5t133 79.5l93 435h134z" />
    <glyph glyph-name="shacyrillic" unicode="&#x448;" horiz-adv-x="1513" 
d="M61 0l221 1040h135l-198 -929h438l197 929h134l-198 -929h439l197 929h134l-221 -1040h-1278z" />
    <glyph glyph-name="shchacyrillic" unicode="&#x449;" horiz-adv-x="1585" 
d="M1448 -275h-123l59 275h-1323l221 1040h135l-198 -929h438l197 929h134l-198 -929h439l197 929h134l-197 -929h167z" />
    <glyph glyph-name="hardsigncyrillic" unicode="&#x44a;" horiz-adv-x="1081" 
d="M585 0h-352l197 929h-277l23 111h412l-74 -352h217q150 0 234.5 -75.5t84.5 -199.5q0 -179 -127.5 -296t-337.5 -117zM707 578h-217l-100 -467h218q139 0 223.5 83.5t84.5 202.5q0 86 -54 133.5t-155 47.5z" />
    <glyph glyph-name="yericyrillic" unicode="&#x44b;" horiz-adv-x="1264" 
d="M946 0l221 1040h134l-221 -1040h-134zM533 578h-215l-100 -467h214q139 0 224.5 83.5t85.5 202.5q0 86 -54.5 133.5t-154.5 47.5zM61 0l221 1040h134l-75 -352h216q149 0 234 -75.5t85 -199.5q0 -179 -128 -296t-338 -117h-349z" />
    <glyph glyph-name="softsigncyrillic" unicode="&#x44c;" horiz-adv-x="907" 
d="M533 578h-215l-100 -467h214q139 0 224.5 83.5t85.5 202.5q0 86 -54.5 133.5t-154.5 47.5zM61 0l221 1040h134l-75 -352h216q149 0 234 -75.5t85 -199.5q0 -179 -128 -296t-338 -117h-349z" />
    <glyph glyph-name="ereversedcyrillic" unicode="&#x44d;" horiz-adv-x="1045" 
d="M159 731q52 151 172 238.5t286 87.5q187 0 301 -115.5t114 -308.5q0 -134 -39 -252.5t-109 -207t-174.5 -140t-227.5 -51.5q-174 0 -278 90t-113 227h132q11 -88 83 -143.5t180 -55.5q153 0 259 105.5t136 276.5h-503l23 111h492q1 8 1 23q2 148 -77 235.5t-216 87.5
q-105 0 -185.5 -55t-124.5 -153h-132z" />
    <glyph glyph-name="iucyrillic" unicode="&#x44e;" horiz-adv-x="1499" 
d="M958 -17q-196 0 -311 123t-115 332q0 36 1 46h-232l-103 -484h-134l221 1040h134l-95 -445h224q46 205 183.5 333.5t326.5 128.5q195 0 311 -122.5t116 -326.5q0 -177 -67.5 -319.5t-188 -224t-271.5 -81.5zM959 100q168 0 280 145.5t112 359.5q0 153 -79.5 244
t-214.5 91q-110 0 -200.5 -67t-141 -183t-50.5 -255q0 -154 79 -244.5t215 -90.5z" />
    <glyph glyph-name="iacyrillic" unicode="&#x44f;" horiz-adv-x="960" 
d="M543 501h216l91 428h-224q-136 0 -216.5 -66.5t-80.5 -173.5q0 -89 56 -138.5t158 -49.5zM652 0l82 390h-196h-2l-363 -390h-170l389 415q-94 25 -147.5 95.5t-53.5 170.5q0 162 123 260.5t332 98.5h361l-221 -1040h-134z" />
    <glyph glyph-name="uni0450" unicode="&#x450;" horiz-adv-x="1057" 
d="M275 599h636q3 16 3 49q0 128 -71 210.5t-204 82.5q-135 0 -233 -95.5t-131 -246.5zM539 -19q-199 0 -309.5 122.5t-110.5 323.5q0 174 66.5 318t186.5 228t269 84q188 0 297.5 -114.5t109.5 -311.5q0 -81 -11 -139h-779q-4 -31 -4 -60q0 -154 78 -243.5t210 -89.5
q115 0 198.5 56t122.5 155h131q-43 -146 -167 -237.5t-288 -91.5zM765 1222h-109l-183 302h136z" />
    <glyph glyph-name="iocyrillic" unicode="&#x451;" horiz-adv-x="1057" 
d="M275 599h636q3 16 3 49q0 128 -71 210.5t-204 82.5q-135 0 -233 -95.5t-131 -246.5zM539 -19q-199 0 -309.5 122.5t-110.5 323.5q0 174 66.5 318t186.5 228t269 84q188 0 297.5 -114.5t109.5 -311.5q0 -81 -11 -139h-779q-4 -31 -4 -60q0 -154 78 -243.5t210 -89.5
q115 0 198.5 56t122.5 155h131q-43 -146 -167 -237.5t-288 -91.5zM549 1227q-37 0 -64 27t-27 64q0 38 27 64.5t64 26.5q38 0 65 -26.5t27 -64.5q0 -37 -27 -64t-65 -27zM890 1227q-38 0 -65 27t-27 64q0 38 27 64.5t65 26.5t64.5 -26.5t26.5 -64.5t-26.5 -64.5t-64.5 -26.5
z" />
    <glyph glyph-name="djecyrillic" unicode="&#x452;" horiz-adv-x="1093" 
d="M377 860h4q57 90 150.5 143.5t203.5 53.5q146 0 241.5 -89.5t95.5 -224.5q0 -61 -12 -113l-154 -707q-32 -147 -104.5 -209.5t-202.5 -60.5h-82l28 124l46 -1q149 -3 185 160l146 670q12 56 12 101q0 106 -68.5 169t-183.5 63q-129 0 -226.5 -85t-125.5 -216l-136 -638
h-133l261 1227h-136l20 97h136l28 130h133l-28 -130h239l-20 -97h-239z" />
    <glyph glyph-name="gjecyrillic" unicode="&#x453;" horiz-adv-x="830" 
d="M909 929h-516l-198 -929h-134l221 1040h650zM686 1222h-127l286 302h152z" />
    <glyph glyph-name="ecyrillic" unicode="&#x454;" horiz-adv-x="1027" 
d="M981 301q-40 -137 -163.5 -228t-278.5 -91q-200 0 -310.5 121t-110.5 319q0 176 68 321t191 229.5t275 84.5q178 0 286.5 -94t118.5 -233h-130q-15 93 -88.5 151.5t-187.5 58.5q-134 0 -236.5 -95.5t-141.5 -249.5h499l-22 -109h-493q-4 -25 -4 -58q0 -151 77 -240
t210 -89q105 0 189.5 56.5t120.5 145.5h131z" />
    <glyph glyph-name="dzecyrillic" unicode="&#x455;" horiz-adv-x="947" 
d="M207 759q0 130 104.5 214t270.5 84q163 0 267.5 -87t109.5 -225h-127q-9 89 -78.5 145.5t-173.5 56.5q-108 0 -175.5 -50t-67.5 -127q0 -61 42.5 -100t146.5 -73l90 -29q141 -46 202 -109.5t61 -164.5q0 -136 -110.5 -223.5t-281.5 -87.5q-177 0 -291 89.5t-122 229.5
h133q14 -94 90.5 -151.5t195.5 -57.5q110 0 181.5 55.5t71.5 138.5q0 61 -40.5 96t-150.5 71l-90 30q-136 44 -197 109t-61 166z" />
    <glyph glyph-name="icyrillic" unicode="&#x456;" horiz-adv-x="383" 
d="M67 0l221 1040h134l-221 -1040h-134zM414 1230q-37 0 -63 25.5t-26 62.5t26 62.5t63 25.5q36 0 62 -25.5t26 -62.5t-26 -62.5t-62 -25.5z" />
    <glyph glyph-name="yicyrillic" unicode="&#x457;" horiz-adv-x="365" 
d="M254 1222q-37 0 -63 26t-26 63t26 62.5t63 25.5q36 0 62.5 -26t26.5 -62q0 -37 -26.5 -63t-62.5 -26zM582 1222q-36 0 -62.5 26t-26.5 63q0 36 26.5 62t62.5 26q37 0 63.5 -25.5t26.5 -62.5t-26.5 -63t-63.5 -26zM68 0l221 1040h134l-221 -1040h-134z" />
    <glyph glyph-name="jecyrillic" unicode="&#x458;" horiz-adv-x="383" 
d="M421 1230q-37 0 -63 25.5t-26 62.5t26 62.5t63 25.5q36 0 62 -25.5t26 -62.5t-26 -62.5t-62 -25.5zM423 1040l-241 -1129q-30 -139 -107 -202t-210 -64q-40 0 -75 4l26 115q30 -3 52 -3q80 0 122 38.5t61 128.5l238 1112h134z" />
    </font>
</defs>
</svg>
