<?xml version="1.0" standalone="no"?>
<!DOCTYPE svg PUBLIC "-//W3C//DTD SVG 1.1//EN" "http://www.w3.org/Graphics/SVG/1.1/DTD/svg11.dtd" >
<svg xmlns="http://www.w3.org/2000/svg" xmlns:xlink="http://www.w3.org/1999/xlink" version="1.1">
<metadata>
Created by FontForge 20201107 at Wed May 31 05:49:28 2017
 By 
(c) 2015-2017 Apple Inc. All rights reserved.
</metadata>
<defs>
<font id="SFProDisplay-HeavyItalic" horiz-adv-x="0" >
  <font-face 
    font-family="SF Pro Display"
    font-weight="800"
    font-style="italic"
    font-stretch="normal"
    units-per-em="2048"
    panose-1="0 0 9 0 0 0 0 0 0 0"
    ascent="1638"
    descent="-410"
    x-height="1089"
    cap-height="1443"
    bbox="-613 -535 2873 2206"
    underline-thickness="227"
    underline-position="-376"
    slope="-12"
    unicode-range="U+0020-FB02"
  />
<missing-glyph horiz-adv-x="2048" 
d="M-88 -494l35 165h1847l-35 -165h-1847zM9 -38l35 165h1847l-35 -165h-1847zM106 417l35 166h1847l-35 -166h-1847zM202 874l36 165h1847l-35 -165h-1848zM300 1330l35 164h1847l-35 -164h-1847zM396 1785l35 165h1848l-36 -165h-1847z" />
    <glyph glyph-name=".notdef" horiz-adv-x="2048" 
d="M-88 -494l35 165h1847l-35 -165h-1847zM9 -38l35 165h1847l-35 -165h-1847zM106 417l35 166h1847l-35 -166h-1847zM202 874l36 165h1847l-35 -165h-1848zM300 1330l35 164h1847l-35 -164h-1847zM396 1785l35 165h1848l-36 -165h-1847z" />
    <glyph glyph-name=".null" 
 />
    <glyph glyph-name="nonmarkingreturn" 
 />
    <glyph glyph-name="space" unicode=" " horiz-adv-x="431" 
 />
    <glyph glyph-name="exclam" unicode="!" horiz-adv-x="707" 
d="M399 1443h368l-238 -970h-305zM301 -33q-79 0 -134 52t-55 128q0 75 55 127t134 52q78 0 133.5 -52t55.5 -127t-55.5 -127.5t-133.5 -52.5z" />
    <glyph glyph-name="quotedbl" unicode="&#x22;" horiz-adv-x="975" 
d="M496 851h-298l126 592h297zM973 851h-297l125 592h298z" />
    <glyph glyph-name="numbersign" unicode="#" horiz-adv-x="1343" 
d="M614 0l120 368h-223l-120 -368h-262l119 368h-221l80 253h222l71 221h-222l80 251h223l115 351h262l-114 -351h223l114 351h264l-114 -351h229l-78 -251h-233l-71 -221h231l-79 -253h-233l-119 -368h-264zM562 594h264l91 274h-266z" />
    <glyph glyph-name="dollar" unicode="$" horiz-adv-x="1372" 
d="M790 549l-62 -288q90 5 143 47t53 108q0 45 -29.5 75t-104.5 58zM720 900l61 283q-82 -4 -131.5 -45t-49.5 -103q0 -85 120 -135zM855 856l65 -19q182 -54 268.5 -148t86.5 -232q0 -213 -159.5 -336.5t-427.5 -123.5h-16l-28 -133h-144l31 146q-192 33 -303 143t-115 274
h338q4 -53 40 -92t97 -58l67 315l-66 20q-164 50 -253.5 153t-89.5 237q0 199 154 321.5t404 122.5q22 0 33 -1l29 139h144l-33 -157q171 -39 272.5 -149t104.5 -262h-328q-8 97 -106 144z" />
    <glyph glyph-name="percent" unicode="%" horiz-adv-x="1808" 
d="M183 1020q0 198 109.5 324t280.5 126q154 0 239 -81t85 -228q0 -197 -112 -325t-282 -128q-152 0 -236 82t-84 230zM504 908q43 0 80.5 87.5t37.5 188.5q0 86 -50 86q-43 0 -78.5 -86t-35.5 -189q0 -87 46 -87zM436 0h-282l725 770l634 673h282l-706 -749zM1053 288
q0 198 110 324.5t280 126.5q154 0 239 -81.5t85 -227.5q0 -197 -112 -325.5t-282 -128.5q-151 0 -235.5 82.5t-84.5 229.5zM1374 177q43 0 80.5 87t37.5 188q0 86 -50 86q-43 0 -78.5 -85.5t-35.5 -188.5q0 -87 46 -87z" />
    <glyph glyph-name="ampersand" unicode="&#x26;" horiz-adv-x="1489" 
d="M658 1078q0 -69 84 -176q202 76 202 215q0 54 -36 86.5t-94 32.5q-65 0 -110.5 -46t-45.5 -112zM611 215q118 0 218 55l-230 348q-4 -1 -13.5 -5t-17 -6.5l-10.5 -3.5q-88 -34 -134.5 -87.5t-46.5 -121.5q0 -79 65 -129t169 -50zM1006 0l-45 68q-181 -96 -383 -96
q-227 0 -375.5 111t-148.5 281q0 138 88 243.5t261 173.5l77 31q-116 166 -116 297q0 150 127 251t317 101q183 0 305 -89.5t122 -223.5q0 -269 -371 -418l180 -266q91 131 101 274l2 24h285l-3 -29q-27 -276 -234 -491l162 -242h-351z" />
    <glyph glyph-name="quotesingle" unicode="'" horiz-adv-x="497" 
d="M496 851h-298l126 592h297z" />
    <glyph glyph-name="parenleft" unicode="(" horiz-adv-x="775" 
d="M592 -312h-320q-57 115 -91 298.5t-34 364.5q0 313 118.5 599t331.5 493h368q-211 -208 -336.5 -503.5t-122.5 -648.5q3 -378 86 -603z" />
    <glyph glyph-name="parenright" unicode=")" horiz-adv-x="775" 
d="M257 1443h320q58 -113 91.5 -295.5t33.5 -367.5q0 -313 -118.5 -599t-331.5 -493h-368q211 208 336.5 503.5t122.5 648.5q-3 378 -86 603z" />
    <glyph glyph-name="asterisk" unicode="*" horiz-adv-x="972" 
d="M889 788l-200 194l-17 -286l-212 23l81 270l-250 -139l-74 192l277 84l-234 136l129 169l195 -188l17 281l215 -22l-79 -268l249 138l74 -195l-281 -86l238 -136z" />
    <glyph glyph-name="plus" unicode="+" horiz-adv-x="1372" 
d="M847 431l-88 -416h-319l88 416h-390l65 305h390l89 421h319l-89 -421h403l-64 -305h-404z" />
    <glyph glyph-name="comma" unicode="," horiz-adv-x="593" 
d="M200 -331h-258l189 592h327z" />
    <glyph glyph-name="hyphen" unicode="-" horiz-adv-x="830" 
d="M100 437l64 302h650l-64 -302h-650z" />
    <glyph glyph-name="hyphen" unicode="&#x2011;" horiz-adv-x="830" 
d="M100 437l64 302h650l-64 -302h-650z" />
    <glyph glyph-name="period" unicode="." horiz-adv-x="595" 
d="M252 -13q-77 0 -131.5 54.5t-54.5 131.5t54.5 131.5t131.5 54.5t131.5 -54.5t54.5 -131.5t-54.5 -131.5t-131.5 -54.5z" />
    <glyph glyph-name="slash" unicode="/" horiz-adv-x="775" 
d="M192 -312h-341l807 1755h341z" />
    <glyph glyph-name="zero" unicode="0" horiz-adv-x="1413" 
d="M685 -25q-244 0 -393 156t-149 412q0 199 54 371.5t149 294t229.5 190.5t290.5 69q247 0 396.5 -155.5t149.5 -410.5q0 -267 -93 -478.5t-259 -330t-375 -118.5zM514 552q0 -141 48.5 -217t137.5 -76q90 0 169 86.5t125.5 233.5t46.5 314q0 140 -49 215t-140 75
q-89 0 -167.5 -86t-124.5 -232t-46 -313z" />
    <glyph glyph-name="one" unicode="1" horiz-adv-x="1030" 
d="M376 0l236 1109h-7l-411 -244l69 328l421 250h366l-307 -1443h-367z" />
    <glyph glyph-name="two" unicode="2" horiz-adv-x="1284" 
d="M207 991q16 208 182.5 342.5t408.5 134.5q223 0 367 -113t144 -288q0 -94 -38.5 -169.5t-132.5 -165t-285 -231.5l-273 -211l-1 -7h599l-60 -283h-1090l56 256l527 403q209 158 274 230t65 145q0 68 -49.5 110.5t-127.5 42.5q-91 0 -152.5 -51.5t-79.5 -144.5h-334z" />
    <glyph glyph-name="three" unicode="3" horiz-adv-x="1332" 
d="M519 608l54 261h171q114 0 179.5 44.5t65.5 122.5q0 68 -54 109.5t-144 41.5q-83 0 -141.5 -38t-75.5 -102h-332q37 194 193.5 307.5t386.5 113.5q226 0 370.5 -108t144.5 -278q0 -136 -95 -235t-244 -119l-1 -7q116 -29 181.5 -108t65.5 -192q0 -193 -166.5 -319.5
t-421.5 -126.5q-260 0 -414.5 118.5t-152.5 314.5q0 34 6 63h337q-11 -90 55 -151.5t176 -61.5q100 0 163 52t63 135q0 76 -55 119.5t-153 43.5h-162z" />
    <glyph glyph-name="four" unicode="4" horiz-adv-x="1378" 
d="M707 0l49 234h-715l61 321q230 314 730 888h529l-197 -923h180l-61 -286h-180l-49 -234h-347zM417 514l-1 -7h408l144 677h-7q-312 -352 -544 -670z" />
    <glyph glyph-name="five" unicode="5" horiz-adv-x="1326" 
d="M1323 1160h-664l-100 -307h8q116 116 307 116q178 0 295 -120.5t117 -304.5q0 -122 -45.5 -228t-125.5 -180.5t-193.5 -117.5t-245.5 -43q-240 0 -396 126t-157 320v7q0 2 2 28h332q7 -89 73 -143.5t166 -54.5q106 0 177.5 72.5t71.5 179.5q0 99 -60 158t-158 59
q-57 0 -115 -27.5t-92 -71.5h-332l241 815h956z" />
    <glyph glyph-name="six" unicode="6" horiz-adv-x="1387" 
d="M1320 513q-1 -113 -47 -213t-124 -171t-187.5 -112.5t-232.5 -41.5q-128 0 -233 38t-182.5 112.5t-119.5 193t-40 272.5q1 185 56.5 347t151 279t231 184t291.5 67q228 0 376.5 -122.5t151.5 -312.5h-351q-14 71 -65.5 111t-129.5 40q-125 0 -220.5 -114.5t-123.5 -297.5
h8q62 84 154 128.5t205 44.5q190 0 311 -121.5t120 -310.5zM754 695q-104 0 -174.5 -66t-71.5 -163q-2 -90 61.5 -150.5t159.5 -60.5q104 0 171.5 65.5t68.5 165.5q1 91 -59.5 150t-155.5 59z" />
    <glyph glyph-name="seven" unicode="7" horiz-adv-x="1187" 
d="M56 0l841 1153l1 8h-680l60 282h1066l-60 -283l-829 -1160h-399z" />
    <glyph glyph-name="eight" unicode="8" horiz-adv-x="1386" 
d="M1304 408q0 -188 -178.5 -310.5t-453.5 -122.5q-260 0 -424.5 113.5t-164.5 292.5q0 154 111.5 264.5t297.5 142.5l2 7q-95 33 -150.5 105.5t-55.5 163.5q0 173 162 288t406 115q150 0 273.5 -49.5t193.5 -136t70 -191.5q0 -136 -93 -233t-246 -120l-1 -8
q118 -36 184.5 -121.5t66.5 -199.5zM712 622q-104 0 -174 -59.5t-70 -148.5q0 -79 61.5 -129t158.5 -50q105 0 174.5 59t69.5 148q0 79 -61.5 129.5t-158.5 50.5zM636 1025q0 -69 52 -114t131 -45q87 0 149.5 55.5t62.5 132.5q0 69 -52.5 114t-132.5 45q-87 0 -148.5 -55
t-61.5 -133z" />
    <glyph glyph-name="nine" unicode="9" horiz-adv-x="1387" 
d="M787 742q104 0 172.5 62.5t69.5 159.5q2 93 -59.5 155.5t-156.5 62.5q-103 0 -170.5 -65.5t-68.5 -166.5q-1 -92 59 -150t154 -58zM222 927q2 235 170 388t425 153q124 0 226 -38.5t177.5 -114.5t116.5 -197t40 -277q-2 -248 -90.5 -445t-248.5 -309t-362 -112
q-227 0 -385 119.5t-167 299.5h353q8 -61 63.5 -98t137.5 -37q133 0 231 114.5t118 293.5h-7q-124 -173 -355 -173q-192 0 -318 123t-125 310z" />
    <glyph glyph-name="colon" unicode=":" horiz-adv-x="595" 
d="M252 -13q-77 0 -131.5 54.5t-54.5 131.5t54.5 131.5t131.5 54.5t131.5 -54.5t54.5 -131.5t-54.5 -131.5t-131.5 -54.5zM402 692q-77 0 -131.5 54t-54.5 131t54.5 131.5t131.5 54.5t131 -54.5t54 -131.5t-54 -131t-131 -54z" />
    <glyph glyph-name="semicolon" unicode=";" horiz-adv-x="595" 
d="M402 692q-77 0 -131.5 54t-54.5 131t54.5 131.5t131.5 54.5t131 -54.5t54 -131.5t-54 -131t-131 -54zM200 -331h-258l189 592h327z" />
    <glyph glyph-name="less" unicode="&#x3c;" horiz-adv-x="1372" 
d="M1161 294l-69 -333l-890 491l58 271l1097 490l-75 -353l-683 -276l-3 -17z" />
    <glyph glyph-name="equal" unicode="=" horiz-adv-x="1372" 
d="M1189 176h-1098l64 303h1098zM1298 689h-1098l65 303h1097z" />
    <glyph glyph-name="greater" unicode="&#x3e;" horiz-adv-x="1372" 
d="M294 880l70 332l889 -491l-57 -270l-1098 -490l75 353l683 275l4 18z" />
    <glyph glyph-name="question" unicode="?" horiz-adv-x="1118" 
d="M188 1039q21 185 162 301t357 116q225 0 361 -103.5t136 -267.5q0 -128 -72 -232.5t-209 -164.5q-115 -50 -161 -91t-60 -109l-7 -35h-319l9 55q20 135 73.5 207t169.5 123q123 55 171 104.5t48 115.5q0 56 -42 91t-113 35q-64 0 -113.5 -39.5t-65.5 -105.5h-325z
M448 -33q-79 0 -134 52t-55 128q0 75 55 127t134 52q78 0 133.5 -52t55.5 -127t-55.5 -127.5t-133.5 -52.5z" />
    <glyph glyph-name="at" unicode="@" horiz-adv-x="1838" 
d="M1061 1446q222 0 394.5 -86t267.5 -241.5t95 -356.5q0 -262 -135 -433.5t-341 -171.5q-109 0 -179 41.5t-72 109.5q0 5 0.5 13.5t0.5 11.5l-19 -4q-82 -144 -236 -144q-131 0 -211.5 97t-80.5 256q0 201 114 340t278 139q88 0 151 -43t79 -116l19 -2l26 126h232
l-113 -524q-4 -21 -4 -44q0 -35 19 -55.5t53 -20.5q85 0 148.5 125t63.5 292q0 231 -154.5 372t-407.5 141q-199 0 -363 -95.5t-258 -262t-94 -367.5q0 -275 181.5 -437.5t488.5 -161.5q89 0 125 12l-37 -179q-71 -11 -143 -11q-242 0 -428.5 96t-288.5 271t-102 403
q0 192 71.5 361t194.5 289.5t296 190t369 69.5zM1109 644q0 74 -32.5 116t-90.5 42q-75 0 -128 -75t-53 -181q0 -74 34.5 -117t92.5 -43q75 0 126 74.5t51 183.5z" />
    <glyph glyph-name="A" unicode="A" horiz-adv-x="1446" 
d="M890 1121l-276 -540h324l-40 540h-8zM977 0l-24 317h-471l-163 -317h-388l804 1443h449l166 -1443h-373z" />
    <glyph glyph-name="B" unicode="B" horiz-adv-x="1366" 
d="M778 0h-745l307 1443h631q200 0 311 -86.5t111 -223.5q0 -141 -93 -242.5t-241 -131.5l-1 -7q118 -25 190.5 -104t72.5 -188q0 -201 -152.5 -330.5t-390.5 -129.5zM648 1205l-71 -334h208q107 0 174 55t67 140q0 65 -47.5 102t-136.5 37h-194zM448 260h246
q118 0 188.5 59.5t70.5 157.5q0 75 -52.5 116t-152.5 41h-221z" />
    <glyph glyph-name="C" unicode="C" horiz-adv-x="1507" 
d="M1186 889v37q-4 105 -78.5 173.5t-185.5 68.5q-179 0 -293 -157.5t-114 -403.5q0 -153 73.5 -241t200.5 -88q115 0 201.5 65t122.5 178h357q-43 -245 -236.5 -395.5t-467.5 -150.5q-286 0 -457 166.5t-171 444.5q0 262 101 462.5t287 310t430 109.5q255 0 421 -146.5
t169 -376.5q1 -27 -3 -56h-357z" />
    <glyph glyph-name="D" unicode="D" horiz-adv-x="1473" 
d="M340 1443h557q263 0 422.5 -149.5t159.5 -410.5q0 -192 -55.5 -355.5t-154.5 -280t-242 -182t-312 -65.5h-682zM647 1149l-181 -855h199q194 0 315.5 148t121.5 395q0 146 -75.5 229t-213.5 83h-166z" />
    <glyph glyph-name="E" unicode="E" horiz-adv-x="1191" 
d="M1084 295l-62 -295h-989l307 1443h988l-63 -295h-621l-61 -288h584l-58 -270h-584l-63 -295h622z" />
    <glyph glyph-name="F" unicode="F" horiz-adv-x="1149" 
d="M414 0h-381l307 1443h981l-63 -295h-600l-70 -329h544l-61 -281h-543z" />
    <glyph glyph-name="G" unicode="G" horiz-adv-x="1519" 
d="M1525 777l-31 -170q-55 -305 -242.5 -468.5t-480.5 -163.5q-287 0 -460 171t-173 452q0 179 57 338t159 277t253 186.5t330 68.5q176 0 316.5 -67t216.5 -177t77 -240q0 -14 -2 -28h-353q-7 96 -79 156.5t-185 60.5q-96 0 -175.5 -45t-131.5 -122t-81 -178.5t-29 -214.5
q0 -159 77.5 -251t220.5 -92q115 0 200.5 67.5t110.5 174.5l3 13h-273l54 252h621z" />
    <glyph glyph-name="H" unicode="H" horiz-adv-x="1540" 
d="M1341 0h-375l125 584h-559l-124 -584h-375l307 1443h375l-122 -568h559l121 568h375z" />
    <glyph glyph-name="I" unicode="I" horiz-adv-x="598" 
d="M400 0h-367l307 1443h367z" />
    <glyph glyph-name="J" unicode="J" horiz-adv-x="1205" 
d="M44 409q0 34 3 60h351v-16q0 -75 41.5 -119t115.5 -44q145 0 184 186l206 967h368l-216 -1013q-47 -221 -187 -338t-361 -117q-228 0 -366.5 119.5t-138.5 314.5z" />
    <glyph glyph-name="K" unicode="K" horiz-adv-x="1410" 
d="M400 0h-367l307 1443h367l-131 -616h7l611 616h423l-660 -669l354 -774h-404l-254 566l-169 -168z" />
    <glyph glyph-name="L" unicode="L" horiz-adv-x="1136" 
d="M1077 303l-65 -303h-979l307 1443h367l-242 -1140h612z" />
    <glyph glyph-name="M" unicode="M" horiz-adv-x="1816" 
d="M359 0h-326l307 1443h422l148 -978h7l550 978h458l-307 -1443h-327l205 959h-11l-548 -957h-223l-144 957h-7z" />
    <glyph glyph-name="N" unicode="N" horiz-adv-x="1491" 
d="M385 0h-352l307 1443h288l426 -882h7l186 882h353l-307 -1443h-288l-426 882h-7z" />
    <glyph glyph-name="O" unicode="O" horiz-adv-x="1570" 
d="M918 1170q-112 0 -206 -74.5t-148 -202.5t-54 -279q0 -155 77 -248t205 -93q112 0 206 74.5t148.5 202t54.5 279.5q0 156 -77 248.5t-206 92.5zM782 -25q-147 0 -269 46.5t-203.5 128.5t-126.5 196t-45 247q0 190 61 354t166.5 277.5t251 178.5t309.5 65
q150 0 272.5 -46.5t204.5 -129t126 -196t44 -246.5q0 -190 -62 -354t-168 -278t-251.5 -178.5t-309.5 -64.5z" />
    <glyph glyph-name="P" unicode="P" horiz-adv-x="1326" 
d="M340 1443h537q234 0 369 -118.5t135 -316.5q0 -270 -177 -427.5t-474 -157.5h-239l-90 -423h-367zM647 1161l-98 -461h181q127 0 204.5 76.5t77.5 198.5q0 92 -54.5 139t-156.5 47h-154z" />
    <glyph glyph-name="Q" unicode="Q" horiz-adv-x="1570" 
d="M1359 -132h-331l-57 131q-96 -24 -189 -24q-147 0 -269 46.5t-203.5 128.5t-126.5 196t-45 247q0 190 61 354t166.5 277.5t251 178.5t309.5 65q150 0 272.5 -46.5t204.5 -129t126 -196t44 -246.5q0 -225 -86 -410t-243 -310zM792 273q27 0 65 7l-96 224h302l23 -43
q54 69 84.5 165t30.5 203q0 156 -77 248.5t-206 92.5q-112 0 -206 -74.5t-148 -202.5t-54 -279q0 -155 77 -248t205 -93z" />
    <glyph glyph-name="R" unicode="R" horiz-adv-x="1365" 
d="M562 764h226q118 0 190 64t72 165q0 84 -51 128.5t-145 44.5h-205zM340 1443h615q217 0 340.5 -116t123.5 -303q0 -161 -92.5 -294t-257.5 -189l169 -541h-382l-149 505h-200l-107 -505h-367z" />
    <glyph glyph-name="S" unicode="S" horiz-adv-x="1347" 
d="M71 425h349q11 -75 83.5 -123t179.5 -48q103 0 166.5 40.5t63.5 109.5q0 55 -39 89t-146 67l-138 42q-183 56 -274.5 153.5t-91.5 243.5q0 210 162.5 339.5t416.5 129.5q267 0 422.5 -119.5t156.5 -328.5h-338q-3 77 -66 123.5t-167 46.5q-98 0 -156 -42t-58 -104
q0 -54 41.5 -91t137.5 -65l143 -43q194 -57 281.5 -147.5t87.5 -240.5q0 -215 -167.5 -348.5t-444.5 -133.5q-278 0 -440.5 119t-164.5 331z" />
    <glyph glyph-name="T" unicode="T" horiz-adv-x="1284" 
d="M743 0h-368l244 1148h-416l63 295h1199l-63 -295h-416z" />
    <glyph glyph-name="U" unicode="U" horiz-adv-x="1484" 
d="M732 -25q-272 0 -430 132.5t-158 346.5q-1 56 13 125l183 864h367l-182 -858q-10 -47 -10 -91q1 -96 67 -151.5t172 -55.5q108 0 180.5 64.5t97.5 184.5l192 907h367l-209 -987q-47 -225 -221 -353t-429 -128z" />
    <glyph glyph-name="V" unicode="V" horiz-adv-x="1409" 
d="M853 0h-449l-166 1443h402l58 -1061h7l499 1061h415z" />
    <glyph glyph-name="W" unicode="W" horiz-adv-x="1986" 
d="M1096 898l-430 -898h-348l-71 1443h373l-4 -962h7l445 962h291l48 -962h7l395 962h378l-681 -1443h-344l-59 898h-7z" />
    <glyph glyph-name="X" unicode="X" horiz-adv-x="1435" 
d="M-54 0l620 729l-311 714h395l191 -453h8l354 453h429l-623 -726l312 -717h-395l-194 458h-8l-358 -458h-420z" />
    <glyph glyph-name="Y" unicode="Y" horiz-adv-x="1389" 
d="M796 0h-367l105 498l-296 945h380l164 -602h8l409 602h400l-699 -951z" />
    <glyph glyph-name="Z" unicode="Z" horiz-adv-x="1277" 
d="M-5 0l50 233l838 908v7h-634l64 295h1087l-50 -233l-838 -908v-7h666l-62 -295h-1121z" />
    <glyph glyph-name="bracketleft" unicode="[" horiz-adv-x="775" 
d="M379 1443h607l-55 -257h-267l-265 -1241h267l-54 -257h-607z" />
    <glyph glyph-name="backslash" unicode="\" horiz-adv-x="775" 
d="M286 -312l-51 1755h328l52 -1755h-329z" />
    <glyph glyph-name="bracketright" unicode="]" horiz-adv-x="775" 
d="M471 -312h-608l55 257h268l264 1242h-268l55 256h608z" />
    <glyph glyph-name="asciicircum" unicode="^" horiz-adv-x="1039" 
d="M542 1141l-237 -333h-308l454 604h296l194 -604h-293l-88 333h-18z" />
    <glyph glyph-name="underscore" unicode="_" horiz-adv-x="1024" 
d="M-208 -400l64 300h1105l-64 -300h-1105z" />
    <glyph glyph-name="grave" unicode="`" horiz-adv-x="1059" 
d="M980 1259h-273l-193 316h307z" />
    <glyph glyph-name="a" unicode="a" horiz-adv-x="1143" 
d="M510 223q77 0 137 44.5t74 111.5l18 81l-198 -6q-79 -3 -126 -36.5t-47 -88.5q0 -48 39.5 -77t102.5 -29zM358 -16q-137 0 -229.5 84t-92.5 212q0 167 130 264.5t357 104.5l258 8l13 64q4 23 4 36q0 47 -41 75.5t-110 28.5q-67 0 -112 -28t-60 -78h-316
q31 165 169.5 262.5t342.5 97.5q207 0 335 -91t128 -237q0 -43 -8 -89l-149 -698h-333l28 129h-7q-44 -66 -125.5 -105.5t-181.5 -39.5z" />
    <glyph glyph-name="b" unicode="b" horiz-adv-x="1280" 
d="M731 -16q-121 0 -212.5 59.5t-121.5 157.5h-7l-43 -201h-334l308 1443h344l-111 -513h9q49 82 136 128.5t193 46.5q172 0 272 -114t100 -313q0 -143 -40 -271t-109.5 -221t-169.5 -147.5t-214 -54.5zM647 258q112 0 187 107t75 261q0 98 -48 156t-130 58
q-110 0 -188 -110.5t-78 -261.5q0 -94 50 -152t132 -58z" />
    <glyph glyph-name="c" unicode="c" horiz-adv-x="1160" 
d="M692 1115q209 0 343 -115t134 -285v-43h-329q-1 75 -45 120.5t-119 45.5q-108 0 -176 -105.5t-68 -274.5q0 -94 45 -150.5t120 -56.5q73 0 124.5 43.5t71.5 120.5h329q-28 -196 -177 -318.5t-362 -122.5q-228 0 -361.5 128t-133.5 342q0 305 164 488t440 183z" />
    <glyph glyph-name="d" unicode="d" horiz-adv-x="1282" 
d="M454 -16q-172 0 -272 114.5t-100 310.5q0 147 41.5 276.5t113.5 221.5t173.5 145t216.5 53q120 0 204.5 -54.5t111.5 -147.5h8l115 540h344l-307 -1443h-337l34 158h-7q-119 -174 -339 -174zM614 250q110 0 188.5 109.5t78.5 261.5q0 94 -49.5 152t-130.5 58
q-111 0 -188 -106t-77 -262q0 -97 48.5 -155t129.5 -58z" />
    <glyph glyph-name="e" unicode="e" horiz-adv-x="1193" 
d="M436 667h417q3 9 3 31q0 74 -49 122.5t-132 48.5q-86 0 -151 -56t-88 -146zM589 -25q-231 0 -365 132.5t-134 361.5q0 183 74.5 330t211.5 231.5t313 84.5q217 0 350 -128t133 -340q0 -103 -17 -178h-751q-3 -17 -3 -33q0 -94 55 -153t149 -59q74 0 127 34.5t73 92.5h321
q-43 -170 -187 -273t-350 -103z" />
    <glyph glyph-name="f" unicode="f" horiz-adv-x="778" 
d="M94 0l175 820h-169l55 255h164l27 130q30 149 130.5 217.5t279.5 68.5q106 0 210 -26l-49 -223q-40 12 -107 12q-114 0 -133 -96l-18 -83h219l-55 -255h-211l-173 -820h-345z" />
    <glyph glyph-name="g" unicode="g" horiz-adv-x="1269" 
d="M502 -411q-239 0 -378 93t-140 256h335q10 -56 63 -87.5t137 -31.5q193 0 234 180l39 176h-16q-48 -74 -132.5 -115t-187.5 -41q-167 0 -269.5 112.5t-102.5 296.5q0 181 70 336t195 248t276 93q115 0 199 -57t112 -152h15l42 193h336l-235 -1106q-40 -188 -196 -291
t-396 -103zM611 255q112 0 189.5 108.5t77.5 257.5q0 94 -50 152t-131 58q-112 0 -188 -106t-76 -260q0 -95 48 -152.5t130 -57.5z" />
    <glyph glyph-name="h" unicode="h" horiz-adv-x="1257" 
d="M13 0l307 1443h343l-112 -520h7q59 88 149.5 137.5t204.5 49.5q150 0 242.5 -86t92.5 -221q0 -61 -15 -132l-142 -671h-342l131 617q9 44 9 76q0 66 -46.5 108t-121.5 42q-83 0 -146 -56t-82 -145l-136 -642h-343z" />
    <glyph glyph-name="i" unicode="i" horiz-adv-x="528" 
d="M8 0l232 1089h345l-232 -1089h-345zM468 1180q-76 0 -128 49.5t-52 122.5q0 74 52 123.5t128 49.5t128 -49.5t52 -123.5q0 -73 -52 -122.5t-128 -49.5z" />
    <glyph glyph-name="j" unicode="j" horiz-adv-x="526" 
d="M470 1180q-76 0 -128 49.5t-52 122.5q0 74 52 123.5t128 49.5t128 -49.5t52 -123.5q0 -73 -52 -122.5t-128 -49.5zM584 1089l-247 -1159q-33 -153 -148 -238t-285 -85q-84 0 -151 14l54 247q34 -6 66 -6q107 0 128 103l239 1124h344z" />
    <glyph glyph-name="k" unicode="k" horiz-adv-x="1176" 
d="M357 0h-344l308 1443h343l-160 -753h7l397 399h398l-497 -473l297 -616h-373l-200 429l-105 -97z" />
    <glyph glyph-name="l" unicode="l" horiz-adv-x="540" 
d="M15 0l307 1443h344l-307 -1443h-344z" />
    <glyph glyph-name="m" unicode="m" horiz-adv-x="1827" 
d="M6 0l232 1089h332l-38 -173h7q50 91 138.5 145t190.5 54t176 -53t101 -141h7q61 90 154.5 142t209.5 52q132 0 217.5 -86t85.5 -219q0 -60 -15 -131l-143 -679h-342l132 630q9 42 9 75q0 61 -36 99.5t-97 38.5q-68 0 -120 -50.5t-71 -137.5l-137 -655h-329l132 630
q9 42 9 75q0 61 -36 99.5t-97 38.5q-68 0 -120 -51t-71 -137l-139 -655h-342z" />
    <glyph glyph-name="n" unicode="n" horiz-adv-x="1241" 
d="M6 0l232 1089h332l-36 -166h7q57 91 151.5 141.5t206.5 50.5q148 0 240 -86t92 -225q0 -61 -15 -133l-141 -671h-342l130 617q9 46 9 78q0 66 -46 107t-119 41q-80 0 -141.5 -55t-80.5 -146l-137 -642h-342z" />
    <glyph glyph-name="o" unicode="o" horiz-adv-x="1251" 
d="M613 242q113 0 189 108t76 267q0 104 -48 167t-127 63q-115 0 -190.5 -106.5t-75.5 -268.5q0 -104 48 -167t128 -63zM718 1115q229 0 370 -135.5t141 -355.5q0 -139 -47.5 -260t-130 -206.5t-200 -134.5t-252.5 -49q-229 0 -370 135t-141 356q0 139 47.5 260t130 206.5
t200 134.5t252.5 49z" />
    <glyph glyph-name="p" unicode="p" horiz-adv-x="1273" 
d="M639 258q110 0 186.5 106.5t76.5 261.5q0 98 -48 156t-129 58q-111 0 -189 -111t-78 -261q0 -94 49.5 -152t131.5 -58zM274 -352h-343l307 1441h335l-34 -157h7q60 85 148 129t192 44q171 0 270.5 -114.5t99.5 -310.5q0 -198 -70 -357t-194 -249t-277 -90q-118 0 -201 57
t-115 159h-7z" />
    <glyph glyph-name="q" unicode="q" horiz-adv-x="1280" 
d="M614 250q110 0 189 109.5t79 261.5q0 94 -49.5 152t-130.5 58q-112 0 -188.5 -106.5t-76.5 -261.5q0 -97 48 -155t129 -58zM1033 -352h-344l111 511h-6q-124 -175 -339 -175q-172 0 -272 114.5t-100 310.5t70.5 355.5t195.5 250t279 90.5q117 0 205.5 -54.5t124.5 -147.5
h7l39 186h335z" />
    <glyph glyph-name="r" unicode="r" horiz-adv-x="848" 
d="M6 0l233 1089h335l-31 -155h7q41 78 112.5 124.5t160.5 46.5q83 0 144 -28l-66 -301q-75 36 -157 36q-219 0 -270 -239l-123 -573h-345z" />
    <glyph glyph-name="s" unicode="s" horiz-adv-x="1108" 
d="M165 757q0 161 130.5 259t346.5 98q204 0 334.5 -100t135.5 -259h-310q-4 56 -49.5 91.5t-115.5 35.5q-66 0 -105.5 -26t-39.5 -69q0 -36 30.5 -59t113.5 -51l116 -38q154 -52 219.5 -120t65.5 -178q0 -165 -135.5 -266t-358.5 -101q-226 0 -363.5 101t-144.5 270h327
q5 -62 56.5 -99.5t134.5 -37.5q66 0 104.5 26t38.5 70q0 34 -29 55.5t-109 48.5l-98 33q-152 50 -223.5 127t-71.5 189z" />
    <glyph glyph-name="t" unicode="t" horiz-adv-x="813" 
d="M524 -14q-169 0 -262.5 61t-93.5 179q0 58 11 114l99 468h-163l56 256h162l56 262h343l-55 -262h217l-54 -256h-217l-92 -429q-6 -25 -6 -56q0 -46 31 -67t98 -21q51 0 72 6l-53 -242q-50 -13 -149 -13z" />
    <glyph glyph-name="u" unicode="u" horiz-adv-x="1241" 
d="M1301 1089l-232 -1089h-333l37 172h-7q-48 -90 -141 -144t-207 -54q-155 0 -247.5 87t-92.5 230q0 73 15 141l139 657h344l-129 -601q-7 -42 -7 -73q0 -77 42 -117.5t120 -40.5q83 0 141.5 54.5t78.5 148.5l134 629h345z" />
    <glyph glyph-name="v" unicode="v" horiz-adv-x="1131" 
d="M158 1090h346l32 -785h7l360 785h368l-592 -1090h-399z" />
    <glyph glyph-name="w" unicode="w" horiz-adv-x="1691" 
d="M1822 1089l-507 -1089h-375l-16 735h-7l-321 -735h-379l-50 1089h341l-21 -769h7l325 769h336l4 -769h7l301 769h355z" />
    <glyph glyph-name="x" unicode="x" horiz-adv-x="1161" 
d="M570 341h-7l-239 -341h-381l447 549l-211 540h368l110 -341h7l238 341h381l-446 -549l211 -540h-369z" />
    <glyph glyph-name="y" unicode="y" horiz-adv-x="1152" 
d="M81 -399q-132 0 -144 4l55 267q9 -3 104 -3q159 0 180 114q0 3 4 17.5t3 16.5l-125 1072h352l29 -818h7l377 818h367l-587 -1102q-111 -209 -256 -297.5t-366 -88.5z" />
    <glyph glyph-name="z" unicode="z" horiz-adv-x="1074" 
d="M-19 0l40 188l631 628l2 7h-485l57 266h920l-47 -216l-593 -600l-1 -7h483l-57 -266h-950z" />
    <glyph glyph-name="braceleft" unicode="{" horiz-adv-x="775" 
d="M178 205q11 50 11 87q0 60 -38.5 89t-133.5 29l65 310q111 0 167.5 45.5t81.5 160.5l29 133q47 212 162.5 298t339.5 86h124l-53 -250h-44q-90 0 -135 -44t-69 -154l-40 -184q-24 -111 -100.5 -168t-213.5 -69l-5 -19q217 -23 217 -190q0 -29 -9 -78l-33 -152
q-12 -60 -12 -91q0 -59 31 -83.5t101 -24.5h44l-53 -248h-124q-96 0 -166.5 22.5t-109.5 63t-57 88.5t-18 106q0 53 15 117z" />
    <glyph glyph-name="bar" unicode="|" horiz-adv-x="775" 
d="M408 -312h-340l373 1755h340z" />
    <glyph glyph-name="braceright" unicode="}" horiz-adv-x="775" 
d="M672 926q-12 -55 -12 -87q0 -60 39 -89t134 -29l-66 -310q-111 0 -167.5 -45.5t-81.5 -160.5l-29 -133q-47 -212 -162.5 -298t-339.5 -86h-124l54 250h43q90 0 135 43.5t69 154.5l40 184q25 111 101.5 168t213.5 69l4 19q-217 24 -217 190q0 33 10 78l32 152q12 52 12 91
q0 59 -31 83.5t-101 24.5h-43l52 248h124q96 0 166.5 -22.5t109.5 -63t57 -88.5t18 -106q0 -47 -14 -117z" />
    <glyph glyph-name="asciitilde" unicode="~" horiz-adv-x="1372" 
d="M954 464q-59 0 -108.5 20t-83.5 48t-63.5 56t-62 48t-66.5 20q-95 0 -128 -156h-260q38 222 135 336t241 114q58 0 108 -20t83.5 -48t63 -56t60.5 -48t63 -20q45 0 79 40t49 118h260q-76 -452 -370 -452z" />
    <glyph glyph-name="nonbreakingspace" unicode="&#xa0;" horiz-adv-x="431" 
 />
    <glyph glyph-name="exclamdown" unicode="&#xa1;" horiz-adv-x="707" 
d="M376 -340h-368l238 970h305zM474 1136q80 0 135 -52t55 -128q0 -75 -55 -127t-135 -52q-78 0 -133.5 52t-55.5 127t55.5 127.5t133.5 52.5z" />
    <glyph glyph-name="cent" unicode="&#xa2;" horiz-adv-x="1372" 
d="M1258 534q-25 -167 -151 -284.5t-326 -137.5l-38 -184h-280l45 213q-142 48 -223 162.5t-81 274.5q0 183 66.5 333.5t191 246t287.5 115.5l38 178h280l-44 -202q131 -46 206 -144t80 -211q1 -13 1 -42h-329q-2 73 -48.5 113t-120.5 40q-116 0 -187.5 -116t-71.5 -289
q0 -108 51 -163t124 -55t125 39t74 113h331z" />
    <glyph glyph-name="sterling" unicode="&#xa3;" horiz-adv-x="1372" 
d="M1251 305l-64 -297h-1156l63 297q140 5 245 93t117 214q0 1 -0.5 8t-0.5 12h-299l51 240h233q-8 116 -8 149q0 218 156 338t415 120q260 0 439 -82l-56 -278q-137 67 -327 67q-121 0 -198 -55t-77 -160q0 -39 5 -99h365l-50 -240h-305q1 -7 1 -15q-10 -103 -59.5 -186.5
t-125.5 -121.5v-4h636z" />
    <glyph glyph-name="currency" unicode="&#xa4;" horiz-adv-x="1372" 
d="M522 645q0 -89 65 -154.5t154 -65.5t154 65.5t65 154.5t-65 155t-154 66t-154 -66t-65 -155zM1384 1012l-204 -168q43 -94 43 -199q0 -141 -78 -262l97 -121l-239 -196l-100 125q-79 -28 -162 -28q-153 0 -279 89l-208 -172l-157 198l204 169q-42 95 -42 198
q0 143 78 262l-98 122l239 196l101 -126q78 28 162 28q152 0 278 -88l208 172z" />
    <glyph glyph-name="yen" unicode="&#xa5;" horiz-adv-x="1372" 
d="M1093 182h-267l-38 -182h-368l39 182h-268l39 182h268l25 120h-268l39 182h180l-245 777h383l164 -603h5l414 603h395l-571 -777h177l-39 -182h-267l-25 -120h267z" />
    <glyph glyph-name="brokenbar" unicode="&#xa6;" horiz-adv-x="775" 
d="M634 755h-340l147 688h340zM409 -312h-340l145 689h340z" />
    <glyph glyph-name="section" unicode="&#xa7;" horiz-adv-x="972" 
d="M464 480l114 -61q50 17 81.5 52.5t31.5 75.5q0 76 -96 123l-112 61q-52 -15 -85 -50.5t-33 -77.5q0 -35 26 -67t73 -56zM407 -301q-126 0 -226 43.5t-159 125.5t-60 188h292q5 -51 47.5 -85t104.5 -34q63 0 104.5 31.5t41.5 78.5q0 69 -90 112l-178 90q-224 111 -224 298
q0 111 73 188t197 105v16q-77 56 -108.5 109.5t-31.5 127.5q0 157 127.5 256.5t325.5 99.5q192 0 311.5 -96.5t127.5 -262.5h-290q-4 55 -45.5 88t-104.5 33q-61 0 -100.5 -30.5t-39.5 -76.5q0 -66 93 -112l166 -88q234 -120 234 -300q0 -109 -75.5 -189.5t-192.5 -103.5
l-1 -16q75 -55 106 -109t31 -127q0 -157 -128.5 -258.5t-327.5 -101.5z" />
    <glyph glyph-name="dieresis" unicode="&#xa8;" horiz-adv-x="1059" 
d="M539 1246q-60 0 -100 38.5t-40 94.5t40 95t100 39q59 0 99 -39t40 -95t-40 -94.5t-99 -38.5zM946 1246q-60 0 -100 38.5t-40 94.5t40 95t100 39t100 -39t40 -95t-40 -94.5t-100 -38.5z" />
    <glyph glyph-name="copyright" unicode="&#xa9;" horiz-adv-x="1672" 
d="M884 -120q-165 0 -309.5 58t-246.5 159t-161 243t-59 305q0 162 63.5 310.5t170 255.5t254 170.5t308.5 63.5q221 0 398.5 -98.5t277.5 -273.5t100 -393q0 -162 -63 -310.5t-170 -255.5t-254 -170.5t-309 -63.5zM884 48q125 0 240 50.5t198 135.5t132.5 202t49.5 244
q0 260 -169 428.5t-431 168.5q-125 0 -240 -50.5t-198 -135.5t-132.5 -202t-49.5 -244q0 -128 45 -239t124 -189.5t190.5 -123.5t240.5 -45zM1263 744h-216q1 60 -30 94t-84 34q-74 0 -124.5 -77t-50.5 -190q0 -72 32 -111.5t91 -39.5q80 0 120 83h223q-33 -125 -124 -193.5
t-225 -68.5q-150 0 -244 93.5t-94 242.5q0 190 114 315t287 125q150 0 243 -88.5t82 -218.5z" />
    <glyph glyph-name="ordfeminine" unicode="&#xaa;" horiz-adv-x="808" 
d="M510 1009q-49 0 -76.5 -21t-27.5 -55q0 -32 25.5 -50t63.5 -18q43 0 74.5 26.5t40.5 70.5l10 47h-110zM152 899q0 113 82.5 179.5t229.5 66.5h186q2 6 5 21.5t4 18.5q5 20 5 26q0 31 -24.5 48.5t-65.5 17.5q-33 0 -58 -13t-34 -36h-238q29 116 115 175t221 59
q151 0 244 -66.5t93 -173.5q0 -26 -6 -56l-100 -467h-248l15 82l-13 1q-30 -43 -79 -67.5t-107 -24.5q-98 0 -162.5 56.5t-64.5 152.5z" />
    <glyph glyph-name="guillemotleft" unicode="&#xab;" horiz-adv-x="1431" 
d="M710 153h-303l-263 409l2 11l405 406h330l-431 -421v-8zM1257 154h-303l-261 403l2 11l409 411h330l-435 -426l-1 -7z" />
    <glyph glyph-name="logicalnot" unicode="&#xac;" horiz-adv-x="1372" 
d="M1307 737l-149 -703h-312l86 402h-785l64 301h1096z" />
    <glyph glyph-name="registered" unicode="&#xae;" horiz-adv-x="1191" 
d="M630 842h-138l99 471h245q67 0 112 -43t45 -105q0 -55 -35 -98t-91 -59l75 -166h-156l-64 154h-60zM708 1205l-24 -110h88q34 0 54 17t20 44q0 49 -58 49h-80zM740 550q-146 0 -266.5 68.5t-189 188t-68.5 265.5t68.5 265.5t189 188t266.5 68.5t266.5 -68.5t189 -188
t68.5 -265.5t-68.5 -265.5t-189 -188t-266.5 -68.5zM740 694q160 0 265.5 107.5t105.5 270.5t-105.5 270.5t-265.5 107.5t-265.5 -107.5t-105.5 -270.5t105.5 -270.5t265.5 -107.5z" />
    <glyph glyph-name="macron" unicode="&#xaf;" horiz-adv-x="1059" 
d="M1093 1442l-35 -165h-673l35 165h673z" />
    <glyph glyph-name="degree" unicode="&#xb0;" horiz-adv-x="774" 
d="M542 785q-143 0 -239.5 96.5t-96.5 239.5t96.5 239t239.5 96q144 0 240 -96t96 -239t-96.5 -239.5t-239.5 -96.5zM543 980q58 0 97.5 41.5t39.5 99.5q0 59 -39.5 100t-97.5 41q-56 0 -97 -41.5t-41 -99.5q0 -57 41 -99t97 -42z" />
    <glyph glyph-name="plusminus" unicode="&#xb1;" horiz-adv-x="1372" 
d="M1099 55h-971l54 255h971zM892 645l-45 -212h-304l45 212h-335l55 258h335l45 213h305l-46 -213h336l-55 -258h-336z" />
    <glyph glyph-name="two.sups" unicode="&#xb2;" horiz-adv-x="682" 
d="M639 1308l-45 -33h236l-42 -196h-595l40 183l216 141q115 78 149.5 109.5t34.5 59.5q0 21 -15.5 34t-40.5 13q-26 0 -45 -18t-23 -46l-1 -7h-240q4 114 100.5 190t235.5 76q127 0 208.5 -60t81.5 -155q0 -75 -52 -134t-203 -157z" />
    <glyph glyph-name="three.sups" unicode="&#xb3;" horiz-adv-x="715" 
d="M470 1359l35 165h79q79 0 79 52q0 21 -18 34.5t-46 13.5q-23 0 -42.5 -11.5t-23.5 -28.5h-239q23 108 109.5 169t216.5 61q129 0 210.5 -58t81.5 -151q0 -65 -48.5 -112t-118.5 -56l-1 -5q54 -12 86.5 -53t32.5 -98q0 -101 -86.5 -163.5t-226.5 -62.5q-151 0 -236 62
t-84 172q0 20 2 28h247v-1q1 -25 20 -39.5t50 -14.5q29 0 47 14.5t18 37.5q0 19 -15.5 32t-38.5 13h-90z" />
    <glyph glyph-name="acute" unicode="&#xb4;" horiz-adv-x="1059" 
d="M722 1259h-277l293 316h312z" />
    <glyph glyph-name="mugreek" unicode="&#xb5;" horiz-adv-x="1328" 
d="M-68 -352l306 1441h345l-122 -573q-12 -57 -12 -90q0 -79 40.5 -121t116.5 -42q82 0 143 59.5t83 160.5l129 606h345l-155 -729q-7 -36 -7 -52q0 -67 81 -67q29 0 56 9l-51 -238q-66 -20 -155 -20q-126 0 -190.5 51.5t-63.5 150.5l-1 2v2h-7q-37 -96 -122.5 -156
t-183.5 -60q-96 0 -141 58h-7l-84 -392h-343z" />
    <glyph glyph-name="mugreek" unicode="&#x3bc;" horiz-adv-x="1328" 
d="M-68 -352l306 1441h345l-122 -573q-12 -57 -12 -90q0 -79 40.5 -121t116.5 -42q82 0 143 59.5t83 160.5l129 606h345l-155 -729q-7 -36 -7 -52q0 -67 81 -67q29 0 56 9l-51 -238q-66 -20 -155 -20q-126 0 -190.5 51.5t-63.5 150.5l-1 2v2h-7q-37 -96 -122.5 -156
t-183.5 -60q-96 0 -141 58h-7l-84 -392h-343z" />
    <glyph glyph-name="paragraph" unicode="&#xb6;" horiz-adv-x="1582" 
d="M796 -273h-333l147 688q-187 25 -294 144.5t-107 293.5q0 254 168 416t447 173l337 1zM976 -273l365 1716h333l-365 -1716h-333z" />
    <glyph glyph-name="periodcentered" unicode="&#xb7;" horiz-adv-x="595" 
d="M331 359q-77 0 -131.5 54t-54.5 131t54.5 131.5t131.5 54.5t131.5 -54.5t54.5 -131.5t-54.5 -131t-131.5 -54z" />
    <glyph glyph-name="cedilla" unicode="&#xb8;" horiz-adv-x="1075" 
d="M243 -216l26 113l86 117h177l-2 -14l-66 -91q73 -7 111.5 -45t38.5 -103q0 -99 -87 -163t-222 -64q-100 0 -147 18l32 150q50 -15 117 -15q115 0 115 52q0 25 -27 35t-94 10h-58z" />
    <glyph glyph-name="one.sups" unicode="&#xb9;" horiz-adv-x="568" 
d="M354 1079l104 488h-6l-190 -107l46 220l197 111h271l-152 -712h-270z" />
    <glyph glyph-name="ordmasculine" unicode="&#xba;" horiz-adv-x="857" 
d="M539 680q-163 0 -258 90.5t-95 246.5q0 195 119 320t303 125q164 0 257.5 -91.5t93.5 -251.5q0 -194 -117.5 -316.5t-302.5 -122.5zM700 1130q0 63 -26 99.5t-70 36.5q-64 0 -110.5 -76t-46.5 -180q0 -63 25 -98t71 -35q65 0 111 74.5t46 178.5z" />
    <glyph glyph-name="guillemotright" unicode="&#xbb;" horiz-adv-x="1431" 
d="M796 979h303l263 -409l-2 -11l-405 -406h-330l431 421v8zM249 978h303l261 -403l-2 -11l-409 -411h-330l435 426l1 8z" />
    <glyph glyph-name="onequarter" unicode="&#xbc;" horiz-adv-x="1715" 
d="M281 731l104 488h-6l-190 -107l46 220l197 111h271l-152 -712h-270zM357 0h-282l725 770l634 673h281l-705 -749zM1266 0l18 85h-358l49 230q114 164 314 397h382l-91 -427h77l-43 -200h-76l-18 -85h-254zM1191 278l-1 -6h143l56 264h-5q-127 -146 -193 -258z" />
    <glyph glyph-name="onehalf" unicode="&#xbd;" horiz-adv-x="1735" 
d="M385 1219h-6l-190 -107l46 220l197 111h271l-152 -712h-270zM1434 1443h281l-705 -749l-653 -694h-282l725 770zM1463 229l-45 -33h236l-42 -196h-595l40 183l216 141q115 78 149.5 109.5t34.5 59.5q0 21 -15.5 34t-40.5 13q-26 0 -45 -18t-23 -46l-1 -7h-240
q4 114 100.5 190t235.5 76q127 0 208.5 -60t81.5 -155q0 -75 -52 -134t-203 -157z" />
    <glyph glyph-name="threequarters" unicode="&#xbe;" horiz-adv-x="1815" 
d="M397 1011l35 165h79q79 0 79 52q0 21 -18 34.5t-46 13.5q-23 0 -42.5 -11.5t-23.5 -28.5h-239q23 108 109.5 169t216.5 61q129 0 210.5 -58t81.5 -151q0 -65 -48.5 -112t-118.5 -56l-1 -5q54 -12 86.5 -53t32.5 -98q0 -101 -86.5 -163.5t-226.5 -62.5q-151 0 -236 62
t-84 172q0 20 2 28h247v-1q1 -25 20 -39.5t50 -14.5q29 0 47 14.5t18 37.5q0 19 -15.5 32t-38.5 13h-90zM457 0h-282l725 770l634 673h281l-705 -749zM1366 0l18 85h-358l49 230q114 164 314 397h382l-91 -427h77l-43 -200h-76l-18 -85h-254zM1291 278l-1 -6h143l56 264h-5
q-127 -146 -193 -258z" />
    <glyph glyph-name="questiondown" unicode="&#xbf;" horiz-adv-x="1118" 
d="M999 64q-21 -185 -162 -301t-357 -116q-225 0 -361 103.5t-136 267.5q0 128 72 232.5t209 164.5q115 50 161 91t60 109l7 35h319l-9 -55q-20 -136 -73 -207.5t-170 -122.5q-123 -55 -171 -104.5t-48 -115.5q0 -56 42.5 -91t113.5 -35q64 0 113 39.5t65 105.5h325z
M739 1136q79 0 134.5 -52.5t55.5 -127.5t-55.5 -127t-134.5 -52q-78 0 -133.5 52t-55.5 127t55.5 127.5t133.5 52.5z" />
    <glyph glyph-name="Agrave" unicode="&#xc0;" horiz-adv-x="1446" 
d="M890 1121l-276 -540h324l-40 540h-8zM977 0l-24 317h-471l-163 -317h-388l804 1443h449l166 -1443h-373zM854 1556l-205 314h297l163 -314h-255z" />
    <glyph glyph-name="Aacute" unicode="&#xc1;" horiz-adv-x="1446" 
d="M890 1121l-276 -540h324l-40 540h-8zM977 0l-24 317h-471l-163 -317h-388l804 1443h449l166 -1443h-373zM1127 1556h-284l295 314h326z" />
    <glyph glyph-name="Acircumflex" unicode="&#xc2;" horiz-adv-x="1446" 
d="M890 1121l-276 -540h324l-40 540h-8zM977 0l-24 317h-471l-163 -317h-388l804 1443h449l166 -1443h-373zM1182 1869l192 -327h-247l-103 192h-7l-185 -192h-253l332 327h271z" />
    <glyph glyph-name="Atilde" unicode="&#xc3;" horiz-adv-x="1446" 
d="M890 1121l-276 -540h324l-40 540h-8zM977 0l-24 317h-471l-163 -317h-388l804 1443h449l166 -1443h-373zM1150 1546q-48 0 -88.5 20t-63 43.5t-50 43.5t-53.5 20q-31 0 -55 -29.5t-37 -81.5h-184q26 130 101.5 207t176.5 77q49 0 90 -20t63 -43.5t49.5 -43.5t53.5 -20
q63 0 92 115h184q-28 -131 -104 -209.5t-175 -78.5z" />
    <glyph glyph-name="Adieresis" unicode="&#xc4;" horiz-adv-x="1446" 
d="M890 1121l-276 -540h324l-40 540h-8zM977 0l-24 317h-471l-163 -317h-388l804 1443h449l166 -1443h-373zM810 1573q-60 0 -100 38.5t-40 94.5t40 95t100 39q59 0 99 -39t40 -95t-40 -94.5t-99 -38.5zM1217 1573q-60 0 -100 38.5t-40 94.5t40 95t100 39t100 -39t40 -95
t-40 -94.5t-100 -38.5z" />
    <glyph glyph-name="Aring" unicode="&#xc5;" horiz-adv-x="1446" 
d="M890 1121l-276 -540h324l-40 540h-8zM977 0l-24 317h-471l-163 -317h-388l804 1443h449l166 -1443h-373zM1043 1569q-95 0 -163 64.5t-68 158.5q0 95 68.5 161t164.5 66q95 0 162.5 -64.5t67.5 -158.5t-68 -160.5t-164 -66.5zM1043 1705q38 0 65 26t27 64t-26.5 64
t-63.5 26q-38 0 -65 -26.5t-27 -65.5q0 -37 26.5 -62.5t63.5 -25.5z" />
    <glyph glyph-name="AE" unicode="&#xc6;" horiz-adv-x="2035" 
d="M1126 1167h-120l-339 -575h337zM878 0l69 327h-431l-194 -327h-371l873 1443h1337l-63 -295h-646l-61 -290h609l-58 -270h-609l-62 -293h645l-62 -295h-976z" />
    <glyph glyph-name="Ccedilla" unicode="&#xc7;" horiz-adv-x="1507" 
d="M1543 889h-357v37q-4 105 -78.5 173.5t-185.5 68.5q-179 0 -293 -157.5t-114 -403.5q0 -153 73.5 -241t200.5 -88q115 0 201.5 65t122.5 178h357q-40 -229 -213 -376.5t-423 -166.5l-50 -69q73 -7 111.5 -45t38.5 -103q0 -99 -87 -163t-222 -64q-100 0 -147 18l32 150
q50 -15 117 -15q115 0 115 52q0 25 -27 35t-94 10h-58l26 113l63 86q-238 32 -376 193t-138 410q0 262 101 462.5t287 310t430 109.5q255 0 421 -146.5t169 -376.5q1 -27 -3 -56z" />
    <glyph glyph-name="Egrave" unicode="&#xc8;" horiz-adv-x="1191" 
d="M1084 295l-62 -295h-989l307 1443h988l-63 -295h-621l-61 -288h584l-58 -270h-584l-63 -295h622zM709 1556l-205 314h297l163 -314h-255z" />
    <glyph glyph-name="Eacute" unicode="&#xc9;" horiz-adv-x="1191" 
d="M1084 295l-62 -295h-989l307 1443h988l-63 -295h-621l-61 -288h584l-58 -270h-584l-63 -295h622zM982 1556h-284l295 314h326z" />
    <glyph glyph-name="Ecircumflex" unicode="&#xca;" horiz-adv-x="1191" 
d="M1084 295l-62 -295h-989l307 1443h988l-63 -295h-621l-61 -288h584l-58 -270h-584l-63 -295h622zM1037 1869l192 -327h-247l-103 192h-7l-185 -192h-253l332 327h271z" />
    <glyph glyph-name="Edieresis" unicode="&#xcb;" horiz-adv-x="1191" 
d="M1084 295l-62 -295h-989l307 1443h988l-63 -295h-621l-61 -288h584l-58 -270h-584l-63 -295h622zM665 1573q-60 0 -100 38.5t-40 94.5t40 95t100 39q59 0 99 -39t40 -95t-40 -94.5t-99 -38.5zM1072 1573q-60 0 -100 38.5t-40 94.5t40 95t100 39t100 -39t40 -95t-40 -94.5
t-100 -38.5z" />
    <glyph glyph-name="Igrave" unicode="&#xcc;" horiz-adv-x="598" 
d="M400 0h-367l307 1443h367zM419 1556l-205 314h297l163 -314h-255z" />
    <glyph glyph-name="Iacute" unicode="&#xcd;" horiz-adv-x="598" 
d="M400 0h-367l307 1443h367zM692 1556h-284l295 314h326z" />
    <glyph glyph-name="Icircumflex" unicode="&#xce;" horiz-adv-x="598" 
d="M400 0h-367l307 1443h367zM747 1869l192 -327h-247l-103 192h-7l-185 -192h-253l332 327h271z" />
    <glyph glyph-name="Idieresis" unicode="&#xcf;" horiz-adv-x="598" 
d="M400 0h-367l307 1443h367zM375 1573q-60 0 -100 38.5t-40 94.5t40 95t100 39q59 0 99 -39t40 -95t-40 -94.5t-99 -38.5zM782 1573q-60 0 -100 38.5t-40 94.5t40 95t100 39t100 -39t40 -95t-40 -94.5t-100 -38.5z" />
    <glyph glyph-name="Eth" unicode="&#xd0;" horiz-adv-x="1473" 
d="M466 294h199q194 0 315.5 148t121.5 395q0 146 -75.5 229t-213.5 83h-166l-58 -274h222l-63 -295h-221zM340 1443h557q263 0 422.5 -149.5t159.5 -410.5q0 -192 -55.5 -355.5t-154.5 -280t-242 -182t-312 -65.5h-682l123 580h-116l63 295h116z" />
    <glyph glyph-name="Ntilde" unicode="&#xd1;" horiz-adv-x="1491" 
d="M385 0h-352l307 1443h288l426 -882h7l186 882h353l-307 -1443h-288l-426 882h-7zM1129 1546q-48 0 -88.5 20t-63 43.5t-50 43.5t-53.5 20q-31 0 -55 -29.5t-37 -81.5h-184q26 130 101.5 207t176.5 77q49 0 90 -20t63 -43.5t49.5 -43.5t53.5 -20q63 0 92 115h184
q-28 -131 -104 -209.5t-175 -78.5z" />
    <glyph glyph-name="Ograve" unicode="&#xd2;" horiz-adv-x="1570" 
d="M918 1170q-112 0 -206 -74.5t-148 -202.5t-54 -279q0 -155 77 -248t205 -93q112 0 206 74.5t148.5 202t54.5 279.5q0 156 -77 248.5t-206 92.5zM782 -25q-147 0 -269 46.5t-203.5 128.5t-126.5 196t-45 247q0 190 61 354t166.5 277.5t251 178.5t309.5 65
q150 0 272.5 -46.5t204.5 -129t126 -196t44 -246.5q0 -190 -62 -354t-168 -278t-251.5 -178.5t-309.5 -64.5zM835 1556l-205 314h297l163 -314h-255z" />
    <glyph glyph-name="Oacute" unicode="&#xd3;" horiz-adv-x="1570" 
d="M918 1170q-112 0 -206 -74.5t-148 -202.5t-54 -279q0 -155 77 -248t205 -93q112 0 206 74.5t148.5 202t54.5 279.5q0 156 -77 248.5t-206 92.5zM782 -25q-147 0 -269 46.5t-203.5 128.5t-126.5 196t-45 247q0 190 61 354t166.5 277.5t251 178.5t309.5 65
q150 0 272.5 -46.5t204.5 -129t126 -196t44 -246.5q0 -190 -62 -354t-168 -278t-251.5 -178.5t-309.5 -64.5zM1108 1556h-284l295 314h326z" />
    <glyph glyph-name="Ocircumflex" unicode="&#xd4;" horiz-adv-x="1570" 
d="M918 1170q-112 0 -206 -74.5t-148 -202.5t-54 -279q0 -155 77 -248t205 -93q112 0 206 74.5t148.5 202t54.5 279.5q0 156 -77 248.5t-206 92.5zM782 -25q-147 0 -269 46.5t-203.5 128.5t-126.5 196t-45 247q0 190 61 354t166.5 277.5t251 178.5t309.5 65
q150 0 272.5 -46.5t204.5 -129t126 -196t44 -246.5q0 -190 -62 -354t-168 -278t-251.5 -178.5t-309.5 -64.5zM1163 1869l192 -327h-247l-103 192h-7l-185 -192h-253l332 327h271z" />
    <glyph glyph-name="Otilde" unicode="&#xd5;" horiz-adv-x="1570" 
d="M918 1170q-112 0 -206 -74.5t-148 -202.5t-54 -279q0 -155 77 -248t205 -93q112 0 206 74.5t148.5 202t54.5 279.5q0 156 -77 248.5t-206 92.5zM782 -25q-147 0 -269 46.5t-203.5 128.5t-126.5 196t-45 247q0 190 61 354t166.5 277.5t251 178.5t309.5 65
q150 0 272.5 -46.5t204.5 -129t126 -196t44 -246.5q0 -190 -62 -354t-168 -278t-251.5 -178.5t-309.5 -64.5zM1131 1546q-48 0 -88.5 20t-63 43.5t-50 43.5t-53.5 20q-31 0 -55 -29.5t-37 -81.5h-184q26 130 101.5 207t176.5 77q49 0 90 -20t63 -43.5t49.5 -43.5t53.5 -20
q63 0 92 115h184q-28 -131 -104 -209.5t-175 -78.5z" />
    <glyph glyph-name="Odieresis" unicode="&#xd6;" horiz-adv-x="1570" 
d="M918 1170q-112 0 -206 -74.5t-148 -202.5t-54 -279q0 -155 77 -248t205 -93q112 0 206 74.5t148.5 202t54.5 279.5q0 156 -77 248.5t-206 92.5zM782 -25q-147 0 -269 46.5t-203.5 128.5t-126.5 196t-45 247q0 190 61 354t166.5 277.5t251 178.5t309.5 65
q150 0 272.5 -46.5t204.5 -129t126 -196t44 -246.5q0 -190 -62 -354t-168 -278t-251.5 -178.5t-309.5 -64.5zM791 1573q-60 0 -100 38.5t-40 94.5t40 95t100 39q59 0 99 -39t40 -95t-40 -94.5t-99 -38.5zM1198 1573q-60 0 -100 38.5t-40 94.5t40 95t100 39t100 -39t40 -95
t-40 -94.5t-100 -38.5z" />
    <glyph glyph-name="multiply" unicode="&#xd7;" horiz-adv-x="1372" 
d="M908 74l-221 312l-340 -261l-164 231l341 261l-224 314l246 171l216 -302l343 259l165 -232l-344 -259l230 -323z" />
    <glyph glyph-name="Oslash" unicode="&#xd8;" horiz-adv-x="1570" 
d="M1195 911l-577 -577q72 -61 174 -61q112 0 206 74.5t148.5 202t54.5 279.5q0 43 -6 82zM516 532l577 577q-72 61 -175 61q-112 0 -206 -74.5t-148 -202.5t-54 -279q0 -43 6 -82zM1627 1343l-147 -147q93 -148 93 -346q0 -190 -62 -354t-168 -278t-251.5 -178.5
t-309.5 -64.5q-238 0 -405 118l-143 -143l-150 150l148 148q-94 149 -94 345q0 190 61 354t166.5 277.5t251 178.5t309.5 65q243 0 408 -118l143 143z" />
    <glyph glyph-name="Ugrave" unicode="&#xd9;" horiz-adv-x="1484" 
d="M732 -25q-272 0 -430 132.5t-158 346.5q-1 56 13 125l183 864h367l-182 -858q-10 -47 -10 -91q1 -96 67 -151.5t172 -55.5q108 0 180.5 64.5t97.5 184.5l192 907h367l-209 -987q-47 -225 -221 -353t-429 -128zM850 1556l-205 314h297l163 -314h-255z" />
    <glyph glyph-name="Uacute" unicode="&#xda;" horiz-adv-x="1484" 
d="M732 -25q-272 0 -430 132.5t-158 346.5q-1 56 13 125l183 864h367l-182 -858q-10 -47 -10 -91q1 -96 67 -151.5t172 -55.5q108 0 180.5 64.5t97.5 184.5l192 907h367l-209 -987q-47 -225 -221 -353t-429 -128zM1123 1556h-284l295 314h326z" />
    <glyph glyph-name="Ucircumflex" unicode="&#xdb;" horiz-adv-x="1484" 
d="M732 -25q-272 0 -430 132.5t-158 346.5q-1 56 13 125l183 864h367l-182 -858q-10 -47 -10 -91q1 -96 67 -151.5t172 -55.5q108 0 180.5 64.5t97.5 184.5l192 907h367l-209 -987q-47 -225 -221 -353t-429 -128zM1178 1869l192 -327h-247l-103 192h-7l-185 -192h-253
l332 327h271z" />
    <glyph glyph-name="Udieresis" unicode="&#xdc;" horiz-adv-x="1484" 
d="M732 -25q-272 0 -430 132.5t-158 346.5q-1 56 13 125l183 864h367l-182 -858q-10 -47 -10 -91q1 -96 67 -151.5t172 -55.5q108 0 180.5 64.5t97.5 184.5l192 907h367l-209 -987q-47 -225 -221 -353t-429 -128zM806 1573q-60 0 -100 38.5t-40 94.5t40 95t100 39
q59 0 99 -39t40 -95t-40 -94.5t-99 -38.5zM1213 1573q-60 0 -100 38.5t-40 94.5t40 95t100 39t100 -39t40 -95t-40 -94.5t-100 -38.5z" />
    <glyph glyph-name="Yacute" unicode="&#xdd;" horiz-adv-x="1389" 
d="M796 0h-367l105 498l-296 945h380l164 -602h8l409 602h400l-699 -951zM1083 1556h-284l295 314h326z" />
    <glyph glyph-name="Thorn" unicode="&#xde;" horiz-adv-x="1365" 
d="M52 0l307 1443h368l-47 -219h238q197 0 325 -117t128 -296q0 -151 -75 -275t-212 -197t-308 -73h-301l-57 -266h-366zM617 941l-84 -395h206q122 0 194.5 62t72.5 165q0 81 -51.5 124.5t-149.5 43.5h-188z" />
    <glyph glyph-name="germandbls" unicode="&#xdf;" horiz-adv-x="1370" 
d="M387 0h-354l238 1100q37 167 185 266t362 99q232 0 378 -108.5t146 -280.5q0 -127 -81 -222t-205 -118l-4 -19q130 -29 200 -106t70 -194q0 -196 -139.5 -311.5t-369.5 -115.5q-160 0 -275 42l59 266q68 -34 159 -34q95 0 153.5 48t58.5 127q0 71 -59 108.5t-165 37.5
h-77l58 275h73q81 0 136.5 46t55.5 118q0 71 -50 115t-130 44q-83 0 -138.5 -52.5t-76.5 -151.5z" />
    <glyph glyph-name="agrave" unicode="&#xe0;" horiz-adv-x="1143" 
d="M510 223q77 0 137 44.5t74 111.5l18 81l-198 -6q-79 -3 -126 -36.5t-47 -88.5q0 -48 39.5 -77t102.5 -29zM358 -16q-137 0 -229.5 84t-92.5 212q0 167 130 264.5t357 104.5l258 8l13 64q4 23 4 36q0 47 -41 75.5t-110 28.5q-67 0 -112 -28t-60 -78h-316
q31 165 169.5 262.5t342.5 97.5q207 0 335 -91t128 -237q0 -43 -8 -89l-149 -698h-333l28 129h-7q-44 -66 -125.5 -105.5t-181.5 -39.5zM830 1259h-273l-193 316h307z" />
    <glyph glyph-name="aacute" unicode="&#xe1;" horiz-adv-x="1143" 
d="M510 223q77 0 137 44.5t74 111.5l18 81l-198 -6q-79 -3 -126 -36.5t-47 -88.5q0 -48 39.5 -77t102.5 -29zM358 -16q-137 0 -229.5 84t-92.5 212q0 167 130 264.5t357 104.5l258 8l13 64q4 23 4 36q0 47 -41 75.5t-110 28.5q-67 0 -112 -28t-60 -78h-316
q31 165 169.5 262.5t342.5 97.5q207 0 335 -91t128 -237q0 -43 -8 -89l-149 -698h-333l28 129h-7q-44 -66 -125.5 -105.5t-181.5 -39.5zM899 1259h-277l293 316h312z" />
    <glyph glyph-name="acircumflex" unicode="&#xe2;" horiz-adv-x="1143" 
d="M510 223q77 0 137 44.5t74 111.5l18 81l-198 -6q-79 -3 -126 -36.5t-47 -88.5q0 -48 39.5 -77t102.5 -29zM358 -16q-137 0 -229.5 84t-92.5 212q0 167 130 264.5t357 104.5l258 8l13 64q4 23 4 36q0 47 -41 75.5t-110 28.5q-67 0 -112 -28t-60 -78h-316
q31 165 169.5 262.5t342.5 97.5q207 0 335 -91t128 -237q0 -43 -8 -89l-149 -698h-333l28 129h-7q-44 -66 -125.5 -105.5t-181.5 -39.5zM924 1572l189 -327h-245l-97 183h-7l-175 -183h-266l329 327h272z" />
    <glyph glyph-name="atilde" unicode="&#xe3;" horiz-adv-x="1143" 
d="M510 223q77 0 137 44.5t74 111.5l18 81l-198 -6q-79 -3 -126 -36.5t-47 -88.5q0 -48 39.5 -77t102.5 -29zM358 -16q-137 0 -229.5 84t-92.5 212q0 167 130 264.5t357 104.5l258 8l13 64q4 23 4 36q0 47 -41 75.5t-110 28.5q-67 0 -112 -28t-60 -78h-316
q31 165 169.5 262.5t342.5 97.5q207 0 335 -91t128 -237q0 -43 -8 -89l-149 -698h-333l28 129h-7q-44 -66 -125.5 -105.5t-181.5 -39.5zM875 1246q-48 0 -88.5 20t-63 43.5t-50 43.5t-53.5 20q-31 0 -55 -29.5t-37 -81.5h-184q26 130 101.5 207t176.5 77q49 0 90 -20
t63 -43.5t49.5 -43.5t53.5 -20q63 0 92 115h184q-28 -131 -104 -209.5t-175 -78.5z" />
    <glyph glyph-name="adieresis" unicode="&#xe4;" horiz-adv-x="1143" 
d="M510 223q77 0 137 44.5t74 111.5l18 81l-198 -6q-79 -3 -126 -36.5t-47 -88.5q0 -48 39.5 -77t102.5 -29zM358 -16q-137 0 -229.5 84t-92.5 212q0 167 130 264.5t357 104.5l258 8l13 64q4 23 4 36q0 47 -41 75.5t-110 28.5q-67 0 -112 -28t-60 -78h-316
q31 165 169.5 262.5t342.5 97.5q207 0 335 -91t128 -237q0 -43 -8 -89l-149 -698h-333l28 129h-7q-44 -66 -125.5 -105.5t-181.5 -39.5zM544 1246q-60 0 -100 38.5t-40 94.5t40 95t100 39q59 0 99 -39t40 -95t-40 -94.5t-99 -38.5zM951 1246q-60 0 -100 38.5t-40 94.5t40 95
t100 39t100 -39t40 -95t-40 -94.5t-100 -38.5z" />
    <glyph glyph-name="aring" unicode="&#xe5;" horiz-adv-x="1143" 
d="M510 223q77 0 137 44.5t74 111.5l18 81l-198 -6q-79 -3 -126 -36.5t-47 -88.5q0 -48 39.5 -77t102.5 -29zM358 -16q-137 0 -229.5 84t-92.5 212q0 167 130 264.5t357 104.5l258 8l13 64q4 23 4 36q0 47 -41 75.5t-110 28.5q-67 0 -112 -28t-60 -78h-316
q31 165 169.5 262.5t342.5 97.5q207 0 335 -91t128 -237q0 -43 -8 -89l-149 -698h-333l28 129h-7q-44 -66 -125.5 -105.5t-181.5 -39.5zM758 1215q-95 0 -163 64.5t-68 158.5q0 95 68.5 161t164.5 66q95 0 162.5 -64.5t67.5 -158.5t-68 -160.5t-164 -66.5zM758 1351
q38 0 65 26t27 64t-26.5 64t-63.5 26q-38 0 -65 -26.5t-27 -65.5q0 -37 26.5 -62.5t63.5 -25.5z" />
    <glyph glyph-name="ae" unicode="&#xe6;" horiz-adv-x="1847" 
d="M1242 -26q-117 0 -222.5 54t-146.5 135h-16q-63 -88 -175 -138.5t-240 -50.5q-176 0 -289 86.5t-113 219.5q0 170 127 266.5t360 102.5l258 8l13 64q3 15 3 36q0 46 -41.5 75t-108.5 29q-141 0 -173 -106h-316q31 162 166 261t328 99q102 0 197 -39t141 -101h16
q65 67 154 103.5t187 36.5q208 0 341.5 -131t133.5 -336q0 -90 -16 -179h-751v-18q0 -106 56.5 -168.5t152.5 -62.5q73 0 123 34t69 97h320q-44 -173 -189.5 -275t-348.5 -102zM1094 667h417q4 10 4 31q0 76 -49.5 123.5t-127.5 47.5q-89 0 -155 -55.5t-89 -146.5zM514 218
q78 0 138.5 44t75.5 111l18 82l-201 -7q-79 -3 -125.5 -36.5t-46.5 -88.5q0 -46 39 -75.5t102 -29.5z" />
    <glyph glyph-name="ccedilla" unicode="&#xe7;" horiz-adv-x="1160" 
d="M1169 672h-329q-1 75 -45 120.5t-119 45.5q-108 0 -176 -105.5t-68 -274.5q0 -94 45 -150.5t120 -56.5q73 0 124.5 43.5t71.5 120.5h329q-25 -180 -153.5 -298.5t-316.5 -138.5l-50 -69q73 -7 111.5 -45t38.5 -103q0 -99 -87 -163t-222 -64q-100 0 -147 18l32 150
q50 -15 117 -15q115 0 115 52q0 25 -27 35t-94 10h-58l26 113l63 86q-179 31 -280.5 153.5t-101.5 307.5q0 305 164 488t440 183q209 0 343 -115t134 -285v-43z" />
    <glyph glyph-name="egrave" unicode="&#xe8;" horiz-adv-x="1193" 
d="M436 667h417q3 9 3 31q0 74 -49 122.5t-132 48.5q-86 0 -151 -56t-88 -146zM589 -25q-231 0 -365 132.5t-134 361.5q0 183 74.5 330t211.5 231.5t313 84.5q217 0 350 -128t133 -340q0 -103 -17 -178h-751q-3 -17 -3 -33q0 -94 55 -153t149 -59q74 0 127 34.5t73 92.5h321
q-43 -170 -187 -273t-350 -103zM844 1259h-273l-193 316h307z" />
    <glyph glyph-name="eacute" unicode="&#xe9;" horiz-adv-x="1193" 
d="M436 667h417q3 9 3 31q0 74 -49 122.5t-132 48.5q-86 0 -151 -56t-88 -146zM589 -25q-231 0 -365 132.5t-134 361.5q0 183 74.5 330t211.5 231.5t313 84.5q217 0 350 -128t133 -340q0 -103 -17 -178h-751q-3 -17 -3 -33q0 -94 55 -153t149 -59q74 0 127 34.5t73 92.5h321
q-43 -170 -187 -273t-350 -103zM913 1259h-277l293 316h312z" />
    <glyph glyph-name="ecircumflex" unicode="&#xea;" horiz-adv-x="1193" 
d="M436 667h417q3 9 3 31q0 74 -49 122.5t-132 48.5q-86 0 -151 -56t-88 -146zM589 -25q-231 0 -365 132.5t-134 361.5q0 183 74.5 330t211.5 231.5t313 84.5q217 0 350 -128t133 -340q0 -103 -17 -178h-751q-3 -17 -3 -33q0 -94 55 -153t149 -59q74 0 127 34.5t73 92.5h321
q-43 -170 -187 -273t-350 -103zM938 1572l189 -327h-245l-97 183h-7l-175 -183h-266l329 327h272z" />
    <glyph glyph-name="edieresis" unicode="&#xeb;" horiz-adv-x="1193" 
d="M436 667h417q3 9 3 31q0 74 -49 122.5t-132 48.5q-86 0 -151 -56t-88 -146zM589 -25q-231 0 -365 132.5t-134 361.5q0 183 74.5 330t211.5 231.5t313 84.5q217 0 350 -128t133 -340q0 -103 -17 -178h-751q-3 -17 -3 -33q0 -94 55 -153t149 -59q74 0 127 34.5t73 92.5h321
q-43 -170 -187 -273t-350 -103zM558 1246q-60 0 -100 38.5t-40 94.5t40 95t100 39q59 0 99 -39t40 -95t-40 -94.5t-99 -38.5zM965 1246q-60 0 -100 38.5t-40 94.5t40 95t100 39t100 -39t40 -95t-40 -94.5t-100 -38.5z" />
    <glyph glyph-name="igrave" unicode="&#xec;" horiz-adv-x="529" 
d="M9 0l232 1089h345l-232 -1089h-345zM571 1259h-273l-193 316h307z" />
    <glyph glyph-name="iacute" unicode="&#xed;" horiz-adv-x="529" 
d="M9 0l232 1089h345l-232 -1089h-345zM640 1259h-277l293 316h312z" />
    <glyph glyph-name="icircumflex" unicode="&#xee;" horiz-adv-x="529" 
d="M9 0l232 1089h345l-232 -1089h-345zM665 1572l189 -327h-245l-97 183h-7l-175 -183h-266l329 327h272z" />
    <glyph glyph-name="idieresis" unicode="&#xef;" horiz-adv-x="529" 
d="M9 0l232 1089h345l-232 -1089h-345zM285 1246q-60 0 -100 38.5t-40 94.5t40 95t100 39q59 0 99 -39t40 -95t-40 -94.5t-99 -38.5zM692 1246q-60 0 -100 38.5t-40 94.5t40 95t100 39t100 -39t40 -95t-40 -94.5t-100 -38.5z" />
    <glyph glyph-name="eth" unicode="&#xf0;" horiz-adv-x="1277" 
d="M628 251q102 0 181.5 104.5t79.5 240.5q0 94 -53 152t-139 58q-103 0 -180 -101t-77 -238q0 -97 51 -156.5t137 -59.5zM1290 1341l-187 -58q153 -242 153 -523q0 -160 -41 -295q-70 -228 -232.5 -359t-376.5 -131q-229 0 -375 138.5t-146 348.5q0 166 67.5 301.5
t185.5 211.5t262 76q100 0 182 -39t119 -100l15 -1q-8 135 -95 282l-288 -88l-30 158l215 67q-70 77 -174 156h391q47 -46 66 -68l256 81z" />
    <glyph glyph-name="ntilde" unicode="&#xf1;" horiz-adv-x="1241" 
d="M6 0l232 1089h332l-36 -166h7q57 91 151.5 141.5t206.5 50.5q148 0 240 -86t92 -225q0 -61 -15 -133l-141 -671h-342l130 617q9 46 9 78q0 66 -46 107t-119 41q-80 0 -141.5 -55t-80.5 -146l-137 -642h-342zM919 1246q-48 0 -88.5 20t-63 43.5t-50 43.5t-53.5 20
q-31 0 -55 -29.5t-37 -81.5h-184q26 130 101.5 207t176.5 77q49 0 90 -20t63 -43.5t49.5 -43.5t53.5 -20q63 0 92 115h184q-28 -131 -104 -209.5t-175 -78.5z" />
    <glyph glyph-name="ograve" unicode="&#xf2;" horiz-adv-x="1251" 
d="M613 242q113 0 189 108t76 267q0 104 -48 167t-127 63q-115 0 -190.5 -106.5t-75.5 -268.5q0 -104 48 -167t128 -63zM718 1115q229 0 370 -135.5t141 -355.5q0 -139 -47.5 -260t-130 -206.5t-200 -134.5t-252.5 -49q-229 0 -370 135t-141 356q0 139 47.5 260t130 206.5
t200 134.5t252.5 49zM871 1259h-273l-193 316h307z" />
    <glyph glyph-name="oacute" unicode="&#xf3;" horiz-adv-x="1251" 
d="M613 242q113 0 189 108t76 267q0 104 -48 167t-127 63q-115 0 -190.5 -106.5t-75.5 -268.5q0 -104 48 -167t128 -63zM718 1115q229 0 370 -135.5t141 -355.5q0 -139 -47.5 -260t-130 -206.5t-200 -134.5t-252.5 -49q-229 0 -370 135t-141 356q0 139 47.5 260t130 206.5
t200 134.5t252.5 49zM940 1259h-277l293 316h312z" />
    <glyph glyph-name="ocircumflex" unicode="&#xf4;" horiz-adv-x="1251" 
d="M613 242q113 0 189 108t76 267q0 104 -48 167t-127 63q-115 0 -190.5 -106.5t-75.5 -268.5q0 -104 48 -167t128 -63zM718 1115q229 0 370 -135.5t141 -355.5q0 -139 -47.5 -260t-130 -206.5t-200 -134.5t-252.5 -49q-229 0 -370 135t-141 356q0 139 47.5 260t130 206.5
t200 134.5t252.5 49zM965 1572l189 -327h-245l-97 183h-7l-175 -183h-266l329 327h272z" />
    <glyph glyph-name="otilde" unicode="&#xf5;" horiz-adv-x="1251" 
d="M613 242q113 0 189 108t76 267q0 104 -48 167t-127 63q-115 0 -190.5 -106.5t-75.5 -268.5q0 -104 48 -167t128 -63zM718 1115q229 0 370 -135.5t141 -355.5q0 -139 -47.5 -260t-130 -206.5t-200 -134.5t-252.5 -49q-229 0 -370 135t-141 356q0 139 47.5 260t130 206.5
t200 134.5t252.5 49zM916 1246q-48 0 -88.5 20t-63 43.5t-50 43.5t-53.5 20q-31 0 -55 -29.5t-37 -81.5h-184q26 130 101.5 207t176.5 77q49 0 90 -20t63 -43.5t49.5 -43.5t53.5 -20q63 0 92 115h184q-28 -131 -104 -209.5t-175 -78.5z" />
    <glyph glyph-name="odieresis" unicode="&#xf6;" horiz-adv-x="1251" 
d="M613 242q113 0 189 108t76 267q0 104 -48 167t-127 63q-115 0 -190.5 -106.5t-75.5 -268.5q0 -104 48 -167t128 -63zM718 1115q229 0 370 -135.5t141 -355.5q0 -139 -47.5 -260t-130 -206.5t-200 -134.5t-252.5 -49q-229 0 -370 135t-141 356q0 139 47.5 260t130 206.5
t200 134.5t252.5 49zM585 1246q-60 0 -100 38.5t-40 94.5t40 95t100 39q59 0 99 -39t40 -95t-40 -94.5t-99 -38.5zM992 1246q-60 0 -100 38.5t-40 94.5t40 95t100 39t100 -39t40 -95t-40 -94.5t-100 -38.5z" />
    <glyph glyph-name="divide" unicode="&#xf7;" horiz-adv-x="1372" 
d="M1256 456h-1113l55 255h1112zM816 813q-85 0 -137 49t-52 128t52 127.5t137 48.5t137 -48t52 -128q0 -79 -52 -128t-137 -49zM644 2q-85 0 -137.5 48.5t-52.5 127.5t52.5 127.5t137.5 48.5t137 -48.5t52 -127.5t-52 -127.5t-137 -48.5z" />
    <glyph glyph-name="oslash" unicode="&#xf8;" horiz-adv-x="1251" 
d="M889 653l-389 -389q46 -40 110 -40q120 0 200 114.5t80 284.5q0 20 -1 30zM425 433l391 391q-46 41 -110 41q-122 0 -202 -113t-80 -286q0 -22 1 -33zM1252 1016l-106 -106q83 -120 83 -286q0 -139 -47.5 -260t-130 -206.5t-200 -134.5t-252.5 -49q-177 0 -305 84
l-107 -107l-122 122l105 105q-82 121 -82 287q0 139 47.5 260t130 206.5t200 134.5t252.5 49q177 0 305 -84l107 107z" />
    <glyph glyph-name="ugrave" unicode="&#xf9;" horiz-adv-x="1241" 
d="M1301 1089l-232 -1089h-333l37 172h-7q-48 -90 -141 -144t-207 -54q-155 0 -247.5 87t-92.5 230q0 73 15 141l139 657h344l-129 -601q-7 -42 -7 -73q0 -77 42 -117.5t120 -40.5q83 0 141.5 54.5t78.5 148.5l134 629h345zM922 1259h-273l-193 316h307z" />
    <glyph glyph-name="uacute" unicode="&#xfa;" horiz-adv-x="1241" 
d="M1301 1089l-232 -1089h-333l37 172h-7q-48 -90 -141 -144t-207 -54q-155 0 -247.5 87t-92.5 230q0 73 15 141l139 657h344l-129 -601q-7 -42 -7 -73q0 -77 42 -117.5t120 -40.5q83 0 141.5 54.5t78.5 148.5l134 629h345zM991 1259h-277l293 316h312z" />
    <glyph glyph-name="ucircumflex" unicode="&#xfb;" horiz-adv-x="1241" 
d="M1301 1089l-232 -1089h-333l37 172h-7q-48 -90 -141 -144t-207 -54q-155 0 -247.5 87t-92.5 230q0 73 15 141l139 657h344l-129 -601q-7 -42 -7 -73q0 -77 42 -117.5t120 -40.5q83 0 141.5 54.5t78.5 148.5l134 629h345zM1016 1572l189 -327h-245l-97 183h-7l-175 -183
h-266l329 327h272z" />
    <glyph glyph-name="udieresis" unicode="&#xfc;" horiz-adv-x="1241" 
d="M1301 1089l-232 -1089h-333l37 172h-7q-48 -90 -141 -144t-207 -54q-155 0 -247.5 87t-92.5 230q0 73 15 141l139 657h344l-129 -601q-7 -42 -7 -73q0 -77 42 -117.5t120 -40.5q83 0 141.5 54.5t78.5 148.5l134 629h345zM636 1246q-60 0 -100 38.5t-40 94.5t40 95t100 39
q59 0 99 -39t40 -95t-40 -94.5t-99 -38.5zM1043 1246q-60 0 -100 38.5t-40 94.5t40 95t100 39t100 -39t40 -95t-40 -94.5t-100 -38.5z" />
    <glyph glyph-name="yacute" unicode="&#xfd;" horiz-adv-x="1152" 
d="M81 -399q-132 0 -144 4l55 267q9 -3 104 -3q159 0 180 114q0 3 4 17.5t3 16.5l-125 1072h352l29 -818h7l377 818h367l-587 -1102q-111 -209 -256 -297.5t-366 -88.5zM942 1260h-277l293 316h312z" />
    <glyph glyph-name="thorn" unicode="&#xfe;" horiz-adv-x="1274" 
d="M640 258q110 0 187.5 107t77.5 261q0 98 -48 156t-130 58q-111 0 -189 -111t-78 -261q0 -94 49.5 -152t130.5 -58zM395 200l-113 -530h-344l378 1775h343l-109 -515h15q53 83 138 129t184 46q170 0 270 -115t100 -310q0 -198 -70 -357t-193.5 -249t-276.5 -90
q-114 0 -196 58.5t-110 157.5h-16z" />
    <glyph glyph-name="ydieresis" unicode="&#xff;" horiz-adv-x="1152" 
d="M81 -399q-132 0 -144 4l55 267q9 -3 104 -3q159 0 180 114q0 3 4 17.5t3 16.5l-125 1072h352l29 -818h7l377 818h367l-587 -1102q-111 -209 -256 -297.5t-366 -88.5zM587 1247q-60 0 -100 38.5t-40 94.5t40 95t100 39q59 0 99 -39t40 -95t-40 -94.5t-99 -38.5zM994 1247
q-60 0 -100 38.5t-40 94.5t40 95t100 39t100 -39t40 -95t-40 -94.5t-100 -38.5z" />
    <glyph glyph-name="Amacron" unicode="&#x100;" horiz-adv-x="1446" 
d="M890 1121l-276 -540h324l-40 540h-8zM977 0l-24 317h-471l-163 -317h-388l804 1443h449l166 -1443h-373zM1391 1778l-35 -165h-721l35 165h721z" />
    <glyph glyph-name="amacron" unicode="&#x101;" horiz-adv-x="1143" 
d="M510 223q77 0 137 44.5t74 111.5l18 81l-198 -6q-79 -3 -126 -36.5t-47 -88.5q0 -48 39.5 -77t102.5 -29zM358 -16q-137 0 -229.5 84t-92.5 212q0 167 130 264.5t357 104.5l258 8l13 64q4 23 4 36q0 47 -41 75.5t-110 28.5q-67 0 -112 -28t-60 -78h-316
q31 165 169.5 262.5t342.5 97.5q207 0 335 -91t128 -237q0 -43 -8 -89l-149 -698h-333l28 129h-7q-44 -66 -125.5 -105.5t-181.5 -39.5zM1102 1442l-35 -165h-673l35 165h673z" />
    <glyph glyph-name="Abreve" unicode="&#x102;" horiz-adv-x="1446" 
d="M890 1121l-276 -540h324l-40 540h-8zM977 0l-24 317h-471l-163 -317h-388l804 1443h449l166 -1443h-373zM671 1865h206q-4 -16 -4 -36q0 -58 35.5 -91t102.5 -33q76 0 130 43.5t71 116.5h214q-35 -144 -153 -236t-292 -92q-150 0 -233.5 74.5t-83.5 188.5q0 28 7 65z" />
    <glyph glyph-name="abreve" unicode="&#x103;" horiz-adv-x="1143" 
d="M510 223q77 0 137 44.5t74 111.5l18 81l-198 -6q-79 -3 -126 -36.5t-47 -88.5q0 -48 39.5 -77t102.5 -29zM358 -16q-137 0 -229.5 84t-92.5 212q0 167 130 264.5t357 104.5l258 8l13 64q4 23 4 36q0 47 -41 75.5t-110 28.5q-67 0 -112 -28t-60 -78h-316
q31 165 169.5 262.5t342.5 97.5q207 0 335 -91t128 -237q0 -43 -8 -89l-149 -698h-333l28 129h-7q-44 -66 -125.5 -105.5t-181.5 -39.5zM413 1571h207q-4 -24 -4 -36q0 -59 36.5 -92t101.5 -33q74 0 128.5 43.5t72.5 117.5h213q-35 -152 -153 -240.5t-292 -88.5
q-138 0 -227 75.5t-89 193.5q0 27 6 60z" />
    <glyph glyph-name="Aogonek" unicode="&#x104;" horiz-adv-x="1446" 
d="M1178 -278l-37 -175q-58 -25 -161 -25q-107 0 -175 53t-68 141q0 78 68 155.5t172 125.5l-25 320h-471l-162 -317h-388l803 1443h449l164 -1424l-25 -8q-157 -45 -239.5 -103.5t-82.5 -121.5q0 -35 27 -54.5t78 -19.5q47 0 73 10zM889 1121l-276 -540h324l-40 540h-8z
" />
    <glyph glyph-name="aogonek" unicode="&#x105;" horiz-adv-x="1143" 
d="M512 225q78 0 137.5 43.5t73.5 110.5l18 81l-199 -6q-78 -3 -124.5 -36.5t-46.5 -88.5q0 -46 39 -75t102 -29zM841 -444q-55 -25 -162 -25q-110 0 -175.5 53t-65.5 136q0 152 205 267l31 142h-7q-44 -66 -125 -104.5t-182 -38.5q-138 0 -230 84t-92 210q0 166 129.5 264
t358.5 105l257 8l13 64q4 21 4 36q0 47 -41.5 74.5t-111.5 27.5q-66 0 -110 -27t-60 -77h-315q31 165 169 261t341 96q208 0 336 -89.5t128 -235.5q0 -54 -8 -89l-147 -692l-32 -9q-97 -28 -172.5 -88.5t-75.5 -115.5q0 -33 29.5 -53t73.5 -20q45 0 73 10z" />
    <glyph glyph-name="Cacute" unicode="&#x106;" horiz-adv-x="1507" 
d="M1186 889v37q-4 105 -78.5 173.5t-185.5 68.5q-179 0 -293 -157.5t-114 -403.5q0 -153 73.5 -241t200.5 -88q115 0 201.5 65t122.5 178h357q-43 -245 -236.5 -395.5t-467.5 -150.5q-286 0 -457 166.5t-171 444.5q0 262 101 462.5t287 310t430 109.5q255 0 421 -146.5
t169 -376.5q1 -27 -3 -56h-357zM1120 1556h-284l295 314h326z" />
    <glyph glyph-name="cacute" unicode="&#x107;" horiz-adv-x="1160" 
d="M692 1115q209 0 343 -115t134 -285v-43h-329q-1 75 -45 120.5t-119 45.5q-108 0 -176 -105.5t-68 -274.5q0 -94 45 -150.5t120 -56.5q73 0 124.5 43.5t71.5 120.5h329q-28 -196 -177 -318.5t-362 -122.5q-228 0 -361.5 128t-133.5 342q0 305 164 488t440 183zM928 1260
h-277l293 316h312z" />
    <glyph glyph-name="Ccircumflex" unicode="&#x108;" horiz-adv-x="1507" 
d="M1186 889v37q-4 105 -78.5 173.5t-185.5 68.5q-179 0 -293 -157.5t-114 -403.5q0 -153 73.5 -241t200.5 -88q115 0 201.5 65t122.5 178h357q-43 -245 -236.5 -395.5t-467.5 -150.5q-286 0 -457 166.5t-171 444.5q0 262 101 462.5t287 310t430 109.5q255 0 421 -146.5
t169 -376.5q1 -27 -3 -56h-357zM1175 1869l192 -327h-247l-103 192h-7l-185 -192h-253l332 327h271z" />
    <glyph glyph-name="ccircumflex" unicode="&#x109;" horiz-adv-x="1160" 
d="M692 1115q209 0 343 -115t134 -285v-43h-329q-1 75 -45 120.5t-119 45.5q-108 0 -176 -105.5t-68 -274.5q0 -94 45 -150.5t120 -56.5q73 0 124.5 43.5t71.5 120.5h329q-28 -196 -177 -318.5t-362 -122.5q-228 0 -361.5 128t-133.5 342q0 305 164 488t440 183zM953 1573
l189 -327h-245l-97 183h-7l-175 -183h-266l329 327h272z" />
    <glyph glyph-name="Cdotaccent" unicode="&#x10a;" horiz-adv-x="1507" 
d="M1186 889v37q-4 105 -78.5 173.5t-185.5 68.5q-179 0 -293 -157.5t-114 -403.5q0 -153 73.5 -241t200.5 -88q115 0 201.5 65t122.5 178h357q-43 -245 -236.5 -395.5t-467.5 -150.5q-286 0 -457 166.5t-171 444.5q0 262 101 462.5t287 310t430 109.5q255 0 421 -146.5
t169 -376.5q1 -27 -3 -56h-357zM1019 1605q-69 0 -116.5 47.5t-47.5 113.5q0 67 47.5 114.5t116.5 47.5t117 -47.5t48 -114.5q0 -66 -48 -113.5t-117 -47.5z" />
    <glyph glyph-name="cdotaccent" unicode="&#x10b;" horiz-adv-x="1160" 
d="M692 1115q209 0 343 -115t134 -285v-43h-329q-1 75 -45 120.5t-119 45.5q-108 0 -176 -105.5t-68 -274.5q0 -94 45 -150.5t120 -56.5q73 0 124.5 43.5t71.5 120.5h329q-28 -196 -177 -318.5t-362 -122.5q-228 0 -361.5 128t-133.5 342q0 305 164 488t440 183zM769 1252
q-69 0 -116.5 47.5t-47.5 113.5q0 67 47.5 114.5t116.5 47.5t117 -47.5t48 -114.5q0 -66 -48 -113.5t-117 -47.5z" />
    <glyph glyph-name="Ccaron" unicode="&#x10c;" horiz-adv-x="1507" 
d="M1186 889v37q-4 105 -78.5 173.5t-185.5 68.5q-179 0 -293 -157.5t-114 -403.5q0 -153 73.5 -241t200.5 -88q115 0 201.5 65t122.5 178h357q-43 -245 -236.5 -395.5t-467.5 -150.5q-286 0 -457 166.5t-171 444.5q0 262 101 462.5t287 310t430 109.5q255 0 421 -146.5
t169 -376.5q1 -27 -3 -56h-357zM838 1542l-192 327h247l103 -192h8l184 192h253l-332 -327h-271z" />
    <glyph glyph-name="ccaron" unicode="&#x10d;" horiz-adv-x="1160" 
d="M692 1115q209 0 343 -115t134 -285v-43h-329q-1 75 -45 120.5t-119 45.5q-108 0 -176 -105.5t-68 -274.5q0 -94 45 -150.5t120 -56.5q73 0 124.5 43.5t71.5 120.5h329q-28 -196 -177 -318.5t-362 -122.5q-228 0 -361.5 128t-133.5 342q0 305 164 488t440 183zM885 1246
h-271l-190 327h244l97 -184h7l175 184h267z" />
    <glyph glyph-name="Dcaron" unicode="&#x10e;" horiz-adv-x="1473" 
d="M340 1443h557q263 0 422.5 -149.5t159.5 -410.5q0 -192 -55.5 -355.5t-154.5 -280t-242 -182t-312 -65.5h-682zM647 1149l-181 -855h199q194 0 315.5 148t121.5 395q0 146 -75.5 229t-213.5 83h-166zM707 1542l-192 327h247l103 -192h8l184 192h253l-332 -327h-271z" />
    <glyph glyph-name="dcaron" unicode="&#x10f;" horiz-adv-x="1584" 
d="M1522 1443h286l-158 -511h-236zM454 -16q-172 0 -272 114.5t-100 310.5q0 147 41.5 276.5t113.5 221.5t173.5 145t216.5 53q120 0 204.5 -54.5t111.5 -147.5h8l115 540h344l-307 -1443h-337l34 158h-7q-119 -174 -339 -174zM614 250q110 0 188.5 109.5t78.5 261.5
q0 94 -49.5 152t-130.5 58q-111 0 -188 -106t-77 -262q0 -97 48.5 -155t129.5 -58z" />
    <glyph glyph-name="Dcroat" unicode="&#x110;" horiz-adv-x="1473" 
d="M466 294h199q194 0 315.5 148t121.5 395q0 146 -75.5 229t-213.5 83h-166l-58 -274h222l-63 -295h-221zM340 1443h557q263 0 422.5 -149.5t159.5 -410.5q0 -192 -55.5 -355.5t-154.5 -280t-242 -182t-312 -65.5h-682l123 580h-116l63 295h116z" />
    <glyph glyph-name="dcroat" unicode="&#x111;" horiz-adv-x="1282" 
d="M614 250q110 0 188.5 109.5t78.5 261.5q0 94 -49.5 152t-130.5 58q-111 0 -188 -106t-77 -262q0 -97 48.5 -155t129.5 -58zM1487 1354l-37 -178h-97l-250 -1176h-337l34 158h-7q-119 -174 -339 -174q-172 0 -272 114.5t-100 310.5q0 147 41.5 276.5t113.5 221.5
t173.5 145t216.5 53q120 0 204.5 -54.5t111.5 -147.5h8l58 273h-226l38 178h226l19 89h344l-19 -89h96z" />
    <glyph glyph-name="Emacron" unicode="&#x112;" horiz-adv-x="1191" 
d="M1084 295l-62 -295h-989l307 1443h988l-63 -295h-621l-61 -288h584l-58 -270h-584l-63 -295h622zM1246 1778l-35 -165h-721l35 165h721z" />
    <glyph glyph-name="emacron" unicode="&#x113;" horiz-adv-x="1193" 
d="M436 667h417q3 9 3 31q0 74 -49 122.5t-132 48.5q-86 0 -151 -56t-88 -146zM589 -25q-231 0 -365 132.5t-134 361.5q0 183 74.5 330t211.5 231.5t313 84.5q217 0 350 -128t133 -340q0 -103 -17 -178h-751q-3 -17 -3 -33q0 -94 55 -153t149 -59q74 0 127 34.5t73 92.5h321
q-43 -170 -187 -273t-350 -103zM1116 1442l-35 -165h-673l35 165h673z" />
    <glyph glyph-name="Ebreve" unicode="&#x114;" horiz-adv-x="1191" 
d="M1084 295l-62 -295h-989l307 1443h988l-63 -295h-621l-61 -288h584l-58 -270h-584l-63 -295h622zM526 1865h206q-4 -16 -4 -36q0 -58 35.5 -91t102.5 -33q76 0 130 43.5t71 116.5h214q-35 -144 -153 -236t-292 -92q-150 0 -233.5 74.5t-83.5 188.5q0 28 7 65z" />
    <glyph glyph-name="ebreve" unicode="&#x115;" horiz-adv-x="1193" 
d="M436 667h417q3 9 3 31q0 74 -49 122.5t-132 48.5q-86 0 -151 -56t-88 -146zM589 -25q-231 0 -365 132.5t-134 361.5q0 183 74.5 330t211.5 231.5t313 84.5q217 0 350 -128t133 -340q0 -103 -17 -178h-751q-3 -17 -3 -33q0 -94 55 -153t149 -59q74 0 127 34.5t73 92.5h321
q-43 -170 -187 -273t-350 -103zM427 1571h207q-4 -24 -4 -36q0 -59 36.5 -92t101.5 -33q74 0 128.5 43.5t72.5 117.5h213q-35 -152 -153 -240.5t-292 -88.5q-138 0 -227 75.5t-89 193.5q0 27 6 60z" />
    <glyph glyph-name="Edotaccent" unicode="&#x116;" horiz-adv-x="1191" 
d="M1084 295l-62 -295h-989l307 1443h988l-63 -295h-621l-61 -288h584l-58 -270h-584l-63 -295h622zM882 1605q-69 0 -116.5 47.5t-47.5 113.5q0 67 47.5 114.5t116.5 47.5t117 -47.5t48 -114.5q0 -66 -48 -113.5t-117 -47.5z" />
    <glyph glyph-name="edotaccent" unicode="&#x117;" horiz-adv-x="1193" 
d="M436 667h417q3 9 3 31q0 74 -49 122.5t-132 48.5q-86 0 -151 -56t-88 -146zM589 -25q-231 0 -365 132.5t-134 361.5q0 183 74.5 330t211.5 231.5t313 84.5q217 0 350 -128t133 -340q0 -103 -17 -178h-751q-3 -17 -3 -33q0 -94 55 -153t149 -59q74 0 127 34.5t73 92.5h321
q-43 -170 -187 -273t-350 -103zM754 1251q-69 0 -116.5 47.5t-47.5 113.5q0 67 47.5 114.5t116.5 47.5t117 -47.5t48 -114.5q0 -66 -48 -113.5t-117 -47.5z" />
    <glyph glyph-name="Eogonek" unicode="&#x118;" horiz-adv-x="1191" 
d="M33 0l307 1443h988l-63 -295h-621l-61 -288h584l-58 -270h-584l-63 -295h622l-61 -292l-44 -12q-107 -36 -172 -92.5t-65 -112.5q0 -35 27 -54.5t77 -19.5q51 0 74 10l-37 -175q-58 -25 -161 -25q-109 0 -176 53.5t-67 140.5q0 78 63.5 156t164.5 124l1 4h-675z" />
    <glyph glyph-name="eogonek" unicode="&#x119;" horiz-adv-x="1193" 
d="M647 -469q-110 0 -175.5 53t-65.5 136q0 79 56 145t139 104v6h-12q-231 0 -365 132.5t-134 361.5q0 183 74.5 330t211.5 231.5t313 84.5q217 0 350 -128t133 -340q0 -103 -17 -178h-751q-3 -17 -3 -33q0 -94 55 -153t149 -59q74 0 127 34.5t73 92.5h321
q-20 -78 -70.5 -157.5t-127.5 -128.5q-135 -86 -197 -145.5t-62 -117.5q0 -34 30 -58t73 -24q47 0 73 10l-37 -174q-50 -25 -161 -25zM436 667h417q3 9 3 31q0 74 -49 122.5t-132 48.5q-86 0 -151 -56t-88 -146z" />
    <glyph glyph-name="Ecaron" unicode="&#x11a;" horiz-adv-x="1191" 
d="M1084 295l-62 -295h-989l307 1443h988l-63 -295h-621l-61 -288h584l-58 -270h-584l-63 -295h622zM700 1542l-192 327h247l103 -192h8l184 192h253l-332 -327h-271z" />
    <glyph glyph-name="ecaron" unicode="&#x11b;" horiz-adv-x="1193" 
d="M436 667h417q3 9 3 31q0 74 -49 122.5t-132 48.5q-86 0 -151 -56t-88 -146zM589 -25q-231 0 -365 132.5t-134 361.5q0 183 74.5 330t211.5 231.5t313 84.5q217 0 350 -128t133 -340q0 -103 -17 -178h-751q-3 -17 -3 -33q0 -94 55 -153t149 -59q74 0 127 34.5t73 92.5h321
q-43 -170 -187 -273t-350 -103zM870 1245h-271l-190 327h244l97 -184h7l175 184h267z" />
    <glyph glyph-name="Gcircumflex" unicode="&#x11c;" horiz-adv-x="1519" 
d="M1525 777l-31 -170q-55 -305 -242.5 -468.5t-480.5 -163.5q-287 0 -460 171t-173 452q0 179 57 338t159 277t253 186.5t330 68.5q176 0 316.5 -67t216.5 -177t77 -240q0 -14 -2 -28h-353q-7 96 -79 156.5t-185 60.5q-96 0 -175.5 -45t-131.5 -122t-81 -178.5t-29 -214.5
q0 -159 77.5 -251t220.5 -92q115 0 200.5 67.5t110.5 174.5l3 13h-273l54 252h621zM1154 1869l192 -327h-247l-103 192h-7l-185 -192h-253l332 327h271z" />
    <glyph glyph-name="gcircumflex" unicode="&#x11d;" horiz-adv-x="1269" 
d="M502 -411q-239 0 -378 93t-140 256h335q10 -56 63 -87.5t137 -31.5q193 0 234 180l39 176h-16q-48 -74 -132.5 -115t-187.5 -41q-167 0 -269.5 112.5t-102.5 296.5q0 181 70 336t195 248t276 93q115 0 199 -57t112 -152h15l42 193h336l-235 -1106q-40 -188 -196 -291
t-396 -103zM611 255q112 0 189.5 108.5t77.5 257.5q0 94 -50 152t-131 58q-112 0 -188 -106t-76 -260q0 -95 48 -152.5t130 -57.5zM1020 1574l189 -327h-245l-97 183h-7l-175 -183h-266l329 327h272z" />
    <glyph glyph-name="Gbreve" unicode="&#x11e;" horiz-adv-x="1519" 
d="M1525 777l-31 -170q-55 -305 -242.5 -468.5t-480.5 -163.5q-287 0 -460 171t-173 452q0 179 57 338t159 277t253 186.5t330 68.5q176 0 316.5 -67t216.5 -177t77 -240q0 -14 -2 -28h-353q-7 96 -79 156.5t-185 60.5q-96 0 -175.5 -45t-131.5 -122t-81 -178.5t-29 -214.5
q0 -159 77.5 -251t220.5 -92q115 0 200.5 67.5t110.5 174.5l3 13h-273l54 252h621zM643 1865h206q-4 -16 -4 -36q0 -58 35.5 -91t102.5 -33q76 0 130 43.5t71 116.5h214q-35 -144 -153 -236t-292 -92q-150 0 -233.5 74.5t-83.5 188.5q0 28 7 65z" />
    <glyph glyph-name="gbreve" unicode="&#x11f;" horiz-adv-x="1269" 
d="M502 -411q-239 0 -378 93t-140 256h335q10 -56 63 -87.5t137 -31.5q193 0 234 180l39 176h-16q-48 -74 -132.5 -115t-187.5 -41q-167 0 -269.5 112.5t-102.5 296.5q0 181 70 336t195 248t276 93q115 0 199 -57t112 -152h15l42 193h336l-235 -1106q-40 -188 -196 -291
t-396 -103zM611 255q112 0 189.5 108.5t77.5 257.5q0 94 -50 152t-131 58q-112 0 -188 -106t-76 -260q0 -95 48 -152.5t130 -57.5zM509 1573h207q-4 -24 -4 -36q0 -59 36.5 -92t101.5 -33q74 0 128.5 43.5t72.5 117.5h213q-35 -152 -153 -240.5t-292 -88.5q-138 0 -227 75.5
t-89 193.5q0 27 6 60z" />
    <glyph glyph-name="Gdotaccent" unicode="&#x120;" horiz-adv-x="1519" 
d="M1525 777l-31 -170q-55 -305 -242.5 -468.5t-480.5 -163.5q-287 0 -460 171t-173 452q0 179 57 338t159 277t253 186.5t330 68.5q176 0 316.5 -67t216.5 -177t77 -240q0 -14 -2 -28h-353q-7 96 -79 156.5t-185 60.5q-96 0 -175.5 -45t-131.5 -122t-81 -178.5t-29 -214.5
q0 -159 77.5 -251t220.5 -92q115 0 200.5 67.5t110.5 174.5l3 13h-273l54 252h621zM998 1605q-69 0 -116.5 47.5t-47.5 113.5q0 67 47.5 114.5t116.5 47.5t117 -47.5t48 -114.5q0 -66 -48 -113.5t-117 -47.5z" />
    <glyph glyph-name="gdotaccent" unicode="&#x121;" horiz-adv-x="1269" 
d="M502 -411q-239 0 -378 93t-140 256h335q10 -56 63 -87.5t137 -31.5q193 0 234 180l39 176h-16q-48 -74 -132.5 -115t-187.5 -41q-167 0 -269.5 112.5t-102.5 296.5q0 181 70 336t195 248t276 93q115 0 199 -57t112 -152h15l42 193h336l-235 -1106q-40 -188 -196 -291
t-396 -103zM611 255q112 0 189.5 108.5t77.5 257.5q0 94 -50 152t-131 58q-112 0 -188 -106t-76 -260q0 -95 48 -152.5t130 -57.5zM836 1253q-69 0 -116.5 47.5t-47.5 113.5q0 67 47.5 114.5t116.5 47.5t117 -47.5t48 -114.5q0 -66 -48 -113.5t-117 -47.5z" />
    <glyph glyph-name="Gcommaaccent" unicode="&#x122;" horiz-adv-x="1519" 
d="M1525 777l-31 -170q-55 -305 -242.5 -468.5t-480.5 -163.5q-287 0 -460 171t-173 452q0 179 57 338t159 277t253 186.5t330 68.5q176 0 316.5 -67t216.5 -177t77 -240q0 -14 -2 -28h-353q-7 96 -79 156.5t-185 60.5q-96 0 -175.5 -45t-131.5 -122t-81 -178.5t-29 -214.5
q0 -159 77.5 -251t220.5 -92q115 0 200.5 67.5t110.5 174.5l3 13h-273l54 252h621zM635 -475h-267l211 330h313z" />
    <glyph glyph-name="gcommaaccent" unicode="&#x123;" horiz-adv-x="1269" 
d="M502 -411q-239 0 -378 93t-140 256h335q10 -56 63 -87.5t137 -31.5q193 0 234 180l39 176h-16q-48 -74 -132.5 -115t-187.5 -41q-167 0 -269.5 112.5t-102.5 296.5q0 181 70 336t195 248t276 93q115 0 199 -57t112 -152h15l42 193h336l-235 -1106q-40 -188 -196 -291
t-396 -103zM611 255q112 0 189.5 108.5t77.5 257.5q0 94 -50 152t-131 58q-112 0 -188 -106t-76 -260q0 -95 48 -152.5t130 -57.5zM1097 1565h267l-211 -330h-313z" />
    <glyph glyph-name="Hcircumflex" unicode="&#x124;" horiz-adv-x="1540" 
d="M1341 0h-375l125 584h-559l-124 -584h-375l307 1443h375l-122 -568h559l121 568h375zM1216 1869l192 -327h-247l-103 192h-7l-185 -192h-253l332 327h271z" />
    <glyph glyph-name="hcircumflex" unicode="&#x125;" horiz-adv-x="1257" 
d="M13 0l307 1443h343l-112 -520h7q59 88 149.5 137.5t204.5 49.5q150 0 242.5 -86t92.5 -221q0 -61 -15 -132l-142 -671h-342l131 617q9 44 9 76q0 66 -46.5 108t-121.5 42q-83 0 -146 -56t-82 -145l-136 -642h-343zM715 1869l192 -327h-247l-103 192h-7l-185 -192h-253
l332 327h271z" />
    <glyph glyph-name="Hbar" unicode="&#x126;" horiz-adv-x="1540" 
d="M1152 875l36 168h-559l-36 -168h559zM1722 1286l-52 -243h-107l-222 -1043h-375l125 584h-559l-124 -584h-375l222 1043h-109l52 243h109l33 157h375l-34 -157h559l33 157h375l-33 -157h107z" />
    <glyph glyph-name="hbar" unicode="&#x127;" horiz-adv-x="1257" 
d="M551 923h7q59 88 149.5 137.5t204.5 49.5q150 0 242.5 -86t92.5 -221q0 -61 -15 -132l-142 -671h-342l131 617q9 44 9 76q0 66 -46.5 108t-121.5 42q-83 0 -146 -56t-82 -145l-136 -642h-343l251 1179h-96l36 172h96l20 92h343l-20 -92h208l-37 -172h-208z" />
    <glyph glyph-name="Itilde" unicode="&#x128;" horiz-adv-x="598" 
d="M400 0h-367l307 1443h367zM715 1546q-48 0 -88.5 20t-63 43.5t-50 43.5t-53.5 20q-31 0 -55 -29.5t-37 -81.5h-184q26 130 101.5 207t176.5 77q49 0 90 -20t63 -43.5t49.5 -43.5t53.5 -20q63 0 92 115h184q-28 -131 -104 -209.5t-175 -78.5z" />
    <glyph glyph-name="itilde" unicode="&#x129;" horiz-adv-x="529" 
d="M9 0l232 1089h345l-232 -1089h-345zM616 1246q-48 0 -88.5 20t-63 43.5t-50 43.5t-53.5 20q-31 0 -55 -29.5t-37 -81.5h-184q26 130 101.5 207t176.5 77q49 0 90 -20t63 -43.5t49.5 -43.5t53.5 -20q63 0 92 115h184q-28 -131 -104 -209.5t-175 -78.5z" />
    <glyph glyph-name="Imacron" unicode="&#x12a;" horiz-adv-x="598" 
d="M400 0h-367l307 1443h367zM956 1778l-35 -165h-721l35 165h721z" />
    <glyph glyph-name="imacron" unicode="&#x12b;" horiz-adv-x="529" 
d="M9 0l232 1089h345l-232 -1089h-345zM756 1442l-29 -165h-572l29 165h572z" />
    <glyph glyph-name="Ibreve" unicode="&#x12c;" horiz-adv-x="598" 
d="M400 0h-367l307 1443h367zM236 1865h206q-4 -16 -4 -36q0 -58 35.5 -91t102.5 -33q76 0 130 43.5t71 116.5h214q-35 -144 -153 -236t-292 -92q-150 0 -233.5 74.5t-83.5 188.5q0 28 7 65z" />
    <glyph glyph-name="ibreve" unicode="&#x12d;" horiz-adv-x="529" 
d="M9 0l232 1089h345l-232 -1089h-345zM154 1571h207q-4 -24 -4 -36q0 -59 36.5 -92t101.5 -33q74 0 128.5 43.5t72.5 117.5h213q-35 -152 -153 -240.5t-292 -88.5q-138 0 -227 75.5t-89 193.5q0 27 6 60z" />
    <glyph glyph-name="Iogonek" unicode="&#x12e;" horiz-adv-x="598" 
d="M147 -478q-108 0 -175.5 54t-67.5 141q0 138 177 276l-49 3l308 1447h367l-306 -1439l-36 -13q-88 -37 -142.5 -93.5t-54.5 -109.5q0 -36 27.5 -56t76.5 -20q51 0 74 10l-37 -175q-58 -25 -162 -25z" />
    <glyph glyph-name="iogonek" unicode="&#x12f;" horiz-adv-x="524" 
d="M232 -444q-54 -25 -161 -25q-110 0 -175.5 53t-65.5 136q0 129 171 256l237 1113h345l-230 -1080l-36 -12q-83 -31 -153.5 -91.5t-70.5 -112.5q0 -33 29.5 -53t73.5 -20q45 0 73 10zM466 1180q-76 0 -128 49.5t-52 122.5q0 74 52 123.5t128 49.5t128 -49.5t52 -123.5
q0 -73 -52 -122.5t-128 -49.5z" />
    <glyph glyph-name="Idotaccent" unicode="&#x130;" horiz-adv-x="598" 
d="M400 0h-367l307 1443h367zM591 1605q-69 0 -116.5 47.5t-47.5 113.5q0 67 47.5 114.5t116.5 47.5t117 -47.5t48 -114.5q0 -66 -48 -113.5t-117 -47.5z" />
    <glyph glyph-name="dotlessi" unicode="&#x131;" horiz-adv-x="529" 
d="M9 0l232 1089h345l-232 -1089h-345z" />
    <glyph glyph-name="IJ" unicode="&#x132;" horiz-adv-x="1803" 
d="M400 0h-367l307 1443h367zM642 409q0 34 3 60h351v-16q0 -75 41.5 -119t115.5 -44q145 0 184 186l206 967h368l-216 -1013q-47 -221 -187 -338t-361 -117q-228 0 -366.5 119.5t-138.5 314.5z" />
    <glyph glyph-name="ij" unicode="&#x133;" horiz-adv-x="1054" 
d="M8 0l232 1089h345l-232 -1089h-345zM468 1180q-76 0 -128 49.5t-52 122.5q0 74 52 123.5t128 49.5t128 -49.5t52 -123.5q0 -73 -52 -122.5t-128 -49.5zM998 1180q-76 0 -128 49.5t-52 122.5q0 74 52 123.5t128 49.5t128 -49.5t52 -123.5q0 -73 -52 -122.5t-128 -49.5z
M1112 1089l-247 -1159q-33 -153 -148 -238t-285 -85q-84 0 -151 14l54 247q34 -6 66 -6q107 0 128 103l239 1124h344z" />
    <glyph glyph-name="Jcircumflex" unicode="&#x134;" horiz-adv-x="1205" 
d="M44 409q0 34 3 60h351v-16q0 -75 41.5 -119t115.5 -44q145 0 184 186l206 967h368l-216 -1013q-47 -221 -187 -338t-361 -117q-228 0 -366.5 119.5t-138.5 314.5zM1353 1869l192 -327h-247l-103 192h-7l-185 -192h-253l332 327h271z" />
    <glyph glyph-name="jcircumflex" unicode="&#x135;" horiz-adv-x="526" 
d="M584 1089l-247 -1159q-33 -153 -148 -238t-285 -85q-84 0 -151 14l54 247q34 -6 66 -6q107 0 128 103l239 1124h344zM664 1572l189 -327h-245l-97 183h-7l-175 -183h-266l329 327h272z" />
    <glyph glyph-name="Kcommaaccent" unicode="&#x136;" horiz-adv-x="1410" 
d="M400 0h-367l307 1443h367l-131 -616h7l611 616h423l-660 -669l354 -774h-404l-254 566l-169 -168zM480 -475h-267l211 330h313z" />
    <glyph glyph-name="kcommaaccent" unicode="&#x137;" horiz-adv-x="1176" 
d="M357 0h-344l308 1443h343l-160 -753h7l397 399h398l-497 -473l297 -616h-373l-200 429l-105 -97zM375 -475h-267l211 330h313z" />
    <glyph glyph-name="Lacute" unicode="&#x139;" horiz-adv-x="1136" 
d="M1077 303l-65 -303h-979l307 1443h367l-242 -1140h612zM692 1556h-284l295 314h326z" />
    <glyph glyph-name="lacute" unicode="&#x13a;" horiz-adv-x="540" 
d="M15 0l307 1443h344l-307 -1443h-344zM663 1556h-284l295 314h326z" />
    <glyph glyph-name="Lcommaaccent" unicode="&#x13b;" horiz-adv-x="1136" 
d="M1077 303l-65 -303h-979l307 1443h367l-242 -1140h612zM372 -475h-267l211 330h313z" />
    <glyph glyph-name="lcommaaccent" unicode="&#x13c;" horiz-adv-x="540" 
d="M15 0l307 1443h344l-307 -1443h-344zM24 -475h-267l211 330h313z" />
    <glyph glyph-name="Lcaron" unicode="&#x13d;" horiz-adv-x="1136" 
d="M953 1443h286l-159 -511h-236zM1077 303l-65 -303h-979l307 1443h367l-242 -1140h612z" />
    <glyph glyph-name="lcaron" unicode="&#x13e;" horiz-adv-x="856" 
d="M793 1443h286l-158 -511h-236zM15 0l307 1443h344l-307 -1443h-344z" />
    <glyph glyph-name="Lslash" unicode="&#x141;" horiz-adv-x="1136" 
d="M465 303h612l-65 -303h-979l96 450l-129 -60l64 302l129 60l147 691h367l-106 -501l278 129l-65 -301l-277 -129z" />
    <glyph glyph-name="lslash" unicode="&#x142;" horiz-adv-x="540" 
d="M690 1003l-56 -262l-130 -61l-145 -680h-344l107 502l-122 -57l56 262l121 57l145 679h344l-107 -501z" />
    <glyph glyph-name="Nacute" unicode="&#x143;" horiz-adv-x="1491" 
d="M385 0h-352l307 1443h288l426 -882h7l186 882h353l-307 -1443h-288l-426 882h-7zM1106 1556h-284l295 314h326z" />
    <glyph glyph-name="nacute" unicode="&#x144;" horiz-adv-x="1241" 
d="M6 0l232 1089h332l-36 -166h7q57 91 151.5 141.5t206.5 50.5q148 0 240 -86t92 -225q0 -61 -15 -133l-141 -671h-342l130 617q9 46 9 78q0 66 -46 107t-119 41q-80 0 -141.5 -55t-80.5 -146l-137 -642h-342zM943 1259h-277l293 316h312z" />
    <glyph glyph-name="Ncommaaccent" unicode="&#x145;" horiz-adv-x="1491" 
d="M385 0h-352l307 1443h288l426 -882h7l186 882h353l-307 -1443h-288l-426 882h-7zM527 -475h-267l211 330h313z" />
    <glyph glyph-name="ncommaaccent" unicode="&#x146;" horiz-adv-x="1241" 
d="M6 0l232 1089h332l-36 -166h7q57 91 151.5 141.5t206.5 50.5q148 0 240 -86t92 -225q0 -61 -15 -133l-141 -671h-342l130 617q9 46 9 78q0 66 -46 107t-119 41q-80 0 -141.5 -55t-80.5 -146l-137 -642h-342zM378 -475h-267l211 330h313z" />
    <glyph glyph-name="Ncaron" unicode="&#x147;" horiz-adv-x="1491" 
d="M385 0h-352l307 1443h288l426 -882h7l186 882h353l-307 -1443h-288l-426 882h-7zM824 1542l-192 327h247l103 -192h8l184 192h253l-332 -327h-271z" />
    <glyph glyph-name="ncaron" unicode="&#x148;" horiz-adv-x="1241" 
d="M6 0l232 1089h332l-36 -166h7q57 91 151.5 141.5t206.5 50.5q148 0 240 -86t92 -225q0 -61 -15 -133l-141 -671h-342l130 617q9 46 9 78q0 66 -46 107t-119 41q-80 0 -141.5 -55t-80.5 -146l-137 -642h-342zM900 1245h-271l-190 327h244l97 -184h7l175 184h267z" />
    <glyph glyph-name="Omacron" unicode="&#x14c;" horiz-adv-x="1570" 
d="M918 1170q-112 0 -206 -74.5t-148 -202.5t-54 -279q0 -155 77 -248t205 -93q112 0 206 74.5t148.5 202t54.5 279.5q0 156 -77 248.5t-206 92.5zM782 -25q-147 0 -269 46.5t-203.5 128.5t-126.5 196t-45 247q0 190 61 354t166.5 277.5t251 178.5t309.5 65
q150 0 272.5 -46.5t204.5 -129t126 -196t44 -246.5q0 -190 -62 -354t-168 -278t-251.5 -178.5t-309.5 -64.5zM1372 1778l-35 -165h-721l35 165h721z" />
    <glyph glyph-name="omacron" unicode="&#x14d;" horiz-adv-x="1251" 
d="M613 242q113 0 189 108t76 267q0 104 -48 167t-127 63q-115 0 -190.5 -106.5t-75.5 -268.5q0 -104 48 -167t128 -63zM718 1115q229 0 370 -135.5t141 -355.5q0 -139 -47.5 -260t-130 -206.5t-200 -134.5t-252.5 -49q-229 0 -370 135t-141 356q0 139 47.5 260t130 206.5
t200 134.5t252.5 49zM1143 1442l-35 -165h-673l35 165h673z" />
    <glyph glyph-name="Obreve" unicode="&#x14e;" horiz-adv-x="1570" 
d="M918 1170q-112 0 -206 -74.5t-148 -202.5t-54 -279q0 -155 77 -248t205 -93q112 0 206 74.5t148.5 202t54.5 279.5q0 156 -77 248.5t-206 92.5zM782 -25q-147 0 -269 46.5t-203.5 128.5t-126.5 196t-45 247q0 190 61 354t166.5 277.5t251 178.5t309.5 65
q150 0 272.5 -46.5t204.5 -129t126 -196t44 -246.5q0 -190 -62 -354t-168 -278t-251.5 -178.5t-309.5 -64.5zM652 1865h206q-4 -16 -4 -36q0 -58 35.5 -91t102.5 -33q76 0 130 43.5t71 116.5h214q-35 -144 -153 -236t-292 -92q-150 0 -233.5 74.5t-83.5 188.5q0 28 7 65z
" />
    <glyph glyph-name="obreve" unicode="&#x14f;" horiz-adv-x="1251" 
d="M613 242q113 0 189 108t76 267q0 104 -48 167t-127 63q-115 0 -190.5 -106.5t-75.5 -268.5q0 -104 48 -167t128 -63zM718 1115q229 0 370 -135.5t141 -355.5q0 -139 -47.5 -260t-130 -206.5t-200 -134.5t-252.5 -49q-229 0 -370 135t-141 356q0 139 47.5 260t130 206.5
t200 134.5t252.5 49zM454 1571h207q-4 -24 -4 -36q0 -59 36.5 -92t101.5 -33q74 0 128.5 43.5t72.5 117.5h213q-35 -152 -153 -240.5t-292 -88.5q-138 0 -227 75.5t-89 193.5q0 27 6 60z" />
    <glyph glyph-name="Ohungarumlaut" unicode="&#x150;" horiz-adv-x="1570" 
d="M918 1170q-112 0 -206 -74.5t-148 -202.5t-54 -279q0 -155 77 -248t205 -93q112 0 206 74.5t148.5 202t54.5 279.5q0 156 -77 248.5t-206 92.5zM782 -25q-147 0 -269 46.5t-203.5 128.5t-126.5 196t-45 247q0 190 61 354t166.5 277.5t251 178.5t309.5 65
q150 0 272.5 -46.5t204.5 -129t126 -196t44 -246.5q0 -190 -62 -354t-168 -278t-251.5 -178.5t-309.5 -64.5zM1345 1556h-283l296 314h324zM872 1556h-282l295 314h324z" />
    <glyph glyph-name="ohungarumlaut" unicode="&#x151;" horiz-adv-x="1251" 
d="M613 242q113 0 189 108t76 267q0 104 -48 167t-127 63q-115 0 -190.5 -106.5t-75.5 -268.5q0 -104 48 -167t128 -63zM718 1115q229 0 370 -135.5t141 -355.5q0 -139 -47.5 -260t-130 -206.5t-200 -134.5t-252.5 -49q-229 0 -370 135t-141 356q0 139 47.5 260t130 206.5
t200 134.5t252.5 49zM897 1260l253 315h281l-285 -315h-249zM492 1260l253 315h281l-286 -315h-248z" />
    <glyph glyph-name="OE" unicode="&#x152;" horiz-adv-x="2236" 
d="M1142 0l35 174h-7q-72 -93 -191.5 -146t-257.5 -53q-257 0 -416 171.5t-159 448.5q0 246 101.5 445.5t282.5 313.5t406 114q155 0 271 -68.5t183 -197.5h6l53 241h903l-63 -295h-621l-61 -288h584l-58 -270h-584l-63 -295h622l-62 -295h-904zM1209 829q0 156 -77 248.5
t-206 92.5q-112 0 -206 -75t-148 -202.5t-54 -278.5q0 -155 77 -248t205 -93q113 0 207 75t148 202.5t54 278.5z" />
    <glyph glyph-name="oe" unicode="&#x153;" horiz-adv-x="1963" 
d="M1360 -25q-110 0 -216.5 50.5t-145.5 122.5h-16q-65 -84 -164.5 -128.5t-220.5 -44.5q-232 0 -371.5 133.5t-139.5 356.5q0 136 48 256.5t131 207t199.5 136.5t248.5 50q116 0 209.5 -46t152.5 -126h16q61 76 160 124t209 48q214 0 349 -130t135 -337q0 -78 -18 -179
h-749v-18q0 -106 56 -168.5t150 -62.5q153 0 195 131h320q-43 -172 -189 -274t-349 -102zM1211 667h417q2 10 2 31q0 76 -49 123.5t-128 47.5q-88 0 -153.5 -55t-88.5 -147zM441 465q0 -107 44 -167t122 -60q109 0 185.5 112.5t76.5 271.5q0 107 -43.5 168.5t-119.5 61.5
q-109 0 -187 -114t-78 -273z" />
    <glyph glyph-name="Racute" unicode="&#x154;" horiz-adv-x="1365" 
d="M1317 1870l-337 -314h-284l295 314h326zM562 764h226q118 0 190 64t72 165q0 84 -51 128.5t-145 44.5h-205zM340 1443h615q217 0 340.5 -116t123.5 -303q0 -161 -92.5 -294t-257.5 -189l169 -541h-382l-149 505h-200l-107 -505h-367z" />
    <glyph glyph-name="racute" unicode="&#x155;" horiz-adv-x="848" 
d="M6 0l233 1089h335l-31 -155h7q41 78 112.5 124.5t160.5 46.5q83 0 144 -28l-66 -301q-75 36 -157 36q-219 0 -270 -239l-123 -573h-345zM795 1260h-277l293 316h312z" />
    <glyph glyph-name="Rcommaaccent" unicode="&#x156;" horiz-adv-x="1365" 
d="M194 -475l211 330h313l-257 -330h-267zM562 764h226q118 0 190 64t72 165q0 84 -51 128.5t-145 44.5h-205zM340 1443h615q217 0 340.5 -116t123.5 -303q0 -161 -92.5 -294t-257.5 -189l169 -541h-382l-149 505h-200l-107 -505h-367z" />
    <glyph glyph-name="rcommaaccent" unicode="&#x157;" horiz-adv-x="848" 
d="M6 0l233 1089h335l-31 -155h7q41 78 112.5 124.5t160.5 46.5q83 0 144 -28l-66 -301q-75 36 -157 36q-219 0 -270 -239l-123 -573h-345zM17 -475h-267l211 330h313z" />
    <glyph glyph-name="Rcaron" unicode="&#x158;" horiz-adv-x="1365" 
d="M969 1542h-271l-192 327h247l103 -192h8l184 192h253zM562 764h226q118 0 190 64t72 165q0 84 -51 128.5t-145 44.5h-205zM340 1443h615q217 0 340.5 -116t123.5 -303q0 -161 -92.5 -294t-257.5 -189l169 -541h-382l-149 505h-200l-107 -505h-367z" />
    <glyph glyph-name="rcaron" unicode="&#x159;" horiz-adv-x="848" 
d="M6 0l233 1089h335l-31 -155h7q41 78 112.5 124.5t160.5 46.5q83 0 144 -28l-66 -301q-75 36 -157 36q-219 0 -270 -239l-123 -573h-345zM752 1246h-271l-190 327h244l97 -184h7l175 184h267z" />
    <glyph glyph-name="Sacute" unicode="&#x15a;" horiz-adv-x="1347" 
d="M71 425h349q11 -75 83.5 -123t179.5 -48q103 0 166.5 40.5t63.5 109.5q0 55 -39 89t-146 67l-138 42q-183 56 -274.5 153.5t-91.5 243.5q0 210 162.5 339.5t416.5 129.5q267 0 422.5 -119.5t156.5 -328.5h-338q-3 77 -66 123.5t-167 46.5q-98 0 -156 -42t-58 -104
q0 -54 41.5 -91t137.5 -65l143 -43q194 -57 281.5 -147.5t87.5 -240.5q0 -215 -167.5 -348.5t-444.5 -133.5q-278 0 -440.5 119t-164.5 331zM990 1556h-284l295 314h326z" />
    <glyph glyph-name="sacute" unicode="&#x15b;" horiz-adv-x="1108" 
d="M165 757q0 161 130.5 259t346.5 98q204 0 334.5 -100t135.5 -259h-310q-4 56 -49.5 91.5t-115.5 35.5q-66 0 -105.5 -26t-39.5 -69q0 -36 30.5 -59t113.5 -51l116 -38q154 -52 219.5 -120t65.5 -178q0 -165 -135.5 -266t-358.5 -101q-226 0 -363.5 101t-144.5 270h327
q5 -62 56.5 -99.5t134.5 -37.5q66 0 104.5 26t38.5 70q0 34 -29 55.5t-109 48.5l-98 33q-152 50 -223.5 127t-71.5 189zM865 1260h-277l293 316h312z" />
    <glyph glyph-name="Scircumflex" unicode="&#x15c;" horiz-adv-x="1347" 
d="M71 425h349q11 -75 83.5 -123t179.5 -48q103 0 166.5 40.5t63.5 109.5q0 55 -39 89t-146 67l-138 42q-183 56 -274.5 153.5t-91.5 243.5q0 210 162.5 339.5t416.5 129.5q267 0 422.5 -119.5t156.5 -328.5h-338q-3 77 -66 123.5t-167 46.5q-98 0 -156 -42t-58 -104
q0 -54 41.5 -91t137.5 -65l143 -43q194 -57 281.5 -147.5t87.5 -240.5q0 -215 -167.5 -348.5t-444.5 -133.5q-278 0 -440.5 119t-164.5 331zM1045 1869l192 -327h-247l-103 192h-7l-185 -192h-253l332 327h271z" />
    <glyph glyph-name="scircumflex" unicode="&#x15d;" horiz-adv-x="1108" 
d="M165 757q0 161 130.5 259t346.5 98q204 0 334.5 -100t135.5 -259h-310q-4 56 -49.5 91.5t-115.5 35.5q-66 0 -105.5 -26t-39.5 -69q0 -36 30.5 -59t113.5 -51l116 -38q154 -52 219.5 -120t65.5 -178q0 -165 -135.5 -266t-358.5 -101q-226 0 -363.5 101t-144.5 270h327
q5 -62 56.5 -99.5t134.5 -37.5q66 0 104.5 26t38.5 70q0 34 -29 55.5t-109 48.5l-98 33q-152 50 -223.5 127t-71.5 189zM890 1573l189 -327h-245l-97 183h-7l-175 -183h-266l329 327h272z" />
    <glyph glyph-name="Scedilla" unicode="&#x15e;" horiz-adv-x="1347" 
d="M776 888l143 -43q194 -57 281.5 -147.5t87.5 -240.5q0 -203 -149.5 -334t-401.5 -146l-49 -68q73 -7 111.5 -45t38.5 -103q0 -99 -87 -163t-222 -64q-100 0 -147 18l32 150q50 -15 117 -15q115 0 115 52q0 25 -27 35t-94 10h-58l26 113l62 84q-226 26 -354 141.5
t-130 302.5h349q11 -75 83.5 -123t179.5 -48q103 0 166.5 40.5t63.5 109.5q0 55 -39 89t-146 67l-138 42q-183 56 -274.5 153.5t-91.5 243.5q0 210 162.5 339.5t416.5 129.5q267 0 422.5 -119.5t156.5 -328.5h-338q-3 77 -66 123.5t-167 46.5q-98 0 -156 -42t-58 -104
q0 -54 41.5 -91t137.5 -65z" />
    <glyph glyph-name="scedilla" unicode="&#x15f;" horiz-adv-x="1108" 
d="M636 677l116 -38q154 -52 219.5 -120t65.5 -178q0 -151 -115.5 -249.5t-309.5 -114.5l-49 -68q73 -7 111.5 -45t38.5 -103q0 -99 -87 -163t-222 -64q-100 0 -147 18l32 150q50 -15 117 -15q115 0 115 52q0 25 -27 35t-94 10h-58l26 113l62 84q-179 25 -284 121.5
t-111 242.5h327q5 -62 56.5 -99.5t134.5 -37.5q66 0 104.5 26t38.5 70q0 34 -29 55.5t-109 48.5l-98 33q-152 50 -223.5 127t-71.5 189q0 161 130.5 259t346.5 98q204 0 334.5 -100t135.5 -259h-310q-4 56 -49.5 91.5t-115.5 35.5q-66 0 -105.5 -26t-39.5 -69
q0 -36 30.5 -59t113.5 -51z" />
    <glyph glyph-name="Scaron" unicode="&#x160;" horiz-adv-x="1347" 
d="M71 425h349q11 -75 83.5 -123t179.5 -48q103 0 166.5 40.5t63.5 109.5q0 55 -39 89t-146 67l-138 42q-183 56 -274.5 153.5t-91.5 243.5q0 210 162.5 339.5t416.5 129.5q267 0 422.5 -119.5t156.5 -328.5h-338q-3 77 -66 123.5t-167 46.5q-98 0 -156 -42t-58 -104
q0 -54 41.5 -91t137.5 -65l143 -43q194 -57 281.5 -147.5t87.5 -240.5q0 -215 -167.5 -348.5t-444.5 -133.5q-278 0 -440.5 119t-164.5 331zM708 1542l-192 327h247l103 -192h8l184 192h253l-332 -327h-271z" />
    <glyph glyph-name="scaron" unicode="&#x161;" horiz-adv-x="1108" 
d="M165 757q0 161 130.5 259t346.5 98q204 0 334.5 -100t135.5 -259h-310q-4 56 -49.5 91.5t-115.5 35.5q-66 0 -105.5 -26t-39.5 -69q0 -36 30.5 -59t113.5 -51l116 -38q154 -52 219.5 -120t65.5 -178q0 -165 -135.5 -266t-358.5 -101q-226 0 -363.5 101t-144.5 270h327
q5 -62 56.5 -99.5t134.5 -37.5q66 0 104.5 26t38.5 70q0 34 -29 55.5t-109 48.5l-98 33q-152 50 -223.5 127t-71.5 189zM822 1246h-271l-190 327h244l97 -184h7l175 184h267z" />
    <glyph glyph-name="Tcedilla" unicode="&#x162;" horiz-adv-x="1284" 
d="M266 1443h1199l-63 -295h-416l-243 -1148l-66 -91q73 -7 111.5 -45t38.5 -103q0 -99 -87 -163t-222 -64q-100 0 -147 18l32 150q50 -15 117 -15q115 0 115 52q0 25 -27 35t-94 10h-58l26 113l76 103h-183l244 1148h-416z" />
    <glyph glyph-name="tcedilla" unicode="&#x163;" horiz-adv-x="813" 
d="M623 808l-92 -429q-6 -25 -6 -56q0 -46 31 -67t98 -21q51 0 72 6l-53 -242q-49 -13 -141 -13l-56 -77q73 -7 111.5 -45t38.5 -103q0 -99 -87 -163t-222 -64q-100 0 -147 18l32 150q50 -15 117 -15q115 0 115 52q0 25 -27 35t-94 10h-58l26 113l79 108q-93 24 -142.5 80
t-49.5 141q0 58 11 114l99 468h-163l56 256h162l56 262h343l-55 -262h217l-54 -256h-217z" />
    <glyph glyph-name="Tcaron" unicode="&#x164;" horiz-adv-x="1284" 
d="M743 0h-368l244 1148h-416l63 295h1199l-63 -295h-416zM753 1542l-192 327h247l103 -192h8l184 192h253l-332 -327h-271z" />
    <glyph glyph-name="tcaron" unicode="&#x165;" horiz-adv-x="1022" 
d="M960 1732h286l-159 -511h-236zM524 -14q-169 0 -262.5 61t-93.5 179q0 58 11 114l99 468h-163l56 256h162l56 262h343l-55 -262h217l-54 -256h-217l-92 -429q-6 -25 -6 -56q0 -46 31 -67t98 -21q51 0 72 6l-53 -242q-50 -13 -149 -13z" />
    <glyph glyph-name="Tbar" unicode="&#x166;" horiz-adv-x="1284" 
d="M1402 1148h-416l-59 -278h319l-62 -294h-319l-122 -576h-368l122 576h-273l63 294h273l59 278h-416l63 295h1199z" />
    <glyph glyph-name="tbar" unicode="&#x167;" horiz-adv-x="813" 
d="M840 808h-217l-33 -153h225l-36 -166h-224l-24 -110q-6 -25 -6 -56q0 -46 31 -67t98 -21q51 0 72 6l-53 -242q-50 -13 -149 -13q-169 0 -262.5 61t-93.5 179q0 58 11 114l32 149h-164l36 166h163l32 153h-163l56 256h162l56 262h343l-55 -262h217z" />
    <glyph glyph-name="Utilde" unicode="&#x168;" horiz-adv-x="1484" 
d="M732 -25q-272 0 -430 132.5t-158 346.5q-1 56 13 125l183 864h367l-182 -858q-10 -47 -10 -91q1 -96 67 -151.5t172 -55.5q108 0 180.5 64.5t97.5 184.5l192 907h367l-209 -987q-47 -225 -221 -353t-429 -128zM1146 1546q-48 0 -88.5 20t-63 43.5t-50 43.5t-53.5 20
q-31 0 -55 -29.5t-37 -81.5h-184q26 130 101.5 207t176.5 77q49 0 90 -20t63 -43.5t49.5 -43.5t53.5 -20q63 0 92 115h184q-28 -131 -104 -209.5t-175 -78.5z" />
    <glyph glyph-name="utilde" unicode="&#x169;" horiz-adv-x="1241" 
d="M1301 1089l-232 -1089h-333l37 172h-7q-48 -90 -141 -144t-207 -54q-155 0 -247.5 87t-92.5 230q0 73 15 141l139 657h344l-129 -601q-7 -42 -7 -73q0 -77 42 -117.5t120 -40.5q83 0 141.5 54.5t78.5 148.5l134 629h345zM967 1246q-48 0 -88.5 20t-63 43.5t-50 43.5
t-53.5 20q-31 0 -55 -29.5t-37 -81.5h-184q26 130 101.5 207t176.5 77q49 0 90 -20t63 -43.5t49.5 -43.5t53.5 -20q63 0 92 115h184q-28 -131 -104 -209.5t-175 -78.5z" />
    <glyph glyph-name="Umacron" unicode="&#x16a;" horiz-adv-x="1484" 
d="M732 -25q-272 0 -430 132.5t-158 346.5q-1 56 13 125l183 864h367l-182 -858q-10 -47 -10 -91q1 -96 67 -151.5t172 -55.5q108 0 180.5 64.5t97.5 184.5l192 907h367l-209 -987q-47 -225 -221 -353t-429 -128zM1387 1778l-35 -165h-721l35 165h721z" />
    <glyph glyph-name="umacron" unicode="&#x16b;" horiz-adv-x="1241" 
d="M1301 1089l-232 -1089h-333l37 172h-7q-48 -90 -141 -144t-207 -54q-155 0 -247.5 87t-92.5 230q0 73 15 141l139 657h344l-129 -601q-7 -42 -7 -73q0 -77 42 -117.5t120 -40.5q83 0 141.5 54.5t78.5 148.5l134 629h345zM1194 1442l-35 -165h-673l35 165h673z" />
    <glyph glyph-name="Ubreve" unicode="&#x16c;" horiz-adv-x="1484" 
d="M732 -25q-272 0 -430 132.5t-158 346.5q-1 56 13 125l183 864h367l-182 -858q-10 -47 -10 -91q1 -96 67 -151.5t172 -55.5q108 0 180.5 64.5t97.5 184.5l192 907h367l-209 -987q-47 -225 -221 -353t-429 -128zM667 1865h206q-4 -16 -4 -36q0 -58 35.5 -91t102.5 -33
q76 0 130 43.5t71 116.5h214q-35 -144 -153 -236t-292 -92q-150 0 -233.5 74.5t-83.5 188.5q0 28 7 65z" />
    <glyph glyph-name="ubreve" unicode="&#x16d;" horiz-adv-x="1241" 
d="M1301 1089l-232 -1089h-333l37 172h-7q-48 -90 -141 -144t-207 -54q-155 0 -247.5 87t-92.5 230q0 73 15 141l139 657h344l-129 -601q-7 -42 -7 -73q0 -77 42 -117.5t120 -40.5q83 0 141.5 54.5t78.5 148.5l134 629h345zM505 1571h207q-4 -24 -4 -36q0 -59 36.5 -92
t101.5 -33q74 0 128.5 43.5t72.5 117.5h213q-35 -152 -153 -240.5t-292 -88.5q-138 0 -227 75.5t-89 193.5q0 27 6 60z" />
    <glyph glyph-name="Uring" unicode="&#x16e;" horiz-adv-x="1484" 
d="M732 -25q-272 0 -430 132.5t-158 346.5q-1 56 13 125l183 864h367l-182 -858q-10 -47 -10 -91q1 -96 67 -151.5t172 -55.5q108 0 180.5 64.5t97.5 184.5l192 907h367l-209 -987q-47 -225 -221 -353t-429 -128zM1040 1569q-95 0 -163 64.5t-68 158.5q0 95 68.5 161
t164.5 66q95 0 162.5 -64.5t67.5 -158.5t-68 -160.5t-164 -66.5zM1040 1705q38 0 65 26t27 64t-26.5 64t-63.5 26q-38 0 -65 -26.5t-27 -65.5q0 -37 26.5 -62.5t63.5 -25.5z" />
    <glyph glyph-name="uring" unicode="&#x16f;" horiz-adv-x="1241" 
d="M1301 1089l-232 -1089h-333l37 172h-7q-48 -90 -141 -144t-207 -54q-155 0 -247.5 87t-92.5 230q0 73 15 141l139 657h344l-129 -601q-7 -42 -7 -73q0 -77 42 -117.5t120 -40.5q83 0 141.5 54.5t78.5 148.5l134 629h345zM850 1215q-95 0 -163 64.5t-68 158.5
q0 95 68.5 161t164.5 66q95 0 162.5 -64.5t67.5 -158.5t-68 -160.5t-164 -66.5zM850 1351q38 0 65 26t27 64t-26.5 64t-63.5 26q-38 0 -65 -26.5t-27 -65.5q0 -37 26.5 -62.5t63.5 -25.5z" />
    <glyph glyph-name="Uhungarumlaut" unicode="&#x170;" horiz-adv-x="1484" 
d="M732 -25q-272 0 -430 132.5t-158 346.5q-1 56 13 125l183 864h367l-182 -858q-10 -47 -10 -91q1 -96 67 -151.5t172 -55.5q108 0 180.5 64.5t97.5 184.5l192 907h367l-209 -987q-47 -225 -221 -353t-429 -128zM1360 1556h-283l296 314h324zM887 1556h-282l295 314h324z
" />
    <glyph glyph-name="uhungarumlaut" unicode="&#x171;" horiz-adv-x="1241" 
d="M1301 1089l-232 -1089h-333l37 172h-7q-48 -90 -141 -144t-207 -54q-155 0 -247.5 87t-92.5 230q0 73 15 141l139 657h344l-129 -601q-7 -42 -7 -73q0 -77 42 -117.5t120 -40.5q83 0 141.5 54.5t78.5 148.5l134 629h345zM948 1260l253 315h281l-285 -315h-249zM543 1260
l253 315h281l-286 -315h-248z" />
    <glyph glyph-name="Uogonek" unicode="&#x172;" horiz-adv-x="1484" 
d="M990 -453q-58 -25 -162 -25q-107 0 -175 53t-68 141q0 70 50.5 137.5t137.5 117.5v7q-11 -3 -31 -3q-273 0 -435.5 133t-162.5 346q-1 57 13 124l183 865h369l-183 -859q-10 -46 -10 -90q1 -96 66.5 -151.5t171.5 -55.5q108 0 180 64t97 184l192 908h368l-209 -988
q-53 -257 -284 -397q-122 -75 -185.5 -139.5t-63.5 -132.5q0 -35 27 -54.5t77 -19.5q48 0 74 10z" />
    <glyph glyph-name="uogonek" unicode="&#x173;" horiz-adv-x="1240" 
d="M931 -444q-55 -25 -162 -25q-110 0 -175 53t-65 136q0 152 204 267l40 185h-7q-47 -87 -138.5 -142t-209.5 -55q-153 0 -246.5 85.5t-93.5 230.5q0 58 15 141l138 658h345l-129 -602q-7 -34 -7 -73q0 -77 42 -117.5t120 -40.5q83 0 141.5 54.5t78.5 148.5l135 630h342
l-229 -1084l-31 -9q-99 -30 -173.5 -90t-74.5 -114q0 -33 29.5 -53t73.5 -20q45 0 73 10z" />
    <glyph glyph-name="Wcircumflex" unicode="&#x174;" horiz-adv-x="1986" 
d="M1096 898l-430 -898h-348l-71 1443h373l-4 -962h7l445 962h291l48 -962h7l395 962h378l-681 -1443h-344l-59 898h-7zM1437 1869l192 -327h-247l-103 192h-7l-185 -192h-253l332 327h271z" />
    <glyph glyph-name="wcircumflex" unicode="&#x175;" horiz-adv-x="1691" 
d="M1822 1089l-507 -1089h-375l-16 735h-7l-321 -735h-379l-50 1089h341l-21 -769h7l325 769h336l4 -769h7l301 769h355zM1238 1573l189 -327h-245l-97 183h-7l-175 -183h-266l329 327h272z" />
    <glyph glyph-name="Ycircumflex" unicode="&#x176;" horiz-adv-x="1389" 
d="M796 0h-367l105 498l-296 945h380l164 -602h8l409 602h400l-699 -951zM1138 1869l192 -327h-247l-103 192h-7l-185 -192h-253l332 327h271z" />
    <glyph glyph-name="ycircumflex" unicode="&#x177;" horiz-adv-x="1152" 
d="M81 -399q-132 0 -144 4l55 267q9 -3 104 -3q159 0 180 114q0 3 4 17.5t3 16.5l-125 1072h352l29 -818h7l377 818h367l-587 -1102q-111 -209 -256 -297.5t-366 -88.5zM967 1573l189 -327h-245l-97 183h-7l-175 -183h-266l329 327h272z" />
    <glyph glyph-name="Ydieresis" unicode="&#x178;" horiz-adv-x="1389" 
d="M796 0h-367l105 498l-296 945h380l164 -602h8l409 602h400l-699 -951zM766 1573q-60 0 -100 38.5t-40 94.5t40 95t100 39q59 0 99 -39t40 -95t-40 -94.5t-99 -38.5zM1173 1573q-60 0 -100 38.5t-40 94.5t40 95t100 39t100 -39t40 -95t-40 -94.5t-100 -38.5z" />
    <glyph glyph-name="Zacute" unicode="&#x179;" horiz-adv-x="1277" 
d="M-5 0l50 233l838 908v7h-634l64 295h1087l-50 -233l-838 -908v-7h666l-62 -295h-1121zM1022 1556h-284l295 314h326z" />
    <glyph glyph-name="zacute" unicode="&#x17a;" horiz-adv-x="1074" 
d="M-19 0l40 188l631 628l2 7h-485l57 266h920l-47 -216l-593 -600l-1 -7h483l-57 -266h-950zM910 1259h-277l293 316h312z" />
    <glyph glyph-name="Zdotaccent" unicode="&#x17b;" horiz-adv-x="1277" 
d="M-5 0l50 233l838 908v7h-634l64 295h1087l-50 -233l-838 -908v-7h666l-62 -295h-1121zM922 1605q-69 0 -116.5 47.5t-47.5 113.5q0 67 47.5 114.5t116.5 47.5t117 -47.5t48 -114.5q0 -66 -48 -113.5t-117 -47.5z" />
    <glyph glyph-name="zdotaccent" unicode="&#x17c;" horiz-adv-x="1074" 
d="M-19 0l40 188l631 628l2 7h-485l57 266h920l-47 -216l-593 -600l-1 -7h483l-57 -266h-950zM751 1251q-69 0 -116.5 47.5t-47.5 113.5q0 67 47.5 114.5t116.5 47.5t117 -47.5t48 -114.5q0 -66 -48 -113.5t-117 -47.5z" />
    <glyph glyph-name="Zcaron" unicode="&#x17d;" horiz-adv-x="1277" 
d="M-5 0l50 233l838 908v7h-634l64 295h1087l-50 -233l-838 -908v-7h666l-62 -295h-1121zM740 1542l-192 327h247l103 -192h8l184 192h253l-332 -327h-271z" />
    <glyph glyph-name="zcaron" unicode="&#x17e;" horiz-adv-x="1074" 
d="M-19 0l40 188l631 628l2 7h-485l57 266h920l-47 -216l-593 -600l-1 -7h483l-57 -266h-950zM867 1245h-271l-190 327h244l97 -184h7l175 184h267z" />
    <glyph glyph-name="uni04D8" unicode="&#x18f;" horiz-adv-x="1558" 
d="M751 -25q-278 0 -444.5 158.5t-166.5 422.5q0 60 12.5 132.5t30.5 117.5h995q0 4 1 10t1.5 10.5t0.5 7.5q17 157 -54.5 248.5t-210.5 91.5q-210 0 -309 -175h-372q77 218 268.5 343.5t447.5 125.5q274 0 434 -156.5t160 -424.5q0 -272 -98.5 -479t-278.5 -320t-417 -113z
M770 269q126 0 225 79.5t136 210.5h-618q-3 -21 -3 -43q0 -115 69.5 -181t190.5 -66z" />
    <glyph glyph-name="uni04D8" unicode="&#x4d8;" horiz-adv-x="1558" 
d="M751 -25q-278 0 -444.5 158.5t-166.5 422.5q0 60 12.5 132.5t30.5 117.5h995q0 4 1 10t1.5 10.5t0.5 7.5q17 157 -54.5 248.5t-210.5 91.5q-210 0 -309 -175h-372q77 218 268.5 343.5t447.5 125.5q274 0 434 -156.5t160 -424.5q0 -272 -98.5 -479t-278.5 -320t-417 -113z
M770 269q126 0 225 79.5t136 210.5h-618q-3 -21 -3 -43q0 -115 69.5 -181t190.5 -66z" />
    <glyph glyph-name="florin" unicode="&#x192;" horiz-adv-x="1372" 
d="M246 -21q-71 0 -140.5 10.5t-104.5 24.5l58 275q73 -26 166 -26q92 0 149.5 40.5t94.5 139.5l67 184h-321l52 245h360l81 218q135 366 578 366q142 0 226 -28l-59 -274q-59 19 -155 19q-189 0 -257 -185l-43 -116h325l-53 -245h-363l-96 -262q-71 -193 -205.5 -289.5
t-359.5 -96.5z" />
    <glyph glyph-name="Ohorn" unicode="&#x1a0;" horiz-adv-x="1570" 
d="M1201 829q0 156 -77 248.5t-206 92.5q-112 0 -206 -74.5t-148 -202.5t-54 -279q0 -155 77 -248t205 -93q112 0 206 74.5t148.5 202t54.5 279.5zM1573 850q0 -190 -62 -354t-168 -278t-251.5 -178.5t-309.5 -64.5q-147 0 -269 46.5t-203.5 128.5t-126.5 196t-45 247
q0 190 61 354t166.5 277.5t251 178.5t309.5 65q91 0 166.5 -15.5t122.5 -38t83.5 -44.5t68 -37.5t57.5 -15.5q46 0 70 23t35 77l36 170h269l-55 -256q-21 -99 -76.5 -149t-126.5 -50q-39 0 -62 14l-6 -7q65 -127 65 -289z" />
    <glyph glyph-name="ohorn" unicode="&#x1a1;" horiz-adv-x="1322" 
d="M1225 620q0 -135 -48 -255t-131 -205.5t-199.5 -135.5t-248.5 -50q-232 0 -371.5 134t-139.5 358q0 135 48.5 255.5t132 207t200.5 136.5t249 50q96 0 206 -25.5t148 -25.5q88 0 105 84l33 155h269l-50 -236q-20 -95 -85 -154.5t-147 -59.5h-20v-7q49 -90 49 -226z
M442 467q0 -107 44 -167.5t121 -60.5q109 0 186 112.5t77 270.5q0 107 -43.5 168.5t-119.5 61.5q-109 0 -187 -113.5t-78 -271.5z" />
    <glyph glyph-name="Uhorn" unicode="&#x1af;" horiz-adv-x="1739" 
d="M735 -25q-271 0 -434.5 132.5t-163.5 346.5q0 59 13 124l183 865h369l-183 -859q-10 -46 -10 -90q2 -93 66 -150t172 -57t180 64t97 184l192 908h384q73 0 88 71l42 194h269l-57 -266q-23 -108 -99.5 -167.5t-189.5 -59.5h-116l-161 -760q-47 -224 -216.5 -352
t-424.5 -128z" />
    <glyph glyph-name="uhorn" unicode="&#x1b0;" horiz-adv-x="1472" 
d="M766 172q-48 -90 -141 -144t-207 -54q-155 0 -247.5 87t-92.5 230q0 73 15 141l139 657h344l-129 -601q-7 -42 -7 -73q0 -77 42 -117.5t120 -40.5q83 0 141.5 54.5t78.5 148.5l134 629h320q76 0 91 69l32 155h269l-50 -236q-22 -101 -93 -157.5t-176 -56.5h-96l-184 -863
h-333l37 172h-7z" />
    <glyph glyph-name="uni01C4" unicode="&#x1c4;" horiz-adv-x="2750" 
d="M340 1443h557q263 0 422.5 -149.5t159.5 -410.5q0 -192 -55.5 -355.5t-154.5 -280t-242 -182t-312 -65.5h-682zM647 1149l-181 -855h199q194 0 315.5 148t121.5 395q0 146 -75.5 229t-213.5 83h-166zM1468 0l50 233l838 908v7h-634l64 295h1087l-50 -233l-838 -908v-7
h666l-62 -295h-1121zM2213 1542l-192 327h247l103 -192h8l184 192h253l-332 -327h-271z" />
    <glyph glyph-name="uni01C5" unicode="&#x1c5;" horiz-adv-x="2547" 
d="M340 1443h557q263 0 422.5 -149.5t159.5 -410.5q0 -192 -55.5 -355.5t-154.5 -280t-242 -182t-312 -65.5h-682zM647 1149l-181 -855h199q194 0 315.5 148t121.5 395q0 146 -75.5 229t-213.5 83h-166zM1454 0l40 188l631 628l2 7h-485l57 266h920l-47 -216l-593 -600
l-1 -7h483l-57 -266h-950zM2340 1245h-271l-190 327h244l97 -184h7l175 184h267z" />
    <glyph glyph-name="uni01C6" unicode="&#x1c6;" horiz-adv-x="2356" 
d="M454 -16q-172 0 -272 114.5t-100 310.5q0 147 41.5 276.5t113.5 221.5t173.5 145t216.5 53q120 0 204.5 -54.5t111.5 -147.5h8l115 540h344l-307 -1443h-337l34 158h-7q-119 -174 -339 -174zM614 250q110 0 188.5 109.5t78.5 261.5q0 94 -49.5 152t-130.5 58
q-111 0 -188 -106t-77 -262q0 -97 48.5 -155t129.5 -58zM1263 0l40 188l631 628l2 7h-485l57 266h920l-47 -216l-593 -600l-1 -7h483l-57 -266h-950zM2149 1245h-271l-190 327h244l97 -184h7l175 184h267z" />
    <glyph glyph-name="uni01C7" unicode="&#x1c7;" horiz-adv-x="2341" 
d="M1077 303l-65 -303h-979l307 1443h367l-242 -1140h612zM1180 409q0 34 3 60h351v-16q0 -75 41.5 -119t115.5 -44q145 0 184 186l206 967h368l-216 -1013q-47 -221 -187 -338t-361 -117q-228 0 -366.5 119.5t-138.5 314.5z" />
    <glyph glyph-name="uni01C8" unicode="&#x1c8;" horiz-adv-x="1662" 
d="M1077 303l-65 -303h-979l307 1443h367l-242 -1140h612zM1606 1180q-76 0 -128 49.5t-52 122.5q0 74 52 123.5t128 49.5t128 -49.5t52 -123.5q0 -73 -52 -122.5t-128 -49.5zM1720 1089l-247 -1159q-33 -153 -148 -238t-285 -85q-85 0 -151 14l54 247q34 -6 66 -6
q107 0 128 103l239 1124h344z" />
    <glyph glyph-name="uni01C9" unicode="&#x1c9;" horiz-adv-x="1066" 
d="M15 0l307 1443h344l-307 -1443h-344zM1010 1180q-76 0 -128 49.5t-52 122.5q0 74 52 123.5t128 49.5t128 -49.5t52 -123.5q0 -73 -52 -122.5t-128 -49.5zM1124 1089l-247 -1159q-33 -153 -148 -238t-285 -85q-84 0 -151 14l54 247q34 -6 66 -6q107 0 128 103l239 1124
h344z" />
    <glyph glyph-name="uni01CA" unicode="&#x1ca;" horiz-adv-x="2696" 
d="M385 0h-352l307 1443h288l426 -882h7l186 882h353l-307 -1443h-288l-426 882h-7zM1535 409q0 34 3 60h351v-16q0 -75 41.5 -119t115.5 -44q145 0 184 186l206 967h368l-216 -1013q-47 -221 -187 -338t-361 -117q-228 0 -366.5 119.5t-138.5 314.5z" />
    <glyph glyph-name="uni01CB" unicode="&#x1cb;" horiz-adv-x="2017" 
d="M385 0h-352l307 1443h288l426 -882h7l186 882h353l-307 -1443h-288l-426 882h-7zM1961 1180q-76 0 -128 49.5t-52 122.5q0 74 52 123.5t128 49.5t128 -49.5t52 -123.5q0 -73 -52 -122.5t-128 -49.5zM2075 1089l-247 -1159q-33 -153 -148 -238t-285 -85q-85 0 -151 14
l54 247q34 -6 66 -6q107 0 128 103l239 1124h344z" />
    <glyph glyph-name="uni01CC" unicode="&#x1cc;" horiz-adv-x="1767" 
d="M6 0l232 1089h332l-36 -166h7q57 91 151.5 141.5t206.5 50.5q148 0 240 -86t92 -225q0 -61 -15 -133l-141 -671h-342l130 617q9 46 9 78q0 66 -46 107t-119 41q-80 0 -141.5 -55t-80.5 -146l-137 -642h-342zM1711 1180q-76 0 -128 49.5t-52 122.5q0 74 52 123.5t128 49.5
t128 -49.5t52 -123.5q0 -73 -52 -122.5t-128 -49.5zM1825 1089l-247 -1159q-33 -153 -148 -238t-285 -85q-85 0 -151 14l54 247q34 -6 66 -6q107 0 128 103l239 1124h344z" />
    <glyph glyph-name="Acaron" unicode="&#x1cd;" horiz-adv-x="1446" 
d="M890 1121l-276 -540h324l-40 540h-8zM977 0l-24 317h-471l-163 -317h-388l804 1443h449l166 -1443h-373zM845 1542l-192 327h247l103 -192h8l184 192h253l-332 -327h-271z" />
    <glyph glyph-name="acaron" unicode="&#x1ce;" horiz-adv-x="1143" 
d="M510 223q77 0 137 44.5t74 111.5l18 81l-198 -6q-79 -3 -126 -36.5t-47 -88.5q0 -48 39.5 -77t102.5 -29zM358 -16q-137 0 -229.5 84t-92.5 212q0 167 130 264.5t357 104.5l258 8l13 64q4 23 4 36q0 47 -41 75.5t-110 28.5q-67 0 -112 -28t-60 -78h-316
q31 165 169.5 262.5t342.5 97.5q207 0 335 -91t128 -237q0 -43 -8 -89l-149 -698h-333l28 129h-7q-44 -66 -125.5 -105.5t-181.5 -39.5zM856 1245h-271l-190 327h244l97 -184h7l175 184h267z" />
    <glyph glyph-name="Icaron" unicode="&#x1cf;" horiz-adv-x="598" 
d="M400 0h-367l307 1443h367zM410 1542l-192 327h247l103 -192h8l184 192h253l-332 -327h-271z" />
    <glyph glyph-name="icaron" unicode="&#x1d0;" horiz-adv-x="529" 
d="M9 0l232 1089h345l-232 -1089h-345zM597 1245h-271l-190 327h244l97 -184h7l175 184h267z" />
    <glyph glyph-name="Ocaron" unicode="&#x1d1;" horiz-adv-x="1570" 
d="M918 1170q-112 0 -206 -74.5t-148 -202.5t-54 -279q0 -155 77 -248t205 -93q112 0 206 74.5t148.5 202t54.5 279.5q0 156 -77 248.5t-206 92.5zM782 -25q-147 0 -269 46.5t-203.5 128.5t-126.5 196t-45 247q0 190 61 354t166.5 277.5t251 178.5t309.5 65
q150 0 272.5 -46.5t204.5 -129t126 -196t44 -246.5q0 -190 -62 -354t-168 -278t-251.5 -178.5t-309.5 -64.5zM826 1542l-192 327h247l103 -192h8l184 192h253l-332 -327h-271z" />
    <glyph glyph-name="ocaron" unicode="&#x1d2;" horiz-adv-x="1251" 
d="M613 242q113 0 189 108t76 267q0 104 -48 167t-127 63q-115 0 -190.5 -106.5t-75.5 -268.5q0 -104 48 -167t128 -63zM718 1115q229 0 370 -135.5t141 -355.5q0 -139 -47.5 -260t-130 -206.5t-200 -134.5t-252.5 -49q-229 0 -370 135t-141 356q0 139 47.5 260t130 206.5
t200 134.5t252.5 49zM897 1245h-271l-190 327h244l97 -184h7l175 184h267z" />
    <glyph glyph-name="Ucaron" unicode="&#x1d3;" horiz-adv-x="1484" 
d="M732 -25q-272 0 -430 132.5t-158 346.5q-1 56 13 125l183 864h367l-182 -858q-10 -47 -10 -91q1 -96 67 -151.5t172 -55.5q108 0 180.5 64.5t97.5 184.5l192 907h367l-209 -987q-47 -225 -221 -353t-429 -128zM841 1542l-192 327h247l103 -192h8l184 192h253l-332 -327
h-271z" />
    <glyph glyph-name="ucaron" unicode="&#x1d4;" horiz-adv-x="1241" 
d="M1301 1089l-232 -1089h-333l37 172h-7q-48 -90 -141 -144t-207 -54q-155 0 -247.5 87t-92.5 230q0 73 15 141l139 657h344l-129 -601q-7 -42 -7 -73q0 -77 42 -117.5t120 -40.5q83 0 141.5 54.5t78.5 148.5l134 629h345zM948 1245h-271l-190 327h244l97 -184h7l175 184
h267z" />
    <glyph glyph-name="Udieresismacron" unicode="&#x1d5;" horiz-adv-x="1484" 
d="M732 -25q-272 0 -430 132.5t-158 346.5q-1 56 13 125l183 864h367l-182 -858q-10 -47 -10 -91q1 -96 67 -151.5t172 -55.5q108 0 180.5 64.5t97.5 184.5l192 907h367l-209 -987q-47 -225 -221 -353t-429 -128zM794 1819q62 0 103.5 -40.5t41.5 -98.5t-41.5 -99
t-103.5 -41t-104 41t-42 99t42 98.5t104 40.5zM1455 2098l-35 -165h-721l35 165h721zM1217 1819q62 0 103.5 -40.5t41.5 -98.5t-41.5 -99t-103.5 -41t-104 41t-42 99t42 98.5t104 40.5z" />
    <glyph glyph-name="udieresismacron" unicode="&#x1d6;" horiz-adv-x="1241" 
d="M1301 1089l-232 -1089h-333l37 172h-7q-48 -90 -141 -144t-207 -54q-155 0 -247.5 87t-92.5 230q0 73 15 141l139 657h344l-129 -601q-7 -42 -7 -73q0 -77 42 -117.5t120 -40.5q83 0 141.5 54.5t78.5 148.5l134 629h345zM619 1228q-60 0 -100 39t-40 95t40 95t100 39
t100 -39t40 -95t-40 -95t-100 -39zM1026 1228q-59 0 -99 39t-40 95t40 95t99 39q60 0 100 -39t40 -95t-40 -95t-100 -39zM1269 1793l-35 -165h-673l35 165h673z" />
    <glyph glyph-name="Udieresisacute" unicode="&#x1d7;" horiz-adv-x="1484" 
d="M732 -25q-272 0 -430 132.5t-158 346.5q-1 56 13 125l183 864h367l-182 -858q-10 -47 -10 -91q1 -96 67 -151.5t172 -55.5q108 0 180.5 64.5t97.5 184.5l192 907h367l-209 -987q-47 -225 -221 -353t-429 -128zM905 1903l251 265h300l-284 -265h-267zM806 1558
q-59 0 -99 38.5t-40 94.5q0 55 40 93.5t99 38.5t98.5 -38.5t39.5 -93.5q0 -56 -39.5 -94.5t-98.5 -38.5zM1209 1558q-59 0 -99 38.5t-40 94.5q0 55 40 93.5t99 38.5t98.5 -38.5t39.5 -93.5q0 -56 -39.5 -94.5t-98.5 -38.5z" />
    <glyph glyph-name="udieresisacute" unicode="&#x1d8;" horiz-adv-x="1241" 
d="M1301 1089l-232 -1089h-333l37 172h-7q-48 -90 -141 -144t-207 -54q-155 0 -247.5 87t-92.5 230q0 73 15 141l139 657h344l-129 -601q-7 -42 -7 -73q0 -77 42 -117.5t120 -40.5q83 0 141.5 54.5t78.5 148.5l134 629h345zM737 1607l264 285h287l-298 -285h-253zM632 1229
q-60 0 -100 38.5t-40 94.5t40 95t100 39q59 0 99 -39t40 -95t-40 -94.5t-99 -38.5zM1039 1229q-60 0 -100 38.5t-40 94.5t40 95t100 39t100 -39t40 -95t-40 -94.5t-100 -38.5z" />
    <glyph glyph-name="Udieresiscaron" unicode="&#x1d9;" horiz-adv-x="1484" 
d="M732 -25q-272 0 -430 132.5t-158 346.5q-1 56 13 125l183 864h367l-182 -858q-10 -47 -10 -91q1 -96 67 -151.5t172 -55.5q108 0 180.5 64.5t97.5 184.5l192 907h367l-209 -987q-47 -225 -221 -353t-429 -128zM932 1900l-190 288h233l91 -151h18l156 151h257l-313 -288
h-252zM794 1819q62 0 103.5 -40.5t41.5 -98.5t-41.5 -99t-103.5 -41t-104 41t-42 99t42 98.5t104 40.5zM1217 1819q62 0 103.5 -40.5t41.5 -98.5t-41.5 -99t-103.5 -41t-104 41t-42 99t42 98.5t104 40.5z" />
    <glyph glyph-name="udieresiscaron" unicode="&#x1da;" horiz-adv-x="1241" 
d="M1301 1089l-232 -1089h-333l37 172h-7q-48 -90 -141 -144t-207 -54q-155 0 -247.5 87t-92.5 230q0 73 15 141l139 657h344l-129 -601q-7 -42 -7 -73q0 -77 42 -117.5t120 -40.5q83 0 141.5 54.5t78.5 148.5l134 629h345zM619 1228q-60 0 -100 39t-40 95t40 95t100 39
t100 -39t40 -95t-40 -95t-100 -39zM1026 1228q-59 0 -99 39t-40 95t40 95t99 39q60 0 100 -39t40 -95t-40 -95t-100 -39zM730 1574l-189 322h243l97 -179h8l174 179h268l-329 -322h-272z" />
    <glyph glyph-name="Udieresisgrave" unicode="&#x1db;" horiz-adv-x="1484" 
d="M732 -25q-272 0 -430 132.5t-158 346.5q-1 56 13 125l183 864h367l-182 -858q-10 -47 -10 -91q1 -96 67 -151.5t172 -55.5q108 0 180.5 64.5t97.5 184.5l192 907h367l-209 -987q-47 -225 -221 -353t-429 -128zM1186 1903h-238l-170 265h271zM806 1558q-59 0 -99 38.5
t-40 94.5q0 55 40 93.5t99 38.5t98.5 -38.5t39.5 -93.5q0 -56 -39.5 -94.5t-98.5 -38.5zM1209 1558q-59 0 -99 38.5t-40 94.5q0 55 40 93.5t99 38.5t98.5 -38.5t39.5 -93.5q0 -56 -39.5 -94.5t-98.5 -38.5z" />
    <glyph glyph-name="udieresisgrave" unicode="&#x1dc;" horiz-adv-x="1241" 
d="M1301 1089l-232 -1089h-333l37 172h-7q-48 -90 -141 -144t-207 -54q-155 0 -247.5 87t-92.5 230q0 73 15 141l139 657h344l-129 -601q-7 -42 -7 -73q0 -77 42 -117.5t120 -40.5q83 0 141.5 54.5t78.5 148.5l134 629h345zM1004 1603h-230l-171 289h282zM632 1229
q-60 0 -100 38.5t-40 94.5t40 95t100 39q59 0 99 -39t40 -95t-40 -94.5t-99 -38.5zM1039 1229q-60 0 -100 38.5t-40 94.5t40 95t100 39t100 -39t40 -95t-40 -94.5t-100 -38.5z" />
    <glyph glyph-name="uni04D9" unicode="&#x1dd;" horiz-adv-x="1201" 
d="M461 739h-322q43 169 187.5 272.5t348.5 103.5q232 0 366.5 -132.5t134.5 -361.5q0 -183 -74.5 -330t-211.5 -231.5t-313 -84.5q-217 0 -350.5 127.5t-133.5 339.5q0 105 18 178h751q2 24 2 33q0 94 -55 153t-149 59q-73 0 -126.5 -34.5t-72.5 -91.5zM591 220
q86 0 150.5 56t87.5 147h-417q-3 -9 -3 -32q0 -74 49 -122.5t133 -48.5z" />
    <glyph glyph-name="uni04D9" unicode="&#x4d9;" horiz-adv-x="1201" 
d="M461 739h-322q43 169 187.5 272.5t348.5 103.5q232 0 366.5 -132.5t134.5 -361.5q0 -183 -74.5 -330t-211.5 -231.5t-313 -84.5q-217 0 -350.5 127.5t-133.5 339.5q0 105 18 178h751q2 24 2 33q0 94 -55 153t-149 59q-73 0 -126.5 -34.5t-72.5 -91.5zM591 220
q86 0 150.5 56t87.5 147h-417q-3 -9 -3 -32q0 -74 49 -122.5t133 -48.5z" />
    <glyph glyph-name="uni04D9" unicode="&#x259;" horiz-adv-x="1201" 
d="M461 739h-322q43 169 187.5 272.5t348.5 103.5q232 0 366.5 -132.5t134.5 -361.5q0 -183 -74.5 -330t-211.5 -231.5t-313 -84.5q-217 0 -350.5 127.5t-133.5 339.5q0 105 18 178h751q2 24 2 33q0 94 -55 153t-149 59q-73 0 -126.5 -34.5t-72.5 -91.5zM591 220
q86 0 150.5 56t87.5 147h-417q-3 -9 -3 -32q0 -74 49 -122.5t133 -48.5z" />
    <glyph glyph-name="Adieresismacron" unicode="&#x1de;" horiz-adv-x="1446" 
d="M890 1121l-276 -540h324l-40 540h-8zM977 0l-24 317h-471l-163 -317h-388l804 1443h449l166 -1443h-373zM798 1819q62 0 103.5 -40.5t41.5 -98.5t-41.5 -99t-103.5 -41t-104 41t-42 99t42 98.5t104 40.5zM1459 2098l-35 -165h-721l35 165h721zM1221 1819
q62 0 103.5 -40.5t41.5 -98.5t-41.5 -99t-103.5 -41t-104 41t-42 99t42 98.5t104 40.5z" />
    <glyph glyph-name="adieresismacron" unicode="&#x1df;" horiz-adv-x="1143" 
d="M510 223q77 0 137 44.5t74 111.5l18 81l-198 -6q-79 -3 -126 -36.5t-47 -88.5q0 -48 39.5 -77t102.5 -29zM358 -16q-137 0 -229.5 84t-92.5 212q0 167 130 264.5t357 104.5l258 8l13 64q4 23 4 36q0 47 -41 75.5t-110 28.5q-67 0 -112 -28t-60 -78h-316
q31 165 169.5 262.5t342.5 97.5q207 0 335 -91t128 -237q0 -43 -8 -89l-149 -698h-333l28 129h-7q-44 -66 -125.5 -105.5t-181.5 -39.5zM527 1228q-60 0 -100 39t-40 95t40 95t100 39t100 -39t40 -95t-40 -95t-100 -39zM934 1228q-59 0 -99 39t-40 95t40 95t99 39
q60 0 100 -39t40 -95t-40 -95t-100 -39zM1177 1793l-35 -165h-673l35 165h673z" />
    <glyph glyph-name="Adotmacron" unicode="&#x1e0;" horiz-adv-x="1446" 
d="M890 1121l-276 -540h324l-40 540h-8zM977 0l-24 317h-471l-163 -317h-388l804 1443h449l166 -1443h-373zM1011 1546q-64 0 -106.5 41.5t-42.5 100.5q0 60 42.5 101.5t106.5 41.5q63 0 105.5 -41.5t42.5 -101.5q0 -59 -42.5 -100.5t-105.5 -41.5zM1459 2098l-35 -165h-721
l35 165h721z" />
    <glyph glyph-name="adotmacron" unicode="&#x1e1;" horiz-adv-x="1143" 
d="M510 223q77 0 137 44.5t74 111.5l18 81l-198 -6q-79 -3 -126 -36.5t-47 -88.5q0 -48 39.5 -77t102.5 -29zM358 -16q-137 0 -229.5 84t-92.5 212q0 167 130 264.5t357 104.5l258 8l13 64q4 23 4 36q0 47 -41 75.5t-110 28.5q-67 0 -112 -28t-60 -78h-316
q31 165 169.5 262.5t342.5 97.5q207 0 335 -91t128 -237q0 -43 -8 -89l-149 -698h-333l28 129h-7q-44 -66 -125.5 -105.5t-181.5 -39.5zM735 1216q-69 0 -116.5 47t-47.5 113q0 67 47.5 113.5t116.5 46.5t116 -46.5t47 -113.5q0 -66 -47 -113t-116 -47zM1177 1793l-35 -165
h-673l35 165h673z" />
    <glyph glyph-name="AEmacron" unicode="&#x1e2;" horiz-adv-x="2035" 
d="M1126 1167h-120l-339 -575h337zM878 0l69 327h-431l-194 -327h-371l873 1443h1337l-63 -295h-646l-61 -290h609l-58 -270h-609l-62 -293h645l-62 -295h-976zM1893 1778l-35 -165h-721l35 165h721z" />
    <glyph glyph-name="aemacron" unicode="&#x1e3;" horiz-adv-x="1847" 
d="M1242 -26q-117 0 -222.5 54t-146.5 135h-16q-63 -88 -175 -138.5t-240 -50.5q-176 0 -289 86.5t-113 219.5q0 170 127 266.5t360 102.5l258 8l13 64q3 15 3 36q0 46 -41.5 75t-108.5 29q-141 0 -173 -106h-316q31 162 166 261t328 99q102 0 197 -39t141 -101h16
q65 67 154 103.5t187 36.5q208 0 341.5 -131t133.5 -336q0 -90 -16 -179h-751v-18q0 -106 56.5 -168.5t152.5 -62.5q73 0 123 34t69 97h320q-44 -173 -189.5 -275t-348.5 -102zM1094 667h417q4 10 4 31q0 76 -49.5 123.5t-127.5 47.5q-89 0 -155 -55.5t-89 -146.5zM514 218
q78 0 138.5 44t75.5 111l18 82l-201 -7q-79 -3 -125.5 -36.5t-46.5 -88.5q0 -46 39 -75.5t102 -29.5zM1469 1442l-35 -165h-673l35 165h673z" />
    <glyph glyph-name="Gcaron" unicode="&#x1e6;" horiz-adv-x="1519" 
d="M1525 777l-31 -170q-55 -305 -242.5 -468.5t-480.5 -163.5q-287 0 -460 171t-173 452q0 179 57 338t159 277t253 186.5t330 68.5q176 0 316.5 -67t216.5 -177t77 -240q0 -14 -2 -28h-353q-7 96 -79 156.5t-185 60.5q-96 0 -175.5 -45t-131.5 -122t-81 -178.5t-29 -214.5
q0 -159 77.5 -251t220.5 -92q115 0 200.5 67.5t110.5 174.5l3 13h-273l54 252h621zM817 1542l-192 327h247l103 -192h8l184 192h253l-332 -327h-271z" />
    <glyph glyph-name="gcaron" unicode="&#x1e7;" horiz-adv-x="1269" 
d="M502 -411q-239 0 -378 93t-140 256h335q10 -56 63 -87.5t137 -31.5q193 0 234 180l39 176h-16q-48 -74 -132.5 -115t-187.5 -41q-167 0 -269.5 112.5t-102.5 296.5q0 181 70 336t195 248t276 93q115 0 199 -57t112 -152h15l42 193h336l-235 -1106q-40 -188 -196 -291
t-396 -103zM611 255q112 0 189.5 108.5t77.5 257.5q0 94 -50 152t-131 58q-112 0 -188 -106t-76 -260q0 -95 48 -152.5t130 -57.5zM952 1247h-271l-190 327h244l97 -184h7l175 184h267z" />
    <glyph glyph-name="Kcaron" unicode="&#x1e8;" horiz-adv-x="1410" 
d="M400 0h-367l307 1443h367l-131 -616h7l611 616h423l-660 -669l354 -774h-404l-254 566l-169 -168zM812 1542l-192 327h247l103 -192h8l184 192h253l-332 -327h-271z" />
    <glyph glyph-name="kcaron" unicode="&#x1e9;" horiz-adv-x="1176" 
d="M357 0h-344l308 1443h343l-160 -753h7l397 399h398l-497 -473l297 -616h-373l-200 429l-105 -97zM379 1542l-192 327h247l103 -192h8l184 192h253l-332 -327h-271z" />
    <glyph glyph-name="Oogonek" unicode="&#x1ea;" horiz-adv-x="1570" 
d="M1035 -453q-58 -25 -161 -25q-108 0 -175.5 53t-67.5 141q0 70 49.5 137.5t135.5 116.5v7q-20 -2 -34 -2q-147 0 -269 46.5t-203.5 128.5t-126.5 196t-45 247q0 190 61 354t166.5 277.5t251 178.5t309.5 65q150 0 272.5 -46.5t204.5 -129t126 -196t44 -246.5
q0 -258 -116.5 -458.5t-306.5 -326.5q-61 -41 -97.5 -68t-78 -65t-61 -73.5t-19.5 -72.5q0 -35 27 -54.5t78 -19.5q47 0 73 10zM1201 829q0 156 -77 248.5t-206 92.5q-112 0 -206 -74.5t-148 -202.5t-54 -279q0 -155 77 -248t205 -93q112 0 206 74.5t148.5 202t54.5 279.5z
" />
    <glyph glyph-name="oogonek" unicode="&#x1eb;" horiz-adv-x="1247" 
d="M813 -444q-50 -25 -162 -25q-110 0 -175.5 53t-65.5 136q0 79 56.5 145t140.5 105v4h-9q-232 0 -371.5 134t-139.5 358q0 180 82.5 329t227 234.5t320.5 85.5q232 0 370 -134.5t138 -360.5q0 -178 -82 -323.5t-223 -235.5q-129 -82 -188 -141.5t-59 -117.5q0 -34 30 -58
t73 -24q45 0 73 10zM442 467q0 -107 44 -167.5t121 -60.5q109 0 186 112.5t77 270.5q0 107 -43.5 168.5t-119.5 61.5q-109 0 -187 -113.5t-78 -271.5z" />
    <glyph glyph-name="Oogonekmacron" unicode="&#x1ec;" horiz-adv-x="1570" 
d="M1035 -453q-58 -25 -161 -25q-108 0 -175.5 53t-67.5 141q0 70 49.5 137.5t135.5 116.5v7q-20 -2 -34 -2q-147 0 -269 46.5t-203.5 128.5t-126.5 196t-45 247q0 190 61 354t166.5 277.5t251 178.5t309.5 65q150 0 272.5 -46.5t204.5 -129t126 -196t44 -246.5
q0 -258 -116.5 -458.5t-306.5 -326.5q-61 -41 -97.5 -68t-78 -65t-61 -73.5t-19.5 -72.5q0 -35 27 -54.5t78 -19.5q47 0 73 10zM1201 829q0 156 -77 248.5t-206 92.5q-112 0 -206 -74.5t-148 -202.5t-54 -279q0 -155 77 -248t205 -93q112 0 206 74.5t148.5 202t54.5 279.5z
M1372 1778l-35 -165h-721l35 165h721z" />
    <glyph glyph-name="oogonekmacron" unicode="&#x1ed;" horiz-adv-x="1247" 
d="M813 -444q-50 -25 -162 -25q-110 0 -175.5 53t-65.5 136q0 79 56.5 145t140.5 105v4h-9q-232 0 -371.5 134t-139.5 358q0 180 82.5 329t227 234.5t320.5 85.5q232 0 370 -134.5t138 -360.5q0 -178 -82 -323.5t-223 -235.5q-129 -82 -188 -141.5t-59 -117.5q0 -34 30 -58
t73 -24q45 0 73 10zM442 467q0 -107 44 -167.5t121 -60.5q109 0 186 112.5t77 270.5q0 107 -43.5 168.5t-119.5 61.5q-109 0 -187 -113.5t-78 -271.5zM1176 1442l-35 -165h-673l35 165h673z" />
    <glyph glyph-name="uni01F1" unicode="&#x1f1;" horiz-adv-x="2750" 
d="M340 1443h557q263 0 422.5 -149.5t159.5 -410.5q0 -192 -55.5 -355.5t-154.5 -280t-242 -182t-312 -65.5h-682zM647 1149l-181 -855h199q194 0 315.5 148t121.5 395q0 146 -75.5 229t-213.5 83h-166zM1468 0l50 233l838 908v7h-634l64 295h1087l-50 -233l-838 -908v-7
h666l-62 -295h-1121z" />
    <glyph glyph-name="uni01F2" unicode="&#x1f2;" horiz-adv-x="2548" 
d="M340 1443h557q263 0 422.5 -149.5t159.5 -410.5q0 -192 -55.5 -355.5t-154.5 -280t-242 -182t-312 -65.5h-682zM647 1149l-181 -855h199q194 0 315.5 148t121.5 395q0 146 -75.5 229t-213.5 83h-166zM1454 0l40 188l631 628l2 7h-485l57 266h920l-47 -216l-593 -600
l-1 -7h483l-57 -266h-950z" />
    <glyph glyph-name="uni01F3" unicode="&#x1f3;" horiz-adv-x="2357" 
d="M454 -16q-172 0 -272 114.5t-100 310.5q0 147 41.5 276.5t113.5 221.5t173.5 145t216.5 53q120 0 204.5 -54.5t111.5 -147.5h8l115 540h344l-307 -1443h-337l34 158h-7q-119 -174 -339 -174zM614 250q110 0 188.5 109.5t78.5 261.5q0 94 -49.5 152t-130.5 58
q-111 0 -188 -106t-77 -262q0 -97 48.5 -155t129.5 -58zM1263 0l40 188l631 628l2 7h-485l57 266h920l-47 -216l-593 -600l-1 -7h483l-57 -266h-950z" />
    <glyph glyph-name="Gacute" unicode="&#x1f4;" horiz-adv-x="1519" 
d="M1525 777l-31 -170q-55 -305 -242.5 -468.5t-480.5 -163.5q-287 0 -460 171t-173 452q0 179 57 338t159 277t253 186.5t330 68.5q176 0 316.5 -67t216.5 -177t77 -240q0 -14 -2 -28h-353q-7 96 -79 156.5t-185 60.5q-96 0 -175.5 -45t-131.5 -122t-81 -178.5t-29 -214.5
q0 -159 77.5 -251t220.5 -92q115 0 200.5 67.5t110.5 174.5l3 13h-273l54 252h621zM1099 1556h-284l295 314h326z" />
    <glyph glyph-name="gacute" unicode="&#x1f5;" horiz-adv-x="1269" 
d="M502 -411q-239 0 -378 93t-140 256h335q10 -56 63 -87.5t137 -31.5q193 0 234 180l39 176h-16q-48 -74 -132.5 -115t-187.5 -41q-167 0 -269.5 112.5t-102.5 296.5q0 181 70 336t195 248t276 93q115 0 199 -57t112 -152h15l42 193h336l-235 -1106q-40 -188 -196 -291
t-396 -103zM611 255q112 0 189.5 108.5t77.5 257.5q0 94 -50 152t-131 58q-112 0 -188 -106t-76 -260q0 -95 48 -152.5t130 -57.5zM995 1261h-277l293 316h312z" />
    <glyph glyph-name="Ngrave" unicode="&#x1f8;" horiz-adv-x="1491" 
d="M385 0h-352l307 1443h288l426 -882h7l186 882h353l-307 -1443h-288l-426 882h-7zM833 1556l-205 314h297l163 -314h-255z" />
    <glyph glyph-name="ngrave" unicode="&#x1f9;" horiz-adv-x="1241" 
d="M6 0l232 1089h332l-36 -166h7q57 91 151.5 141.5t206.5 50.5q148 0 240 -86t92 -225q0 -61 -15 -133l-141 -671h-342l130 617q9 46 9 78q0 66 -46 107t-119 41q-80 0 -141.5 -55t-80.5 -146l-137 -642h-342zM874 1259h-273l-193 316h307z" />
    <glyph glyph-name="Aringacute" unicode="&#x1fa;" horiz-adv-x="1446" 
d="M890 1121l-276 -540h324l-40 540h-8zM977 0l-24 317h-471l-163 -317h-388l804 1443h449l166 -1443h-373zM1015 1515q-89 0 -147.5 55.5t-58.5 142.5q0 88 59 144.5t149 56.5q89 0 148 -55.5t59 -141.5q-1 -88 -60 -145t-149 -57zM1015 1639q34 0 56 21.5t21 55.5
q0 33 -21.5 54t-53.5 21q-34 0 -55.5 -22t-21.5 -56q0 -32 21.5 -53t53.5 -21zM1101 2177h285l-195 -194h-245z" />
    <glyph glyph-name="aringacute" unicode="&#x1fb;" horiz-adv-x="1143" 
d="M510 223q77 0 137 44.5t74 111.5l18 81l-198 -6q-79 -3 -126 -36.5t-47 -88.5q0 -48 39.5 -77t102.5 -29zM358 -16q-137 0 -229.5 84t-92.5 212q0 167 130 264.5t357 104.5l258 8l13 64q4 23 4 36q0 47 -41 75.5t-110 28.5q-67 0 -112 -28t-60 -78h-316
q31 165 169.5 262.5t342.5 97.5q207 0 335 -91t128 -237q0 -43 -8 -89l-149 -698h-333l28 129h-7q-44 -66 -125.5 -105.5t-181.5 -39.5zM684 1723l186 222h279l-226 -222h-239zM743 1206q-98 0 -161.5 60.5t-63.5 156.5q0 97 64 159t163 62t162.5 -60.5t62.5 -156.5
q0 -96 -64 -158.5t-163 -62.5zM661 1424q0 -37 23 -60t59 -23q37 0 61 24t24 62q-1 36 -24 59.5t-59 23.5q-37 0 -60.5 -24t-23.5 -62z" />
    <glyph glyph-name="AEacute" unicode="&#x1fc;" horiz-adv-x="2035" 
d="M1126 1167h-120l-339 -575h337zM878 0l69 327h-431l-194 -327h-371l873 1443h1337l-63 -295h-646l-61 -290h609l-58 -270h-609l-62 -293h645l-62 -295h-976zM1629 1556h-284l295 314h326z" />
    <glyph glyph-name="aeacute" unicode="&#x1fd;" horiz-adv-x="1847" 
d="M1242 -26q-117 0 -222.5 54t-146.5 135h-16q-63 -88 -175 -138.5t-240 -50.5q-176 0 -289 86.5t-113 219.5q0 170 127 266.5t360 102.5l258 8l13 64q3 15 3 36q0 46 -41.5 75t-108.5 29q-141 0 -173 -106h-316q31 162 166 261t328 99q102 0 197 -39t141 -101h16
q65 67 154 103.5t187 36.5q208 0 341.5 -131t133.5 -336q0 -90 -16 -179h-751v-18q0 -106 56.5 -168.5t152.5 -62.5q73 0 123 34t69 97h320q-44 -173 -189.5 -275t-348.5 -102zM1094 667h417q4 10 4 31q0 76 -49.5 123.5t-127.5 47.5q-89 0 -155 -55.5t-89 -146.5zM514 218
q78 0 138.5 44t75.5 111l18 82l-201 -7q-79 -3 -125.5 -36.5t-46.5 -88.5q0 -46 39 -75.5t102 -29.5zM1266 1259h-277l293 316h312z" />
    <glyph glyph-name="Oslashacute" unicode="&#x1fe;" horiz-adv-x="1570" 
d="M1445 1870l-337 -314h-284l295 314h326zM1195 911l-577 -577q72 -61 174 -61q112 0 206 74.5t148.5 202t54.5 279.5q0 43 -6 82zM516 532l577 577q-72 61 -175 61q-112 0 -206 -74.5t-148 -202.5t-54 -279q0 -43 6 -82zM1627 1343l-147 -147q93 -148 93 -346
q0 -190 -62 -354t-168 -278t-251.5 -178.5t-309.5 -64.5q-238 0 -405 118l-143 -143l-150 150l148 148q-94 149 -94 345q0 190 61 354t166.5 277.5t251 178.5t309.5 65q243 0 408 -118l143 143z" />
    <glyph glyph-name="oslashacute" unicode="&#x1ff;" horiz-adv-x="1251" 
d="M1268 1575l-328 -316h-277l293 316h312zM889 653l-389 -389q46 -40 110 -40q120 0 200 114.5t80 284.5q0 20 -1 30zM425 433l391 391q-46 41 -110 41q-122 0 -202 -113t-80 -286q0 -22 1 -33zM1130 1138l122 -122l-106 -106q83 -120 83 -286q0 -139 -47.5 -260
t-130 -206.5t-200 -134.5t-252.5 -49q-177 0 -305 84l-107 -107l-122 122l105 105q-82 121 -82 287q0 139 47.5 260t130 206.5t200 134.5t252.5 49q177 0 305 -84z" />
    <glyph glyph-name="Adblgrave" unicode="&#x200;" horiz-adv-x="1446" 
d="M890 1121l-276 -540h324l-40 540h-8zM977 0l-24 317h-471l-163 -317h-388l804 1443h449l166 -1443h-373zM632 1556l-204 314h296l163 -314h-255zM1067 1556l-205 314h297l163 -314h-255z" />
    <glyph glyph-name="adblgrave" unicode="&#x201;" horiz-adv-x="1143" 
d="M510 223q77 0 137 44.5t74 111.5l18 81l-198 -6q-79 -3 -126 -36.5t-47 -88.5q0 -48 39.5 -77t102.5 -29zM358 -16q-137 0 -229.5 84t-92.5 212q0 167 130 264.5t357 104.5l258 8l13 64q4 23 4 36q0 47 -41 75.5t-110 28.5q-67 0 -112 -28t-60 -78h-316
q31 165 169.5 262.5t342.5 97.5q207 0 335 -91t128 -237q0 -43 -8 -89l-149 -698h-333l28 129h-7q-44 -66 -125.5 -105.5t-181.5 -39.5zM682 1260h-244l-204 315h277zM1081 1260h-244l-203 315h276z" />
    <glyph glyph-name="Ainvertedbreve" unicode="&#x202;" horiz-adv-x="1446" 
d="M890 1121l-276 -540h324l-40 540h-8zM977 0l-24 317h-471l-163 -317h-388l804 1443h449l166 -1443h-373zM1355 1537h-206q4 15 4 35q0 58 -36 91.5t-102 33.5q-76 0 -129.5 -44t-71.5 -116h-215q36 144 154 236t292 92q150 0 233.5 -74.5t83.5 -189.5q0 -29 -7 -64z" />
    <glyph glyph-name="ainvertedbreve" unicode="&#x203;" horiz-adv-x="1143" 
d="M510 223q77 0 137 44.5t74 111.5l18 81l-198 -6q-79 -3 -126 -36.5t-47 -88.5q0 -48 39.5 -77t102.5 -29zM358 -16q-137 0 -229.5 84t-92.5 212q0 167 130 264.5t357 104.5l258 8l13 64q4 23 4 36q0 47 -41 75.5t-110 28.5q-67 0 -112 -28t-60 -78h-316
q31 165 169.5 262.5t342.5 97.5q207 0 335 -91t128 -237q0 -43 -8 -89l-149 -698h-333l28 129h-7q-44 -66 -125.5 -105.5t-181.5 -39.5zM1078 1227h-207q4 24 4 36q0 59 -36.5 92t-101.5 33q-74 0 -128.5 -43.5t-72.5 -117.5h-213q35 152 153 240.5t292 88.5
q138 0 227 -75.5t89 -193.5q0 -16 -6 -60z" />
    <glyph glyph-name="Edblgrave" unicode="&#x204;" horiz-adv-x="1191" 
d="M1084 295l-62 -295h-989l307 1443h988l-63 -295h-621l-61 -288h584l-58 -270h-584l-63 -295h622zM487 1556l-204 314h296l163 -314h-255zM922 1556l-205 314h297l163 -314h-255z" />
    <glyph glyph-name="edblgrave" unicode="&#x205;" horiz-adv-x="1193" 
d="M436 667h417q3 9 3 31q0 74 -49 122.5t-132 48.5q-86 0 -151 -56t-88 -146zM589 -25q-231 0 -365 132.5t-134 361.5q0 183 74.5 330t211.5 231.5t313 84.5q217 0 350 -128t133 -340q0 -103 -17 -178h-751q-3 -17 -3 -33q0 -94 55 -153t149 -59q74 0 127 34.5t73 92.5h321
q-43 -170 -187 -273t-350 -103zM696 1260h-244l-204 315h277zM1095 1260h-244l-203 315h276z" />
    <glyph glyph-name="Einvertedbreve" unicode="&#x206;" horiz-adv-x="1191" 
d="M1084 295l-62 -295h-989l307 1443h988l-63 -295h-621l-61 -288h584l-58 -270h-584l-63 -295h622zM1210 1537h-206q4 15 4 35q0 58 -36 91.5t-102 33.5q-76 0 -129.5 -44t-71.5 -116h-215q36 144 154 236t292 92q150 0 233.5 -74.5t83.5 -189.5q0 -29 -7 -64z" />
    <glyph glyph-name="einvertedbreve" unicode="&#x207;" horiz-adv-x="1193" 
d="M436 667h417q3 9 3 31q0 74 -49 122.5t-132 48.5q-86 0 -151 -56t-88 -146zM589 -25q-231 0 -365 132.5t-134 361.5q0 183 74.5 330t211.5 231.5t313 84.5q217 0 350 -128t133 -340q0 -103 -17 -178h-751q-3 -17 -3 -33q0 -94 55 -153t149 -59q74 0 127 34.5t73 92.5h321
q-43 -170 -187 -273t-350 -103zM1092 1227h-207q4 24 4 36q0 59 -36.5 92t-101.5 33q-74 0 -128.5 -43.5t-72.5 -117.5h-213q35 152 153 240.5t292 88.5q138 0 227 -75.5t89 -193.5q0 -16 -6 -60z" />
    <glyph glyph-name="Idblgrave" unicode="&#x208;" horiz-adv-x="598" 
d="M400 0h-367l307 1443h367zM197 1556l-204 314h296l163 -314h-255zM632 1556l-205 314h297l163 -314h-255z" />
    <glyph glyph-name="idblgrave" unicode="&#x209;" horiz-adv-x="529" 
d="M9 0l232 1089h345l-232 -1089h-345zM423 1260h-244l-204 315h277zM822 1260h-244l-203 315h276z" />
    <glyph glyph-name="Iinvertedbreve" unicode="&#x20a;" horiz-adv-x="598" 
d="M400 0h-367l307 1443h367zM920 1537h-206q4 15 4 35q0 58 -36 91.5t-102 33.5q-76 0 -129.5 -44t-71.5 -116h-215q36 144 154 236t292 92q150 0 233.5 -74.5t83.5 -189.5q0 -29 -7 -64z" />
    <glyph glyph-name="iinvertedbreve" unicode="&#x20b;" horiz-adv-x="529" 
d="M9 0l232 1089h345l-232 -1089h-345zM819 1227h-207q4 24 4 36q0 59 -36.5 92t-101.5 33q-74 0 -128.5 -43.5t-72.5 -117.5h-213q35 152 153 240.5t292 88.5q138 0 227 -75.5t89 -193.5q0 -16 -6 -60z" />
    <glyph glyph-name="Odblgrave" unicode="&#x20c;" horiz-adv-x="1570" 
d="M918 1170q-112 0 -206 -74.5t-148 -202.5t-54 -279q0 -155 77 -248t205 -93q112 0 206 74.5t148.5 202t54.5 279.5q0 156 -77 248.5t-206 92.5zM782 -25q-147 0 -269 46.5t-203.5 128.5t-126.5 196t-45 247q0 190 61 354t166.5 277.5t251 178.5t309.5 65
q150 0 272.5 -46.5t204.5 -129t126 -196t44 -246.5q0 -190 -62 -354t-168 -278t-251.5 -178.5t-309.5 -64.5zM613 1556l-204 314h296l163 -314h-255zM1048 1556l-205 314h297l163 -314h-255z" />
    <glyph glyph-name="odblgrave" unicode="&#x20d;" horiz-adv-x="1251" 
d="M613 242q113 0 189 108t76 267q0 104 -48 167t-127 63q-115 0 -190.5 -106.5t-75.5 -268.5q0 -104 48 -167t128 -63zM718 1115q229 0 370 -135.5t141 -355.5q0 -139 -47.5 -260t-130 -206.5t-200 -134.5t-252.5 -49q-229 0 -370 135t-141 356q0 139 47.5 260t130 206.5
t200 134.5t252.5 49zM723 1260h-244l-204 315h277zM1122 1260h-244l-203 315h276z" />
    <glyph glyph-name="Oinvertedbreve" unicode="&#x20e;" horiz-adv-x="1570" 
d="M918 1170q-112 0 -206 -74.5t-148 -202.5t-54 -279q0 -155 77 -248t205 -93q112 0 206 74.5t148.5 202t54.5 279.5q0 156 -77 248.5t-206 92.5zM782 -25q-147 0 -269 46.5t-203.5 128.5t-126.5 196t-45 247q0 190 61 354t166.5 277.5t251 178.5t309.5 65
q150 0 272.5 -46.5t204.5 -129t126 -196t44 -246.5q0 -190 -62 -354t-168 -278t-251.5 -178.5t-309.5 -64.5zM1336 1537h-206q4 15 4 35q0 58 -36 91.5t-102 33.5q-76 0 -129.5 -44t-71.5 -116h-215q36 144 154 236t292 92q150 0 233.5 -74.5t83.5 -189.5q0 -29 -7 -64z" />
    <glyph glyph-name="oinvertedbreve" unicode="&#x20f;" horiz-adv-x="1251" 
d="M613 242q113 0 189 108t76 267q0 104 -48 167t-127 63q-115 0 -190.5 -106.5t-75.5 -268.5q0 -104 48 -167t128 -63zM718 1115q229 0 370 -135.5t141 -355.5q0 -139 -47.5 -260t-130 -206.5t-200 -134.5t-252.5 -49q-229 0 -370 135t-141 356q0 139 47.5 260t130 206.5
t200 134.5t252.5 49zM1119 1227h-207q4 24 4 36q0 59 -36.5 92t-101.5 33q-74 0 -128.5 -43.5t-72.5 -117.5h-213q35 152 153 240.5t292 88.5q138 0 227 -75.5t89 -193.5q0 -16 -6 -60z" />
    <glyph glyph-name="Rdblgrave" unicode="&#x210;" horiz-adv-x="1365" 
d="M1175 1556h-255l-205 314h297zM740 1556h-255l-204 314h296zM562 764h226q118 0 190 64t72 165q0 84 -51 128.5t-145 44.5h-205zM340 1443h615q217 0 340.5 -116t123.5 -303q0 -161 -92.5 -294t-257.5 -189l169 -541h-382l-149 505h-200l-107 -505h-367z" />
    <glyph glyph-name="rdblgrave" unicode="&#x211;" horiz-adv-x="848" 
d="M6 0l233 1089h335l-31 -155h7q41 78 112.5 124.5t160.5 46.5q83 0 144 -28l-66 -301q-75 36 -157 36q-219 0 -270 -239l-123 -573h-345zM578 1261h-244l-204 315h277zM977 1261h-244l-203 315h276z" />
    <glyph glyph-name="Rinvertedbreve" unicode="&#x212;" horiz-adv-x="1365" 
d="M1208 1537h-206q4 15 4 35q0 58 -36 91.5t-102 33.5q-76 0 -129.5 -44t-71.5 -116h-215q36 144 154 236t292 92q150 0 233.5 -74.5t83.5 -189.5q0 -29 -7 -64zM562 764h226q118 0 190 64t72 165q0 84 -51 128.5t-145 44.5h-205zM340 1443h615q217 0 340.5 -116
t123.5 -303q0 -161 -92.5 -294t-257.5 -189l169 -541h-382l-149 505h-200l-107 -505h-367z" />
    <glyph glyph-name="rinvertedbreve" unicode="&#x213;" horiz-adv-x="848" 
d="M6 0l233 1089h335l-31 -155h7q41 78 112.5 124.5t160.5 46.5q83 0 144 -28l-66 -301q-75 36 -157 36q-219 0 -270 -239l-123 -573h-345zM973 1227h-207q4 24 4 36q0 59 -36.5 92t-101.5 33q-74 0 -128.5 -43.5t-72.5 -117.5h-213q35 152 153 240.5t292 88.5
q138 0 227 -75.5t89 -193.5q0 -16 -6 -60z" />
    <glyph glyph-name="Udblgrave" unicode="&#x214;" horiz-adv-x="1484" 
d="M732 -25q-272 0 -430 132.5t-158 346.5q-1 56 13 125l183 864h367l-182 -858q-10 -47 -10 -91q1 -96 67 -151.5t172 -55.5q108 0 180.5 64.5t97.5 184.5l192 907h367l-209 -987q-47 -225 -221 -353t-429 -128zM628 1556l-204 314h296l163 -314h-255zM1063 1556l-205 314
h297l163 -314h-255z" />
    <glyph glyph-name="udblgrave" unicode="&#x215;" horiz-adv-x="1241" 
d="M1301 1089l-232 -1089h-333l37 172h-7q-48 -90 -141 -144t-207 -54q-155 0 -247.5 87t-92.5 230q0 73 15 141l139 657h344l-129 -601q-7 -42 -7 -73q0 -77 42 -117.5t120 -40.5q83 0 141.5 54.5t78.5 148.5l134 629h345zM774 1260h-244l-204 315h277zM1173 1260h-244
l-203 315h276z" />
    <glyph glyph-name="Uinvertedbreve" unicode="&#x216;" horiz-adv-x="1484" 
d="M732 -25q-272 0 -430 132.5t-158 346.5q-1 56 13 125l183 864h367l-182 -858q-10 -47 -10 -91q1 -96 67 -151.5t172 -55.5q108 0 180.5 64.5t97.5 184.5l192 907h367l-209 -987q-47 -225 -221 -353t-429 -128zM1351 1537h-206q4 15 4 35q0 58 -36 91.5t-102 33.5
q-76 0 -129.5 -44t-71.5 -116h-215q36 144 154 236t292 92q150 0 233.5 -74.5t83.5 -189.5q0 -29 -7 -64z" />
    <glyph glyph-name="uinvertedbreve" unicode="&#x217;" horiz-adv-x="1241" 
d="M1301 1089l-232 -1089h-333l37 172h-7q-48 -90 -141 -144t-207 -54q-155 0 -247.5 87t-92.5 230q0 73 15 141l139 657h344l-129 -601q-7 -42 -7 -73q0 -77 42 -117.5t120 -40.5q83 0 141.5 54.5t78.5 148.5l134 629h345zM1170 1227h-207q4 24 4 36q0 59 -36.5 92
t-101.5 33q-74 0 -128.5 -43.5t-72.5 -117.5h-213q35 152 153 240.5t292 88.5q138 0 227 -75.5t89 -193.5q0 -16 -6 -60z" />
    <glyph glyph-name="Scommaaccent" unicode="&#x218;" horiz-adv-x="1347" 
d="M71 425h349q11 -75 83.5 -123t179.5 -48q103 0 166.5 40.5t63.5 109.5q0 55 -39 89t-146 67l-138 42q-183 56 -274.5 153.5t-91.5 243.5q0 210 162.5 339.5t416.5 129.5q267 0 422.5 -119.5t156.5 -328.5h-338q-3 77 -66 123.5t-167 46.5q-98 0 -156 -42t-58 -104
q0 -54 41.5 -91t137.5 -65l143 -43q194 -57 281.5 -147.5t87.5 -240.5q0 -215 -167.5 -348.5t-444.5 -133.5q-278 0 -440.5 119t-164.5 331zM506 -475h-267l211 330h313z" />
    <glyph glyph-name="scommaaccent" unicode="&#x219;" horiz-adv-x="1108" 
d="M165 757q0 161 130.5 259t346.5 98q204 0 334.5 -100t135.5 -259h-310q-4 56 -49.5 91.5t-115.5 35.5q-66 0 -105.5 -26t-39.5 -69q0 -36 30.5 -59t113.5 -51l116 -38q154 -52 219.5 -120t65.5 -178q0 -165 -135.5 -266t-358.5 -101q-226 0 -363.5 101t-144.5 270h327
q5 -62 56.5 -99.5t134.5 -37.5q66 0 104.5 26t38.5 70q0 34 -29 55.5t-109 48.5l-98 33q-152 50 -223.5 127t-71.5 189zM381 -475h-267l211 330h313z" />
    <glyph glyph-name="Tcommaaccent" unicode="&#x21a;" horiz-adv-x="1284" 
d="M743 0h-368l244 1148h-416l63 295h1199l-63 -295h-416zM397 -475h-267l211 330h313z" />
    <glyph glyph-name="tcommaaccent" unicode="&#x21b;" horiz-adv-x="813" 
d="M524 -14q-169 0 -262.5 61t-93.5 179q0 58 11 114l99 468h-163l56 256h162l56 262h343l-55 -262h217l-54 -256h-217l-92 -429q-6 -25 -6 -56q0 -46 31 -67t98 -21q51 0 72 6l-53 -242q-50 -13 -149 -13zM294 -475h-267l211 330h313z" />
    <glyph glyph-name="Hcaron" unicode="&#x21e;" horiz-adv-x="1540" 
d="M1341 0h-375l125 584h-559l-124 -584h-375l307 1443h375l-122 -568h559l121 568h375zM879 1542l-192 327h247l103 -192h8l184 192h253l-332 -327h-271z" />
    <glyph glyph-name="hcaron" unicode="&#x21f;" horiz-adv-x="1257" 
d="M13 0l307 1443h343l-112 -520h7q59 88 149.5 137.5t204.5 49.5q150 0 242.5 -86t92.5 -221q0 -61 -15 -132l-142 -671h-342l131 617q9 44 9 76q0 66 -46.5 108t-121.5 42q-83 0 -146 -56t-82 -145l-136 -642h-343zM378 1542l-192 327h247l103 -192h8l184 192h253
l-332 -327h-271z" />
    <glyph glyph-name="Adotaccent" unicode="&#x226;" horiz-adv-x="1446" 
d="M890 1121l-276 -540h324l-40 540h-8zM977 0l-24 317h-471l-163 -317h-388l804 1443h449l166 -1443h-373zM1026 1605q-69 0 -116.5 47.5t-47.5 113.5q0 67 47.5 114.5t116.5 47.5t117 -47.5t48 -114.5q0 -66 -48 -113.5t-117 -47.5z" />
    <glyph glyph-name="adotaccent" unicode="&#x227;" horiz-adv-x="1143" 
d="M510 223q77 0 137 44.5t74 111.5l18 81l-198 -6q-79 -3 -126 -36.5t-47 -88.5q0 -48 39.5 -77t102.5 -29zM358 -16q-137 0 -229.5 84t-92.5 212q0 167 130 264.5t357 104.5l258 8l13 64q4 23 4 36q0 47 -41 75.5t-110 28.5q-67 0 -112 -28t-60 -78h-316
q31 165 169.5 262.5t342.5 97.5q207 0 335 -91t128 -237q0 -43 -8 -89l-149 -698h-333l28 129h-7q-44 -66 -125.5 -105.5t-181.5 -39.5zM740 1251q-69 0 -116.5 47.5t-47.5 113.5q0 67 47.5 114.5t116.5 47.5t117 -47.5t48 -114.5q0 -66 -48 -113.5t-117 -47.5z" />
    <glyph glyph-name="Ecedilla" unicode="&#x228;" horiz-adv-x="1191" 
d="M1265 1148h-621l-61 -288h584l-58 -270h-584l-63 -295h622l-62 -295h-389l-66 -91q73 -7 111.5 -45t38.5 -103q0 -99 -87 -163t-222 -64q-100 0 -147 18l32 150q50 -15 117 -15q115 0 115 52q0 25 -27 35t-94 10h-58l26 113l76 103h-415l307 1443h988z" />
    <glyph glyph-name="ecedilla" unicode="&#x229;" horiz-adv-x="1193" 
d="M436 667h417q3 9 3 31q0 74 -49 122.5t-132 48.5q-86 0 -151 -56t-88 -146zM1155 469h-751q-3 -17 -3 -33q0 -94 55 -153t149 -59q74 0 127 34.5t73 92.5h321q-39 -154 -162 -254t-301 -118l-51 -70q73 -7 111.5 -45t38.5 -103q0 -99 -87 -163t-222 -64q-100 0 -147 18
l32 150q50 -15 117 -15q115 0 115 52q0 25 -27 35t-94 10h-58l26 113l64 86q-184 30 -287.5 158t-103.5 328q0 183 74.5 330t211.5 231.5t313 84.5q217 0 350 -128t133 -340q0 -103 -17 -178z" />
    <glyph glyph-name="Odieresismacron" unicode="&#x22a;" horiz-adv-x="1570" 
d="M918 1170q-112 0 -206 -74.5t-148 -202.5t-54 -279q0 -155 77 -248t205 -93q112 0 206 74.5t148.5 202t54.5 279.5q0 156 -77 248.5t-206 92.5zM782 -25q-147 0 -269 46.5t-203.5 128.5t-126.5 196t-45 247q0 190 61 354t166.5 277.5t251 178.5t309.5 65
q150 0 272.5 -46.5t204.5 -129t126 -196t44 -246.5q0 -190 -62 -354t-168 -278t-251.5 -178.5t-309.5 -64.5zM779 1819q62 0 103.5 -40.5t41.5 -98.5t-41.5 -99t-103.5 -41t-104 41t-42 99t42 98.5t104 40.5zM1440 2098l-35 -165h-721l35 165h721zM1202 1819
q62 0 103.5 -40.5t41.5 -98.5t-41.5 -99t-103.5 -41t-104 41t-42 99t42 98.5t104 40.5z" />
    <glyph glyph-name="odieresismacron" unicode="&#x22b;" horiz-adv-x="1251" 
d="M613 242q113 0 189 108t76 267q0 104 -48 167t-127 63q-115 0 -190.5 -106.5t-75.5 -268.5q0 -104 48 -167t128 -63zM718 1115q229 0 370 -135.5t141 -355.5q0 -139 -47.5 -260t-130 -206.5t-200 -134.5t-252.5 -49q-229 0 -370 135t-141 356q0 139 47.5 260t130 206.5
t200 134.5t252.5 49zM568 1228q-60 0 -100 39t-40 95t40 95t100 39t100 -39t40 -95t-40 -95t-100 -39zM975 1228q-59 0 -99 39t-40 95t40 95t99 39q60 0 100 -39t40 -95t-40 -95t-100 -39zM1218 1793l-35 -165h-673l35 165h673z" />
    <glyph glyph-name="Otildemacron" unicode="&#x22c;" horiz-adv-x="1570" 
d="M918 1170q-112 0 -206 -74.5t-148 -202.5t-54 -279q0 -155 77 -248t205 -93q112 0 206 74.5t148.5 202t54.5 279.5q0 156 -77 248.5t-206 92.5zM782 -25q-147 0 -269 46.5t-203.5 128.5t-126.5 196t-45 247q0 190 61 354t166.5 277.5t251 178.5t309.5 65
q150 0 272.5 -46.5t204.5 -129t126 -196t44 -246.5q0 -190 -62 -354t-168 -278t-251.5 -178.5t-309.5 -64.5zM1440 2098l-35 -165h-721l35 165h721zM1115 1537q-47 0 -87.5 20t-63.5 44t-50 44t-50 20q-31 0 -56.5 -29t-37.5 -79h-181q26 128 102.5 204t178.5 76
q47 0 87.5 -20t63.5 -43.5t49.5 -43.5t49.5 -20q33 0 58 29t38 83h182q-27 -129 -104.5 -207t-178.5 -78z" />
    <glyph glyph-name="otildemacron" unicode="&#x22d;" horiz-adv-x="1251" 
d="M613 242q113 0 189 108t76 267q0 104 -48 167t-127 63q-115 0 -190.5 -106.5t-75.5 -268.5q0 -104 48 -167t128 -63zM718 1115q229 0 370 -135.5t141 -355.5q0 -139 -47.5 -260t-130 -206.5t-200 -134.5t-252.5 -49q-229 0 -370 135t-141 356q0 139 47.5 260t130 206.5
t200 134.5t252.5 49zM909 1221q-48 0 -88.5 20t-63 43.5t-50 43.5t-53.5 20q-31 0 -55 -29.5t-37 -81.5h-184q26 130 101.5 207t176.5 77q49 0 90 -20t63 -43.5t49.5 -43.5t53.5 -20q63 0 92 115h184q-28 -131 -104 -209.5t-175 -78.5zM1218 1793l-35 -165h-673l35 165h673z
" />
    <glyph glyph-name="Odotaccent" unicode="&#x22e;" horiz-adv-x="1570" 
d="M918 1170q-112 0 -206 -74.5t-148 -202.5t-54 -279q0 -155 77 -248t205 -93q112 0 206 74.5t148.5 202t54.5 279.5q0 156 -77 248.5t-206 92.5zM782 -25q-147 0 -269 46.5t-203.5 128.5t-126.5 196t-45 247q0 190 61 354t166.5 277.5t251 178.5t309.5 65
q150 0 272.5 -46.5t204.5 -129t126 -196t44 -246.5q0 -190 -62 -354t-168 -278t-251.5 -178.5t-309.5 -64.5zM1007 1605q-69 0 -116.5 47.5t-47.5 113.5q0 67 47.5 114.5t116.5 47.5t117 -47.5t48 -114.5q0 -66 -48 -113.5t-117 -47.5z" />
    <glyph glyph-name="odotaccent" unicode="&#x22f;" horiz-adv-x="1251" 
d="M613 242q113 0 189 108t76 267q0 104 -48 167t-127 63q-115 0 -190.5 -106.5t-75.5 -268.5q0 -104 48 -167t128 -63zM718 1115q229 0 370 -135.5t141 -355.5q0 -139 -47.5 -260t-130 -206.5t-200 -134.5t-252.5 -49q-229 0 -370 135t-141 356q0 139 47.5 260t130 206.5
t200 134.5t252.5 49zM781 1251q-69 0 -116.5 47.5t-47.5 113.5q0 67 47.5 114.5t116.5 47.5t117 -47.5t48 -114.5q0 -66 -48 -113.5t-117 -47.5z" />
    <glyph glyph-name="Odotaccentmacron" unicode="&#x230;" horiz-adv-x="1570" 
d="M918 1170q-112 0 -206 -74.5t-148 -202.5t-54 -279q0 -155 77 -248t205 -93q112 0 206 74.5t148.5 202t54.5 279.5q0 156 -77 248.5t-206 92.5zM782 -25q-147 0 -269 46.5t-203.5 128.5t-126.5 196t-45 247q0 190 61 354t166.5 277.5t251 178.5t309.5 65
q150 0 272.5 -46.5t204.5 -129t126 -196t44 -246.5q0 -190 -62 -354t-168 -278t-251.5 -178.5t-309.5 -64.5zM992 1546q-64 0 -106.5 41.5t-42.5 100.5q0 60 42.5 101.5t106.5 41.5q63 0 105.5 -41.5t42.5 -101.5q0 -59 -42.5 -100.5t-105.5 -41.5zM1440 2098l-35 -165h-721
l35 165h721z" />
    <glyph glyph-name="odotaccentmacron" unicode="&#x231;" horiz-adv-x="1251" 
d="M613 242q113 0 189 108t76 267q0 104 -48 167t-127 63q-115 0 -190.5 -106.5t-75.5 -268.5q0 -104 48 -167t128 -63zM718 1115q229 0 370 -135.5t141 -355.5q0 -139 -47.5 -260t-130 -206.5t-200 -134.5t-252.5 -49q-229 0 -370 135t-141 356q0 139 47.5 260t130 206.5
t200 134.5t252.5 49zM776 1216q-69 0 -116.5 47t-47.5 113q0 67 47.5 113.5t116.5 46.5t116 -46.5t47 -113.5q0 -66 -47 -113t-116 -47zM1218 1793l-35 -165h-673l35 165h673z" />
    <glyph glyph-name="Ymacron" unicode="&#x232;" horiz-adv-x="1389" 
d="M796 0h-367l105 498l-296 945h380l164 -602h8l409 602h400l-699 -951zM1347 1778l-35 -165h-721l35 165h721z" />
    <glyph glyph-name="ymacron" unicode="&#x233;" horiz-adv-x="1152" 
d="M81 -399q-132 0 -144 4l55 267q9 -3 104 -3q159 0 180 114q0 3 4 17.5t3 16.5l-125 1072h352l29 -818h7l377 818h367l-587 -1102q-111 -209 -256 -297.5t-366 -88.5zM1145 1443l-35 -165h-673l35 165h673z" />
    <glyph glyph-name="dotlessj" unicode="&#x237;" horiz-adv-x="526" 
d="M584 1089l-247 -1159q-33 -153 -148 -238t-285 -85q-84 0 -151 14l54 247q34 -6 66 -6q107 0 128 103l239 1124h344z" />
    <glyph glyph-name="quoteright" unicode="&#x2bc;" horiz-adv-x="623" 
d="M472 851h-257l189 592h326z" />
    <glyph glyph-name="quoteright" unicode="&#x2019;" horiz-adv-x="623" 
d="M472 851h-257l189 592h326z" />
    <glyph glyph-name="circumflex" unicode="&#x2c6;" horiz-adv-x="1059" 
d="M917 1572l189 -327h-245l-97 183h-7l-175 -183h-266l329 327h272z" />
    <glyph glyph-name="caron" unicode="&#x2c7;" horiz-adv-x="1059" 
d="M846 1245h-271l-190 327h244l97 -184h7l175 184h267z" />
    <glyph glyph-name="breve" unicode="&#x2d8;" horiz-adv-x="1060" 
d="M402 1571h207q-4 -24 -4 -36q0 -59 36.5 -92t101.5 -33q74 0 128.5 43.5t72.5 117.5h213q-35 -152 -153 -240.5t-292 -88.5q-138 0 -227 75.5t-89 193.5q0 27 6 60z" />
    <glyph glyph-name="dotaccent" unicode="&#x2d9;" horiz-adv-x="1059" 
d="M746 1251q-69 0 -116.5 47.5t-47.5 113.5q0 67 47.5 114.5t116.5 47.5t117 -47.5t48 -114.5q0 -66 -48 -113.5t-117 -47.5z" />
    <glyph glyph-name="ring" unicode="&#x2da;" horiz-adv-x="1059" 
d="M752 1215q-95 0 -163 64.5t-68 158.5q0 95 68.5 161t164.5 66q95 0 162.5 -64.5t67.5 -158.5t-68 -160.5t-164 -66.5zM752 1351q38 0 65 26t27 64t-26.5 64t-63.5 26q-38 0 -65 -26.5t-27 -65.5q0 -37 26.5 -62.5t63.5 -25.5z" />
    <glyph glyph-name="ogonek" unicode="&#x2db;" horiz-adv-x="1059" 
d="M616 -275l-37 -177q-48 -12 -111 -12q-124 0 -199.5 57t-75.5 150q0 87 67.5 163t185.5 123l190 -24q-196 -93 -196 -191q0 -44 35 -68t99 -24q32 0 42 3z" />
    <glyph glyph-name="tilde" unicode="&#x2dc;" horiz-adv-x="1059" 
d="M870 1248q-48 0 -88.5 20t-63 43.5t-50 43.5t-53.5 20q-31 0 -55 -29.5t-37 -81.5h-184q26 130 101.5 207t176.5 77q49 0 90 -20t63 -43.5t49.5 -43.5t53.5 -20q63 0 92 115h184q-28 -131 -104 -209.5t-175 -78.5z" />
    <glyph glyph-name="hungarumlaut" unicode="&#x2dd;" horiz-adv-x="1059" 
d="M683 1260l253 315h281l-285 -315h-249zM278 1260l253 315h281l-286 -315h-248z" />
    <glyph glyph-name="gravecmb" unicode="&#x300;" 
d="M306 1259h-273l-193 316h307z" />
    <glyph glyph-name="acutecmb" unicode="&#x301;" 
d="M375 1259h-277l293 316h312z" />
    <glyph glyph-name="circumflexcmb" unicode="&#x302;" 
d="M400 1572l189 -327h-245l-97 183h-7l-175 -183h-266l329 327h272z" />
    <glyph glyph-name="tildecmb" unicode="&#x303;" 
d="M351 1248q-48 0 -88.5 20t-63 43.5t-50 43.5t-53.5 20q-31 0 -55 -29.5t-37 -81.5h-184q26 130 101.5 207t176.5 77q49 0 90 -20t63 -43.5t49.5 -43.5t53.5 -20q63 0 92 115h184q-28 -131 -104 -209.5t-175 -78.5z" />
    <glyph glyph-name="macroncmb" unicode="&#x304;" 
d="M578 1442l-35 -165h-673l35 165h673z" />
    <glyph glyph-name="brevecmb" unicode="&#x306;" 
d="M-111 1571h207q-4 -24 -4 -36q0 -59 36.5 -92t101.5 -33q74 0 128.5 43.5t72.5 117.5h213q-35 -152 -153 -240.5t-292 -88.5q-138 0 -227 75.5t-89 193.5q0 27 6 60z" />
    <glyph glyph-name="dotaccentcmb" unicode="&#x307;" 
d="M216 1251q-69 0 -116.5 47.5t-47.5 113.5q0 67 47.5 114.5t116.5 47.5t117 -47.5t48 -114.5q0 -66 -48 -113.5t-117 -47.5z" />
    <glyph glyph-name="dieresiscmb" unicode="&#x308;" 
d="M20 1246q-60 0 -100 38.5t-40 94.5t40 95t100 39q59 0 99 -39t40 -95t-40 -94.5t-99 -38.5zM427 1246q-60 0 -100 38.5t-40 94.5t40 95t100 39t100 -39t40 -95t-40 -94.5t-100 -38.5z" />
    <glyph glyph-name="hookabovecmb" unicode="&#x309;" 
d="M66 1515l38 156q58 20 134 20q98 0 159.5 -52t61.5 -134q0 -93 -66 -172t-174 -116l-75 127q111 42 111 116q0 32 -25 51.5t-66 19.5q-59 0 -98 -16z" />
    <glyph glyph-name="ringcmb" unicode="&#x30a;" 
d="M234 1215q-95 0 -163 64.5t-68 158.5q0 95 68.5 161t164.5 66q95 0 162.5 -64.5t67.5 -158.5t-68 -160.5t-164 -66.5zM234 1351q38 0 65 26t27 64t-26.5 64t-63.5 26q-38 0 -65 -26.5t-27 -65.5q0 -37 26.5 -62.5t63.5 -25.5z" />
    <glyph glyph-name="hungarumlautcmb" unicode="&#x30b;" 
d="M332 1260l253 315h281l-285 -315h-249zM-73 1260l253 315h281l-286 -315h-248z" />
    <glyph glyph-name="caroncmb" unicode="&#x30c;" 
d="M332 1245h-271l-190 327h244l97 -184h7l175 184h267z" />
    <glyph glyph-name="dblgravecmb" unicode="&#x30f;" 
d="M158 1260h-244l-204 315h277zM557 1260h-244l-203 315h276z" />
    <glyph glyph-name="invertedbrevecmb" unicode="&#x311;" 
d="M557 1242h-207q4 24 4 36q0 59 -36.5 92t-101.5 33q-74 0 -128.5 -43.5t-72.5 -117.5h-213q35 152 153 240.5t292 88.5q138 0 227 -75.5t89 -193.5q0 -16 -6 -60z" />
    <glyph glyph-name="horncmb" unicode="&#x31b;" 
d="M-80 884l50 235q19 -12 49 -12q34 0 55.5 22.5t33.5 76.5l35 166h268l-48 -224q-30 -140 -112 -212.5t-201 -72.5q-93 0 -130 21z" />
    <glyph glyph-name="dotbelowcmb" unicode="&#x323;" 
d="M-149 -470q-69 0 -116.5 47.5t-47.5 113.5q0 67 47.5 114.5t116.5 47.5t117 -47.5t48 -114.5q0 -66 -48 -113.5t-117 -47.5z" />
    <glyph glyph-name="dieresisbelowcmb" unicode="&#x324;" 
d="M-352 -443q-60 0 -100 39t-40 95t40 95t100 39q59 0 99 -39t40 -95t-40 -95t-99 -39zM55 -443q-60 0 -100 39t-40 95t40 95t100 39q59 0 99 -39t40 -95t-40 -95t-99 -39z" />
    <glyph glyph-name="ringbelowcmb" unicode="&#x325;" 
d="M-138 -535q-95 0 -163 64.5t-68 158.5q0 95 68.5 161t164.5 66q95 0 162.5 -64.5t67.5 -158.5t-68 -160.5t-164 -66.5zM-138 -399q38 0 65 26t27 64t-26.5 64t-63.5 26q-38 0 -65 -26.5t-27 -65.5q0 -37 26.5 -62.5t63.5 -25.5z" />
    <glyph glyph-name="commabelowcmb" unicode="&#x326;" 
d="M-246 -475h-267l211 330h313z" />
    <glyph glyph-name="cedillacmb" unicode="&#x327;" 
d="M-285 -216l26 113l86 117h177l-2 -14l-66 -91q73 -7 111.5 -45t38.5 -103q0 -99 -87 -163t-222 -64q-100 0 -147 18l32 150q50 -15 117 -15q115 0 115 52q0 25 -27 35t-94 10h-58z" />
    <glyph glyph-name="ogonekcmb" unicode="&#x328;" 
d="M61 -275l-37 -177q-48 -12 -111 -12q-124 0 -199.5 57t-75.5 150q0 87 67.5 163t185.5 123l190 -24q-196 -93 -196 -191q0 -44 35 -68t99 -24q31 0 42 3z" />
    <glyph glyph-name="circumflexbelowcmb" unicode="&#x32d;" 
d="M15 -165l192 -327h-247l-103 192h-8l-184 -192h-253l331 327h272z" />
    <glyph glyph-name="brevebelowcmb" unicode="&#x32e;" 
d="M-491 -145h205q-4 -24 -4 -36q0 -58 35.5 -91t102.5 -33q77 0 130 43.5t71 116.5h215q-36 -145 -153.5 -236.5t-292.5 -91.5q-150 0 -233 74.5t-83 188.5q0 36 7 65z" />
    <glyph glyph-name="tildebelowcmb" unicode="&#x330;" 
d="M-11 -460q-48 0 -88.5 20t-63 43.5t-50 43.5t-53.5 20q-31 0 -55 -29.5t-37 -81.5h-184q26 130 101.5 207t176.5 77q49 0 90 -20t63 -43.5t49.5 -43.5t53.5 -20q63 0 92 115h184q-28 -131 -104 -209.5t-175 -78.5z" />
    <glyph glyph-name="macronbelowcmb" unicode="&#x331;" 
d="M230 -226l-35 -165h-721l35 165h721z" />
    <glyph glyph-name="macronbelowcmb" unicode="&#x332;" 
d="M230 -226l-35 -165h-721l35 165h721z" />
    <glyph glyph-name="greekquestionmark" unicode="&#x37e;" horiz-adv-x="595" 
d="M402 692q-77 0 -131.5 54t-54.5 131t54.5 131.5t131.5 54.5t131 -54.5t54 -131.5t-54 -131t-131 -54zM200 -331h-258l189 592h327z" />
    <glyph glyph-name="tonosgreek" unicode="&#x384;" horiz-adv-x="863" 
d="M428 1255l152 331h352l-228 -331h-276z" />
    <glyph glyph-name="dieresistonosgreek" unicode="&#x385;" horiz-adv-x="1497" 
d="M994 1248h-223l93 333h335zM1325 1236q-63 0 -105 41t-42 100q-1 59 41.5 100t105.5 41t105 -41t42 -100t-42 -100t-105 -41zM578 1236q-62 0 -104.5 41.5t-42.5 99.5q0 59 42 100t105 41t105 -41t43 -100q0 -58 -42.5 -99.5t-105.5 -41.5z" />
    <glyph glyph-name="Alphatonosgreek" unicode="&#x386;" horiz-adv-x="1446" 
d="M890 1121l-276 -540h324l-40 540h-8zM977 0l-24 317h-471l-163 -317h-388l804 1443h449l166 -1443h-373zM79 1112l152 331h351l-227 -331h-276z" />
    <glyph glyph-name="anoteleia" unicode="&#x387;" horiz-adv-x="595" 
d="M391 643q-77 0 -131.5 54.5t-54.5 131.5t54.5 131.5t131.5 54.5t131.5 -54.5t54.5 -131.5t-54.5 -131.5t-131.5 -54.5z" />
    <glyph glyph-name="Epsilontonosgreek" unicode="&#x388;" horiz-adv-x="1629" 
d="M153 1112l152 331h351l-227 -331h-276zM1522 295l-62 -295h-989l307 1443h988l-63 -295h-621l-61 -288h584l-58 -270h-584l-63 -295h622z" />
    <glyph glyph-name="Etatonosgreek" unicode="&#x389;" horiz-adv-x="1978" 
d="M153 1112l152 331h351l-227 -331h-276zM1779 0h-375l125 584h-559l-124 -584h-375l307 1443h375l-122 -568h559l121 568h375z" />
    <glyph glyph-name="Iotatonosgreek" unicode="&#x38a;" horiz-adv-x="1037" 
d="M153 1112l152 331h351l-227 -331h-276zM838 0h-367l307 1443h367z" />
    <glyph glyph-name="Omicrontonosgreek" unicode="&#x38c;" horiz-adv-x="1853" 
d="M153 1112l152 331h351l-227 -331h-276zM1201 1170q-112 0 -206 -74.5t-148 -202.5t-54 -279q0 -155 77 -248t205 -93q112 0 206 74.5t148.5 202t54.5 279.5q0 156 -77 248.5t-206 92.5zM1065 -25q-147 0 -269 46.5t-203.5 128.5t-126.5 196t-45 247q0 190 61 354
t166.5 277.5t251 178.5t309.5 65q150 0 272.5 -46.5t204.5 -129t126 -196t44 -246.5q0 -190 -62 -354t-168 -278t-251.5 -178.5t-309.5 -64.5z" />
    <glyph glyph-name="Upsilontonosgreek" unicode="&#x38e;" horiz-adv-x="1973" 
d="M254 1112l152 331h351l-227 -331h-276zM1380 0h-367l105 498l-296 945h380l164 -602h8l409 602h400l-699 -951z" />
    <glyph glyph-name="Omegatonosgreek" unicode="&#x38f;" horiz-adv-x="1928" 
d="M153 1112l152 331h351l-227 -331h-276zM1156 0l72 342q166 71 258.5 204.5t92.5 301.5q0 145 -89.5 234t-232.5 89q-186 0 -302 -131.5t-116 -344.5q0 -119 44.5 -203.5t137.5 -149.5l-72 -342h-605l59 280h275l1 7q-100 75 -153 182t-53 230q0 179 63.5 325.5t174.5 243
t260.5 149t322.5 52.5q290 0 466 -156.5t176 -412.5q0 -191 -101.5 -356.5t-280.5 -255.5l-2 -8h291l-60 -280h-627z" />
    <glyph glyph-name="iotadieresistonosgreek" unicode="&#x390;" horiz-adv-x="687" 
d="M579 1088l-153 -709q-6 -34 -6 -56q0 -46 31 -67t98 -21q53 0 72 6l-53 -242q-54 -13 -148 -13q-170 0 -263.5 61.5t-93.5 178.5q0 59 12 114l160 748h344zM547 1230h-223l93 333h335zM878 1218q-63 0 -105 41t-42 100q-1 59 41.5 100t105.5 41t105 -41t42 -100t-42 -100
t-105 -41zM131 1218q-62 0 -104.5 41.5t-42.5 99.5q0 59 42 100t105 41t105 -41t43 -100q0 -58 -42.5 -99.5t-105.5 -41.5z" />
    <glyph glyph-name="Alphagreek" unicode="&#x391;" horiz-adv-x="1446" 
d="M890 1121l-276 -540h324l-40 540h-8zM977 0l-24 317h-471l-163 -317h-388l804 1443h449l166 -1443h-373z" />
    <glyph glyph-name="Betagreek" unicode="&#x392;" horiz-adv-x="1366" 
d="M778 0h-745l307 1443h631q200 0 311 -86.5t111 -223.5q0 -141 -93 -242.5t-241 -131.5l-1 -7q118 -25 190.5 -104t72.5 -188q0 -201 -152.5 -330.5t-390.5 -129.5zM648 1205l-71 -334h208q107 0 174 55t67 140q0 65 -47.5 102t-136.5 37h-194zM448 260h246
q118 0 188.5 59.5t70.5 157.5q0 75 -52.5 116t-152.5 41h-221z" />
    <glyph glyph-name="Gammagreek" unicode="&#x393;" horiz-adv-x="1129" 
d="M414 0h-381l307 1443h961l-63 -295h-580z" />
    <glyph glyph-name="Deltagreek" unicode="&#x394;" horiz-adv-x="1466" 
d="M1315 0h-1325l41 196l714 1247h449l162 -1249zM896 1145l-447 -843l-1 -7h536l1 7l-81 843h-8z" />
    <glyph glyph-name="Deltagreek" unicode="&#x2206;" horiz-adv-x="1466" 
d="M1315 0h-1325l41 196l714 1247h449l162 -1249zM896 1145l-447 -843l-1 -7h536l1 7l-81 843h-8z" />
    <glyph glyph-name="Epsilongreek" unicode="&#x395;" horiz-adv-x="1191" 
d="M1084 295l-62 -295h-989l307 1443h988l-63 -295h-621l-61 -288h584l-58 -270h-584l-63 -295h622z" />
    <glyph glyph-name="Zetagreek" unicode="&#x396;" horiz-adv-x="1277" 
d="M-5 0l50 233l838 908v7h-634l64 295h1087l-50 -233l-838 -908v-7h666l-62 -295h-1121z" />
    <glyph glyph-name="Etagreek" unicode="&#x397;" horiz-adv-x="1540" 
d="M1341 0h-375l125 584h-559l-124 -584h-375l307 1443h375l-122 -568h559l121 568h375z" />
    <glyph glyph-name="Thetagreek" unicode="&#x398;" horiz-adv-x="1636" 
d="M1085 575h-456l58 281h457zM800 -25q-303 0 -482 170.5t-179 459.5q0 249 105.5 445.5t296.5 306.5t436 110q304 0 482.5 -170t178.5 -459q0 -250 -105.5 -446.5t-296.5 -306.5t-436 -110zM1274 828q0 163 -85 256.5t-236 93.5q-127 0 -230.5 -75t-161.5 -204.5
t-58 -285.5q0 -162 84.5 -254.5t235.5 -92.5q128 0 231.5 74.5t161.5 203.5t58 284z" />
    <glyph glyph-name="Iotagreek" unicode="&#x399;" horiz-adv-x="598" 
d="M400 0h-367l307 1443h367z" />
    <glyph glyph-name="Kappagreek" unicode="&#x39a;" horiz-adv-x="1410" 
d="M400 0h-367l307 1443h367l-131 -616h7l611 616h423l-660 -669l354 -774h-404l-254 566l-169 -168z" />
    <glyph glyph-name="Lambdagreek" unicode="&#x39b;" horiz-adv-x="1425" 
d="M880 1121l-550 -1121h-389l784 1443h449l146 -1443h-372l-60 1121h-8z" />
    <glyph glyph-name="Mugreek" unicode="&#x39c;" horiz-adv-x="1816" 
d="M359 0h-326l307 1443h422l148 -978h7l550 978h458l-307 -1443h-327l205 959h-11l-548 -957h-223l-144 957h-7z" />
    <glyph glyph-name="Nugreek" unicode="&#x39d;" horiz-adv-x="1491" 
d="M385 0h-352l307 1443h288l426 -882h7l186 882h353l-307 -1443h-288l-426 882h-7z" />
    <glyph glyph-name="Xigreek" unicode="&#x39e;" horiz-adv-x="1275" 
d="M310 1443h1103l-65 -304h-1103zM1144 584h-929l59 279h929zM68 304h1103l-65 -304h-1103z" />
    <glyph glyph-name="Omicrongreek" unicode="&#x39f;" horiz-adv-x="1570" 
d="M918 1170q-112 0 -206 -74.5t-148 -202.5t-54 -279q0 -155 77 -248t205 -93q112 0 206 74.5t148.5 202t54.5 279.5q0 156 -77 248.5t-206 92.5zM782 -25q-147 0 -269 46.5t-203.5 128.5t-126.5 196t-45 247q0 190 61 354t166.5 277.5t251 178.5t309.5 65
q150 0 272.5 -46.5t204.5 -129t126 -196t44 -246.5q0 -190 -62 -354t-168 -278t-251.5 -178.5t-309.5 -64.5z" />
    <glyph glyph-name="Pigreek" unicode="&#x3a0;" horiz-adv-x="1520" 
d="M1321 0h-374l244 1148h-539l-245 -1148h-374l307 1443h1288z" />
    <glyph glyph-name="Rhogreek" unicode="&#x3a1;" horiz-adv-x="1326" 
d="M340 1443h537q234 0 369 -118.5t135 -316.5q0 -270 -177 -427.5t-474 -157.5h-239l-90 -423h-367zM647 1161l-98 -461h181q127 0 204.5 76.5t77.5 198.5q0 92 -54.5 139t-156.5 47h-154z" />
    <glyph glyph-name="Sigmagreek" unicode="&#x3a3;" horiz-adv-x="1293" 
d="M514 301l-1 -7h682l-63 -294h-1137l45 213l448 517l-216 464l54 249h1090l-63 -295h-629l-1 -7l165 -394l-5 -18z" />
    <glyph glyph-name="Taugreek" unicode="&#x3a4;" horiz-adv-x="1284" 
d="M743 0h-368l244 1148h-416l63 295h1199l-63 -295h-416z" />
    <glyph glyph-name="Upsilongreek" unicode="&#x3a5;" horiz-adv-x="1389" 
d="M796 0h-367l105 498l-296 945h380l164 -602h8l409 602h400l-699 -951z" />
    <glyph glyph-name="Phigreek" unicode="&#x3a6;" horiz-adv-x="1912" 
d="M679 -131l33 153q-276 35 -426.5 196.5t-150.5 403.5q0 158 59 295.5t168.5 241.5t275 169t368.5 76l31 151h332l-34 -159q272 -33 425 -193.5t153 -409.5q0 -157 -59.5 -294t-169.5 -240.5t-275.5 -168t-366.5 -75.5l-32 -146h-331zM772 303l174 821
q-208 -26 -331.5 -155.5t-123.5 -343.5q0 -135 74 -218.5t207 -103.5zM1101 294q213 27 334 158.5t121 340.5q0 136 -74.5 219.5t-206.5 102.5z" />
    <glyph glyph-name="Chigreek" unicode="&#x3a7;" horiz-adv-x="1435" 
d="M-54 0l620 729l-311 714h395l191 -453h8l354 453h429l-623 -726l312 -717h-395l-194 458h-8l-358 -458h-420z" />
    <glyph glyph-name="Psigreek" unicode="&#x3a8;" horiz-adv-x="1785" 
d="M981 0h-343l62 292q-245 19 -374 130.5t-129 306.5q0 63 13 125l125 589h344l-116 -552q-18 -82 -18 -122q0 -94 52 -139t164 -50l184 863h343l-186 -874q150 13 222 76t101 200l128 598h345l-135 -636q-55 -258 -225.5 -383.5t-496.5 -141.5z" />
    <glyph glyph-name="Omegagreek" unicode="&#x3a9;" horiz-adv-x="1608" 
d="M836 0l72 342q166 71 258.5 204.5t92.5 301.5q0 145 -89.5 234t-232.5 89q-186 0 -302 -131.5t-116 -344.5q0 -119 44.5 -203.5t137.5 -149.5l-72 -342h-605l59 280h275l1 7q-100 75 -153 182t-53 230q0 179 63.5 325.5t174.5 243t260.5 149t322.5 52.5q290 0 466 -156.5
t176 -412.5q0 -191 -101.5 -356.5t-280.5 -255.5l-2 -8h291l-60 -280h-627z" />
    <glyph glyph-name="Omegagreek" unicode="&#x2126;" horiz-adv-x="1608" 
d="M836 0l72 342q166 71 258.5 204.5t92.5 301.5q0 145 -89.5 234t-232.5 89q-186 0 -302 -131.5t-116 -344.5q0 -119 44.5 -203.5t137.5 -149.5l-72 -342h-605l59 280h275l1 7q-100 75 -153 182t-53 230q0 179 63.5 325.5t174.5 243t260.5 149t322.5 52.5q290 0 466 -156.5
t176 -412.5q0 -191 -101.5 -356.5t-280.5 -255.5l-2 -8h291l-60 -280h-627z" />
    <glyph glyph-name="Iotadieresisgreek" unicode="&#x3aa;" horiz-adv-x="598" 
d="M400 0h-367l307 1443h367zM375 1573q-60 0 -100 38.5t-40 94.5t40 95t100 39q59 0 99 -39t40 -95t-40 -94.5t-99 -38.5zM782 1573q-60 0 -100 38.5t-40 94.5t40 95t100 39t100 -39t40 -95t-40 -94.5t-100 -38.5z" />
    <glyph glyph-name="Upsilondieresisgreek" unicode="&#x3ab;" horiz-adv-x="1389" 
d="M796 0h-367l105 498l-296 945h380l164 -602h8l409 602h400l-699 -951zM766 1573q-60 0 -100 38.5t-40 94.5t40 95t100 39q59 0 99 -39t40 -95t-40 -94.5t-99 -38.5zM1173 1573q-60 0 -100 38.5t-40 94.5t40 95t100 39t100 -39t40 -95t-40 -94.5t-100 -38.5z" />
    <glyph glyph-name="alphatonosgreek" unicode="&#x3ac;" horiz-adv-x="1351" 
d="M430 -16q-167 0 -266.5 113t-99.5 311q0 150 41 280t112.5 221.5t171.5 143.5t214 52q122 0 206 -57.5t117 -146.5h8l39 188h335l-154 -723q-9 -42 -9 -64q0 -32 17.5 -46.5t56.5 -14.5q32 0 57 9l-51 -238q-62 -20 -154 -20q-149 0 -210.5 43.5t-61.5 146.5v9h-5
q-64 -99 -156.5 -153t-207.5 -54zM590 249q107 0 183.5 109t76.5 263q0 99 -49 155t-126 56q-104 0 -180 -104.5t-76 -264.5q0 -100 49.5 -157t121.5 -57zM614 1255l152 331h352l-228 -331h-276z" />
    <glyph glyph-name="epsilontonosgreek" unicode="&#x3ad;" horiz-adv-x="1210" 
d="M513 -24q-475 0 -475 298q0 100 65 174.5t176 104.5l3 15q-68 30 -104.5 80.5t-36.5 113.5q0 163 146.5 257t396.5 94q497 0 516 -389h-340q-6 69 -50 101.5t-146 32.5q-81 0 -129 -26.5t-48 -79.5q0 -44 35.5 -65t113.5 -21h147l-48 -234h-167q-168 0 -168 -104
q0 -47 42.5 -72t120.5 -25q193 0 257 151h354q-44 -182 -225.5 -294t-435.5 -112zM643 1255l152 331h352l-228 -331h-276z" />
    <glyph glyph-name="etatonosgreek" unicode="&#x3ae;" horiz-adv-x="1356" 
d="M768 -352l207 969q8 40 8 72q0 68 -46 110t-118 42q-83 0 -145 -55t-81 -148l-136 -638h-342l154 726q8 38 8 58q0 69 -75 69q-37 0 -60 -9l51 239q59 19 173 19q129 0 192.5 -49.5t72.5 -147.5q0 -1 0.5 -2.5t0.5 -5v-5.5l1 -2h7q51 106 148 164t221 58q148 0 240 -84.5
t92 -226.5q0 -68 -13 -133l-218 -1020h-342zM763 1255l152 331h352l-228 -331h-276z" />
    <glyph glyph-name="iotatonosgreek" unicode="&#x3af;" horiz-adv-x="687" 
d="M579 1088l-153 -709q-6 -34 -6 -56q0 -46 31 -67t98 -21q53 0 72 6l-53 -242q-54 -13 -148 -13q-170 0 -263.5 61.5t-93.5 178.5q0 59 12 114l160 748h344zM318 1254l152 331h352l-228 -331h-276z" />
    <glyph glyph-name="upsilondieresistonosgreek" unicode="&#x3b0;" horiz-adv-x="1165" 
d="M843 1089h322q13 -68 13 -167q0 -444 -180.5 -696t-499.5 -252q-200 0 -312.5 96t-112.5 264q0 71 28 202l117 553h321l-121 -569q-18 -83 -18 -127q2 -138 150 -138q138 0 219 185t81 501q0 79 -7 148zM823 1230h-223l93 333h335zM1154 1218q-63 0 -105 41t-42 100
q-1 59 41.5 100t105.5 41t105 -41t42 -100t-42 -100t-105 -41zM407 1218q-62 0 -104.5 41.5t-42.5 99.5q0 59 42 100t105 41t105 -41t43 -100q0 -58 -42.5 -99.5t-105.5 -41.5z" />
    <glyph glyph-name="alphagreek" unicode="&#x3b1;" horiz-adv-x="1351" 
d="M430 -16q-167 0 -266.5 113t-99.5 311q0 150 41 280t112.5 221.5t171.5 143.5t214 52q122 0 206 -57.5t117 -146.5h8l39 188h335l-154 -723q-9 -42 -9 -64q0 -32 17.5 -46.5t56.5 -14.5q32 0 57 9l-51 -238q-62 -20 -154 -20q-149 0 -210.5 43.5t-61.5 146.5v9h-5
q-64 -99 -156.5 -153t-207.5 -54zM590 249q107 0 183.5 109t76.5 263q0 99 -49 155t-126 56q-104 0 -180 -104.5t-76 -264.5q0 -100 49.5 -157t121.5 -57z" />
    <glyph glyph-name="betagreek" unicode="&#x3b2;" horiz-adv-x="1301" 
d="M203 935q61 285 198 409.5t390 124.5q208 0 333 -99.5t125 -267.5q0 -122 -65 -206t-182 -117l-2 -6q124 -30 189 -110.5t65 -202.5q0 -211 -139 -343.5t-368 -132.5q-121 0 -211.5 56.5t-136.5 161.5h-8l-119 -554h-342zM587 641l52 243h75q99 0 156.5 46t57.5 136
q0 66 -43 103t-115 37q-166 0 -215 -221l-95 -440q-11 -50 -11 -88q0 -91 60 -146.5t162 -55.5q100 0 166.5 59.5t66.5 150.5q0 86 -61.5 131t-172.5 45h-83z" />
    <glyph glyph-name="gammagreek" unicode="&#x3b3;" horiz-adv-x="1188" 
d="M1264 1090q-6 -91 -26 -176q-47 -228 -182 -444.5t-414 -511.5l-65 -307h-336l58 274l-141 1165h346l60 -818h4q149 175 227.5 322t114.5 318q21 94 27 178h327z" />
    <glyph glyph-name="deltagreek" unicode="&#x3b4;" horiz-adv-x="1220" 
d="M564 -26q-229 0 -366 117.5t-137 317.5q0 213 122 349.5t334 173.5l1 3l1 4q-145 84 -145 221q0 141 118.5 224.5t321.5 83.5q127 0 244 -28.5t187 -75.5l-61 -231q-173 91 -322 91q-124 0 -124 -86q0 -27 21 -50.5t77 -59.5q136 -91 207.5 -158t108.5 -148t37 -189
q0 -116 -45.5 -218.5t-125.5 -178t-198 -119t-256 -43.5zM577 213q110 0 179 92t69 245q0 94 -43.5 147.5t-118.5 53.5q-109 0 -180 -91.5t-71 -244.5q0 -95 44.5 -148.5t120.5 -53.5z" />
    <glyph glyph-name="epsilongreek" unicode="&#x3b5;" horiz-adv-x="1210" 
d="M513 -24q-475 0 -475 298q0 100 65 174.5t176 104.5l3 15q-68 30 -104.5 80.5t-36.5 113.5q0 163 146.5 257t396.5 94q497 0 516 -389h-340q-6 69 -50 101.5t-146 32.5q-81 0 -129 -26.5t-48 -79.5q0 -44 35.5 -65t113.5 -21h147l-48 -234h-167q-168 0 -168 -104
q0 -47 42.5 -72t120.5 -25q193 0 257 151h354q-44 -182 -225.5 -294t-435.5 -112z" />
    <glyph glyph-name="zetagreek" unicode="&#x3b6;" horiz-adv-x="981" 
d="M714 -402l-230 87q68 75 89.5 110t21.5 84q0 45 -28.5 73t-117.5 73q-218 111 -303 210.5t-85 246.5q0 198 136 366t418 325l1 7h-370l58 265h823l14 -209q-730 -377 -730 -681q0 -88 43.5 -136.5t178.5 -113.5q174 -87 234 -153.5t60 -172.5q0 -91 -52 -181.5
t-161 -199.5z" />
    <glyph glyph-name="etagreek" unicode="&#x3b7;" horiz-adv-x="1356" 
d="M768 -352l207 969q8 40 8 72q0 68 -46 110t-118 42q-83 0 -145 -55t-81 -148l-136 -638h-342l154 726q8 38 8 58q0 69 -75 69q-37 0 -60 -9l51 239q59 19 173 19q129 0 192.5 -49.5t72.5 -147.5q0 -1 0.5 -2.5t0.5 -5v-5.5l1 -2h7q51 106 148 164t221 58q148 0 240 -84.5
t92 -226.5q0 -68 -13 -133l-218 -1020h-342z" />
    <glyph glyph-name="thetagreek" unicode="&#x3b8;" horiz-adv-x="1273" 
d="M586 -26q-241 0 -365.5 132.5t-124.5 388.5q0 120 22 244q65 360 237 544.5t441 184.5q239 0 363.5 -131.5t124.5 -385.5q0 -103 -24 -251q-124 -726 -674 -726zM598 213q111 0 183 95.5t112 300.5h-449q-16 -96 -16 -160q0 -113 42.5 -174.5t127.5 -61.5zM487 846h447
q13 78 13 139q0 120 -43.5 183t-125.5 63q-214 0 -291 -385z" />
    <glyph glyph-name="iotagreek" unicode="&#x3b9;" horiz-adv-x="687" 
d="M579 1088l-153 -709q-6 -34 -6 -56q0 -46 31 -67t98 -21q53 0 72 6l-53 -242q-54 -13 -148 -13q-170 0 -263.5 61.5t-93.5 178.5q0 59 12 114l160 748h344z" />
    <glyph glyph-name="kappagreek" unicode="&#x3ba;" horiz-adv-x="1215" 
d="M1136 1102q99 0 148 -19l-51 -239q-32 9 -64 9q-37 0 -69 -19t-80 -68l-169 -168l256 -598h-328l-176 425l-216 -197l-46 -228h-337l232 1090h337l-98 -459h6l314 305q102 99 169.5 132.5t171.5 33.5z" />
    <glyph glyph-name="lambdagreek" unicode="&#x3bb;" horiz-adv-x="1171" 
d="M1098 241q32 0 57 9l-51 -238q-55 -20 -164 -20q-131 0 -190 54t-76 185l-44 339h-6l-333 -570h-357l648 1012l-5 34q-17 99 -57 135t-120 36q-43 0 -70 -9l52 239q58 20 138 20q90 0 148 -18t100.5 -66.5t67.5 -126.5t43 -205l96 -687q10 -71 36.5 -97t86.5 -26z" />
    <glyph glyph-name="nugreek" unicode="&#x3bd;" horiz-adv-x="1188" 
d="M1264 1090q-6 -86 -26 -176q-48 -232 -177 -437t-381 -477h-391l-131 1090h346l60 -818h6q142 167 222.5 314t117.5 327q21 96 27 177h327z" />
    <glyph glyph-name="xigreek" unicode="&#x3be;" horiz-adv-x="1014" 
d="M725 -402l-231 87q61 73 82.5 110.5t21.5 76.5q0 49 -27.5 75t-118.5 71q-226 110 -309.5 193t-83.5 200t80 190t227 97l1 2q-72 32 -109 91t-37 131q0 194 259 256v2h-213l56 263h781l16 -245l-188 -17q-186 -17 -270 -57.5t-84 -115.5q0 -127 239 -127h165l-54 -250
h-249q-123 0 -188.5 -35.5t-65.5 -103.5q0 -53 44 -93.5t173 -104.5q175 -87 231.5 -148t56.5 -173q0 -86 -51 -183.5t-154 -191.5z" />
    <glyph glyph-name="omicrongreek" unicode="&#x3bf;" horiz-adv-x="1251" 
d="M613 242q113 0 189 108t76 267q0 104 -48 167t-127 63q-115 0 -190.5 -106.5t-75.5 -268.5q0 -104 48 -167t128 -63zM718 1115q229 0 370 -135.5t141 -355.5q0 -139 -47.5 -260t-130 -206.5t-200 -134.5t-252.5 -49q-229 0 -370 135t-141 356q0 139 47.5 260t130 206.5
t200 134.5t252.5 49z" />
    <glyph glyph-name="pigreek" unicode="&#x3c0;" horiz-adv-x="1442" 
d="M825 309l110 516h-278l-176 -825h-327l175 825h-207l57 264h1368l-56 -264h-228l-98 -459q-7 -33 -7 -53q0 -73 97 -73q32 0 57 9l-51 -239q-66 -20 -152 -20q-143 0 -219.5 59.5t-76.5 168.5q0 34 12 91z" />
    <glyph glyph-name="rhogreek" unicode="&#x3c1;" horiz-adv-x="1235" 
d="M618 255q113 0 187 105t74 279q0 103 -46.5 158.5t-129.5 55.5q-117 0 -190 -110t-73 -282q0 -101 46 -153.5t132 -52.5zM731 1115q244 0 373 -118t129 -337q0 -185 -72.5 -340.5t-197.5 -245.5t-275 -90q-118 0 -202 61.5t-110 156.5h-6l-118 -554h-343l183 863
q67 315 221.5 459.5t417.5 144.5z" />
    <glyph glyph-name="sigmafinalgreek" unicode="&#x3c2;" horiz-adv-x="1109" 
d="M944 -25q0 -86 -52.5 -177t-159.5 -200l-230 87q66 72 88.5 108.5t22.5 81.5q0 48 -27.5 76t-119.5 74q-212 105 -299.5 221t-87.5 282q0 169 74.5 302t214 209t322.5 76q223 0 355 -127.5t121 -322.5h-319q2 86 -44 138t-129 52q-107 0 -171.5 -80.5t-64.5 -200.5
q0 -88 48 -150.5t164 -118.5q178 -88 236 -153t58 -177z" />
    <glyph glyph-name="sigmagreek" unicode="&#x3c3;" horiz-adv-x="1307" 
d="M562 -26q-229 0 -362 129t-133 348q0 137 47.5 255.5t132 202.5t207 132t266.5 48h710l-58 -271h-261l-2 -6q69 -80 69 -212q0 -177 -78 -320t-219.5 -224.5t-318.5 -81.5zM576 231q112 0 184.5 105.5t72.5 261.5q0 216 -164 216q-108 0 -183 -105t-75 -261
q0 -217 165 -217z" />
    <glyph glyph-name="taugreek" unicode="&#x3c4;" horiz-adv-x="1111" 
d="M872 241l-53 -242q-47 -13 -151 -13q-173 0 -267.5 61t-94.5 179q0 59 12 114l102 486h-316l56 263h1044l-55 -263h-385l-95 -447q-6 -34 -6 -56q0 -47 32 -67.5t105 -20.5q51 0 72 6z" />
    <glyph glyph-name="upsilongreek" unicode="&#x3c5;" horiz-adv-x="1165" 
d="M843 1089h322q13 -68 13 -167q0 -444 -180.5 -696t-499.5 -252q-200 0 -312.5 96t-112.5 264q0 71 28 202l117 553h321l-121 -569q-18 -83 -18 -127q2 -138 150 -138q138 0 219 185t81 501q0 79 -7 148z" />
    <glyph glyph-name="phigreek" unicode="&#x3c6;" horiz-adv-x="1594" 
d="M486 -352l70 329q-223 16 -358 144.5t-135 325.5q0 195 93 347t260 236.5t381 85.5l45 210h310l-46 -215q220 -16 355.5 -146t135.5 -327q0 -194 -93 -346t-260 -236t-380 -84l-68 -324h-310zM617 231l134 627q-164 -4 -263.5 -107t-99.5 -275q0 -108 60 -172t169 -73z
M910 229q166 6 262.5 108t96.5 274q0 108 -59 172.5t-166 73.5z" />
    <glyph glyph-name="chigreek" unicode="&#x3c7;" horiz-adv-x="1168" 
d="M853 -341q-106 0 -168 43.5t-95 137.5l-82 244h-10l-290 -417h-335l539 710l-127 351q-26 71 -51.5 98t-69.5 27q-36 0 -61 -9l51 240q72 18 158 18q105 0 164.5 -44.5t93.5 -146.5l89 -276h7l325 455h338l-566 -743l106 -307q28 -80 58 -105.5t86 -25.5q33 0 57 8
l-51 -239q-63 -19 -166 -19z" />
    <glyph glyph-name="psigreek" unicode="&#x3c8;" horiz-adv-x="1584" 
d="M787 -352h-324l70 328q-230 3 -345 97t-115 269q0 60 19 152l126 595h321l-117 -548q-22 -102 -22 -136q0 -76 42.5 -111t149.5 -37l228 1069h324l-227 -1066q92 0 161.5 51t110.5 143.5t61 213t20 270.5q0 55 -8 151h322q14 -76 14 -167q0 -163 -23.5 -300.5
t-78.5 -258.5t-139 -205.5t-211.5 -133t-289.5 -48.5z" />
    <glyph glyph-name="omegagreek" unicode="&#x3c9;" horiz-adv-x="1633" 
d="M1611 641q0 -191 -67.5 -343.5t-187 -238t-268.5 -85.5q-136 0 -214.5 60t-92.5 179h-6q-55 -123 -137.5 -181t-205.5 -58q-176 0 -271.5 106t-95.5 300q0 201 81 391.5t221 317.5h339q-149 -149 -230 -323.5t-81 -349.5q0 -73 31.5 -116.5t85.5 -43.5q122 0 156 158
l77 364h305l-67 -315q-14 -69 -14 -100q0 -50 27.5 -78.5t75.5 -28.5q95 0 151 104.5t56 282.5q0 229 -86 446h333q85 -208 85 -448z" />
    <glyph glyph-name="iotadieresisgreek" unicode="&#x3ca;" horiz-adv-x="687" 
d="M579 1088l-153 -709q-6 -34 -6 -56q0 -46 31 -67t98 -21q53 0 72 6l-53 -242q-54 -13 -148 -13q-170 0 -263.5 61.5t-93.5 178.5q0 59 12 114l160 748h344zM286 1245q-60 0 -100 38.5t-40 94.5t40 95t100 39q59 0 99 -39t40 -95t-40 -94.5t-99 -38.5zM693 1245
q-60 0 -100 38.5t-40 94.5t40 95t100 39t100 -39t40 -95t-40 -94.5t-100 -38.5z" />
    <glyph glyph-name="upsilondieresisgreek" unicode="&#x3cb;" horiz-adv-x="1165" 
d="M843 1089h322q13 -68 13 -167q0 -444 -180.5 -696t-499.5 -252q-200 0 -312.5 96t-112.5 264q0 71 28 202l117 553h321l-121 -569q-18 -83 -18 -127q2 -138 150 -138q138 0 219 185t81 501q0 79 -7 148zM561 1246q-60 0 -100 38.5t-40 94.5t40 95t100 39q59 0 99 -39
t40 -95t-40 -94.5t-99 -38.5zM968 1246q-60 0 -100 38.5t-40 94.5t40 95t100 39t100 -39t40 -95t-40 -94.5t-100 -38.5z" />
    <glyph glyph-name="omicrontonosgreek" unicode="&#x3cc;" horiz-adv-x="1251" 
d="M613 242q113 0 189 108t76 267q0 104 -48 167t-127 63q-115 0 -190.5 -106.5t-75.5 -268.5q0 -104 48 -167t128 -63zM718 1115q229 0 370 -135.5t141 -355.5q0 -139 -47.5 -260t-130 -206.5t-200 -134.5t-252.5 -49q-229 0 -370 135t-141 356q0 139 47.5 260t130 206.5
t200 134.5t252.5 49zM618 1255l152 331h352l-228 -331h-276z" />
    <glyph glyph-name="upsilontonosgreek" unicode="&#x3cd;" horiz-adv-x="1165" 
d="M843 1089h322q13 -68 13 -167q0 -444 -180.5 -696t-499.5 -252q-200 0 -312.5 96t-112.5 264q0 71 28 202l117 553h321l-121 -569q-18 -83 -18 -127q2 -138 150 -138q138 0 219 185t81 501q0 79 -7 148zM594 1255l152 331h352l-228 -331h-276z" />
    <glyph glyph-name="omegatonosgreek" unicode="&#x3ce;" horiz-adv-x="1633" 
d="M1611 641q0 -191 -67.5 -343.5t-187 -238t-268.5 -85.5q-136 0 -214.5 60t-92.5 179h-6q-55 -123 -137.5 -181t-205.5 -58q-176 0 -271.5 106t-95.5 300q0 201 81 391.5t221 317.5h339q-149 -149 -230 -323.5t-81 -349.5q0 -73 31.5 -116.5t85.5 -43.5q122 0 156 158
l77 364h305l-67 -315q-14 -69 -14 -100q0 -50 27.5 -78.5t75.5 -28.5q95 0 151 104.5t56 282.5q0 229 -86 446h333q85 -208 85 -448zM869 1255l152 331h352l-228 -331h-276z" />
    <glyph glyph-name="uni0400" unicode="&#x400;" horiz-adv-x="1201" 
d="M1089 295l-62 -295h-989l307 1443h988l-63 -295h-621l-61 -288h584l-58 -270h-584l-63 -295h622zM714 1556l-205 314h297l163 -314h-255z" />
    <glyph glyph-name="Iocyrillic" unicode="&#x401;" horiz-adv-x="1201" 
d="M1089 295l-62 -295h-989l307 1443h988l-63 -295h-621l-61 -288h584l-58 -270h-584l-63 -295h622zM670 1573q-60 0 -100 38.5t-40 94.5t40 95t100 39q59 0 99 -39t40 -95t-40 -94.5t-99 -38.5zM1077 1573q-60 0 -100 38.5t-40 94.5t40 95t100 39t100 -39t40 -95t-40 -94.5
t-100 -38.5z" />
    <glyph glyph-name="Djecyrillic" unicode="&#x402;" horiz-adv-x="1766" 
d="M380 0l244 1148h-400l63 295h1168l-63 -295h-401l-74 -350h17q129 108 312 108q217 0 339 -120t122 -309q0 -122 -44.5 -227t-125.5 -181t-201 -119.5t-265 -43.5q-131 0 -182 17l59 277q28 -11 123 -11q111 0 183 63.5t72 163.5q0 85 -55.5 134t-151.5 49
q-81 0 -155.5 -39t-117.5 -98l-98 -462h-368z" />
    <glyph glyph-name="Gjecyrillic" unicode="&#x403;" horiz-adv-x="1156" 
d="M404 0h-366l307 1443h971l-63 -295h-604zM978 1556h-284l295 314h326z" />
    <glyph glyph-name="Ecyrillic" unicode="&#x404;" horiz-adv-x="1499" 
d="M1452 508q-56 -251 -246.5 -399t-459.5 -148q-293 0 -455 188t-142 515q10 240 109.5 425.5t273.5 289t396 103.5q171 0 309 -67t217 -187.5t79 -272.5v-27h-358q-7 113 -78.5 179t-186.5 66q-124 0 -225 -85t-138 -224h530l-58 -272h-507q-6 -151 69.5 -238t202.5 -87
q111 0 191.5 64.5t118.5 176.5h358z" />
    <glyph glyph-name="Dzecyrillic" unicode="&#x405;" horiz-adv-x="1357" 
d="M76 425h349q11 -75 83.5 -123t179.5 -48q103 0 166.5 40.5t63.5 109.5q0 55 -39 89t-146 67l-138 42q-183 56 -274.5 153.5t-91.5 243.5q0 210 162.5 339.5t416.5 129.5q267 0 422.5 -119.5t156.5 -328.5h-338q-3 77 -66 123.5t-167 46.5q-98 0 -156 -42t-58 -104
q0 -54 41.5 -91t137.5 -65l143 -43q194 -57 281.5 -147.5t87.5 -240.5q0 -215 -167.5 -348.5t-444.5 -133.5q-278 0 -440.5 119t-164.5 331z" />
    <glyph glyph-name="Icyrillic" unicode="&#x406;" horiz-adv-x="608" 
d="M405 0h-367l307 1443h367z" />
    <glyph glyph-name="Yicyrillic" unicode="&#x407;" horiz-adv-x="608" 
d="M405 0h-367l307 1443h367zM380 1573q-60 0 -100 38.5t-40 94.5t40 95t100 39q59 0 99 -39t40 -95t-40 -94.5t-99 -38.5zM787 1573q-60 0 -100 38.5t-40 94.5t40 95t100 39t100 -39t40 -95t-40 -94.5t-100 -38.5z" />
    <glyph glyph-name="Jecyrillic" unicode="&#x408;" horiz-adv-x="1215" 
d="M49 409q0 34 3 60h351v-16q0 -75 41.5 -119t115.5 -44q145 0 184 186l206 967h368l-216 -1013q-47 -221 -187 -338t-361 -117q-228 0 -366.5 119.5t-138.5 314.5z" />
    <glyph glyph-name="Ljecyrillic" unicode="&#x409;" horiz-adv-x="2215" 
d="M650 586q-40 -153 -86 -258t-114.5 -185.5t-163.5 -118.5t-223 -38q-82 0 -126 14l68 315q37 -8 72 -8q90 0 147.5 80t95.5 226l215 830h1057l-94 -438h170q240 0 374.5 -117t134.5 -327q0 -250 -176 -405.5t-469 -155.5h-615l245 1148h-364zM1592 723h-153l-95 -445h188
q122 0 200 70t78 180q0 95 -57.5 145t-160.5 50z" />
    <glyph glyph-name="Njecyrillic" unicode="&#x40a;" horiz-adv-x="2209" 
d="M922 0l129 605h-517l-129 -605h-366l307 1443h367l-118 -551h517l117 551h368l-117 -550h193q233 0 365.5 -103t132.5 -282q0 -227 -172 -367.5t-462 -140.5h-615zM1349 278h195q116 0 187 54t71 141q0 72 -52 108.5t-144 36.5h-185z" />
    <glyph glyph-name="Tshecyrillic" unicode="&#x40b;" horiz-adv-x="1764" 
d="M1114 599q-81 0 -151 -38.5t-117 -98.5l-98 -462h-368l244 1148h-400l63 295h1168l-63 -295h-401l-74 -350h10q60 48 145.5 78t179.5 30q244 0 352 -145.5t55 -396.5l-77 -364h-368l78 364q23 109 -22.5 172t-155.5 63z" />
    <glyph glyph-name="Kjecyrillic" unicode="&#x40c;" horiz-adv-x="1429" 
d="M1410 1870l-337 -314h-284l295 314h326zM1619 1443l-741 -741l446 -702h-411l-372 580h-12l-124 -580h-367l307 1443h367l-128 -601h10l600 601h425z" />
    <glyph glyph-name="uni040D" unicode="&#x40d;" horiz-adv-x="1557" 
d="M994 0l190 892h-19l-776 -892h-351l307 1443h359l-191 -893h19l777 893h351l-307 -1443h-359zM897 1556l-205 314h297l163 -314h-255z" />
    <glyph glyph-name="Ushortcyrillic" unicode="&#x40e;" horiz-adv-x="1406" 
d="M303 -15q-36 0 -69.5 3.5t-50 7t-18.5 5.5l62 290q18 -9 87 -9q119 0 193 81l-238 1080h384l114 -730h19l412 730h395l-667 -1040q-68 -105 -129 -177t-135.5 -129.5t-163 -84.5t-195.5 -27zM636 1868h212q-13 -69 22.5 -107.5t107.5 -38.5q75 0 126 38t67 108h212
q-32 -149 -137.5 -232t-276.5 -83q-176 0 -266.5 83.5t-66.5 231.5z" />
    <glyph glyph-name="Dzhecyrillic" unicode="&#x40f;" horiz-adv-x="1536" 
d="M1333 0h-464l-61 -285h-311l61 285h-520l307 1443h366l-244 -1148h562l244 1148h367z" />
    <glyph glyph-name="Acyrillic" unicode="&#x410;" horiz-adv-x="1456" 
d="M895 1121l-276 -540h324l-40 540h-8zM982 0l-24 317h-471l-163 -317h-388l804 1443h449l166 -1443h-373z" />
    <glyph glyph-name="Becyrillic" unicode="&#x411;" horiz-adv-x="1343" 
d="M653 0h-615l306 1443h1022l-63 -295h-653l-49 -230h187q240 0 374.5 -103t134.5 -288q0 -235 -176 -381t-468 -146zM464 278h188q123 0 201 60.5t78 155.5q0 76 -53.5 116.5t-152.5 40.5h-181z" />
    <glyph glyph-name="Vecyrillic" unicode="&#x412;" horiz-adv-x="1376" 
d="M783 0h-745l307 1443h631q200 0 311 -86.5t111 -223.5q0 -141 -93 -242.5t-241 -131.5l-1 -7q118 -25 190.5 -104t72.5 -188q0 -201 -152.5 -330.5t-390.5 -129.5zM653 1205l-71 -334h208q107 0 174 55t67 140q0 65 -47.5 102t-136.5 37h-194zM453 260h246
q118 0 188.5 59.5t70.5 157.5q0 75 -52.5 116t-152.5 41h-221z" />
    <glyph glyph-name="Gecyrillic" unicode="&#x413;" horiz-adv-x="1156" 
d="M404 0h-366l307 1443h971l-63 -295h-604z" />
    <glyph glyph-name="Decyrillic" unicode="&#x414;" horiz-adv-x="1581" 
d="M627 644q-68 -244 -156 -329l-4 -19h525l181 853h-405zM251 0l-61 -285h-329l124 581h98q81 54 126 137.5t89 242.5l210 767h1095l-244 -1147h180l-124 -581h-330l61 285h-895z" />
    <glyph glyph-name="Iecyrillic" unicode="&#x415;" horiz-adv-x="1201" 
d="M1089 295l-62 -295h-989l307 1443h988l-63 -295h-621l-61 -288h584l-58 -270h-584l-63 -295h622z" />
    <glyph glyph-name="Zhecyrillic" unicode="&#x416;" horiz-adv-x="2126" 
d="M926 580l-555 -580h-432l716 752l-353 691h376l306 -604h13l129 604h359l-129 -605h14l563 605h390l-692 -746l372 -697h-377l-310 580h-15l-123 -580h-359l123 580h-16z" />
    <glyph glyph-name="Zecyrillic" unicode="&#x417;" horiz-adv-x="1323" 
d="M508 608l54 262h181q115 0 181 44.5t66 121.5q0 69 -55 110t-147 41q-86 0 -149 -43.5t-76 -110.5h-333q27 192 190.5 313.5t396.5 121.5q230 0 376 -108t146 -278q0 -136 -94 -235t-243 -119l-1 -7q118 -29 184 -108t66 -192q0 -195 -168.5 -320.5t-429.5 -125.5
q-137 0 -251.5 36.5t-190 100t-110.5 152.5t-18 190h338q-5 -86 62 -141t175 -55q102 0 169.5 53.5t67.5 133.5q0 76 -63.5 119.5t-174.5 43.5h-149z" />
    <glyph glyph-name="Iicyrillic" unicode="&#x418;" horiz-adv-x="1557" 
d="M994 0l190 892h-19l-776 -892h-351l307 1443h359l-191 -893h19l777 893h351l-307 -1443h-359z" />
    <glyph glyph-name="Iishortcyrillic" unicode="&#x419;" horiz-adv-x="1557" 
d="M994 0l190 892h-19l-776 -892h-351l307 1443h359l-191 -893h19l777 893h351l-307 -1443h-359zM716 1868h212q-13 -69 22.5 -107.5t107.5 -38.5q75 0 126 38t67 108h212q-32 -149 -137.5 -232t-276.5 -83q-176 0 -266.5 83.5t-66.5 231.5z" />
    <glyph glyph-name="Kacyrillic" unicode="&#x41a;" horiz-adv-x="1429" 
d="M1619 1443l-741 -741l446 -702h-411l-372 580h-12l-124 -580h-367l307 1443h367l-128 -601h10l600 601h425z" />
    <glyph glyph-name="Elcyrillic" unicode="&#x41b;" horiz-adv-x="1490" 
d="M1287 0h-367l243 1148h-365l-148 -562q-39 -150 -85.5 -255t-115 -186t-164 -120t-222.5 -39q-82 0 -126 14l68 315q37 -8 72 -8q88 0 146.5 80t96.5 226l215 830h1059z" />
    <glyph glyph-name="Emcyrillic" unicode="&#x41c;" horiz-adv-x="1826" 
d="M364 0h-326l307 1443h422l148 -978h7l550 978h458l-307 -1443h-327l205 959h-11l-548 -957h-223l-144 957h-7z" />
    <glyph glyph-name="Encyrillic" unicode="&#x41d;" horiz-adv-x="1550" 
d="M1346 0h-375l125 584h-559l-124 -584h-375l307 1443h375l-122 -568h559l121 568h375z" />
    <glyph glyph-name="Ocyrillic" unicode="&#x41e;" horiz-adv-x="1580" 
d="M923 1170q-112 0 -206 -74.5t-148 -202.5t-54 -279q0 -155 77 -248t205 -93q112 0 206 74.5t148.5 202t54.5 279.5q0 156 -77 248.5t-206 92.5zM787 -25q-147 0 -269 46.5t-203.5 128.5t-126.5 196t-45 247q0 190 61 354t166.5 277.5t251 178.5t309.5 65
q150 0 272.5 -46.5t204.5 -129t126 -196t44 -246.5q0 -190 -62 -354t-168 -278t-251.5 -178.5t-309.5 -64.5z" />
    <glyph glyph-name="Pecyrillic" unicode="&#x41f;" horiz-adv-x="1536" 
d="M1333 0h-367l244 1148h-562l-243 -1148h-367l307 1443h1295z" />
    <glyph glyph-name="Ercyrillic" unicode="&#x420;" horiz-adv-x="1336" 
d="M345 1443h537q234 0 369 -118.5t135 -316.5q0 -270 -177 -427.5t-474 -157.5h-239l-90 -423h-367zM652 1161l-98 -461h181q127 0 204.5 76.5t77.5 198.5q0 92 -54.5 139t-156.5 47h-154z" />
    <glyph glyph-name="Escyrillic" unicode="&#x421;" horiz-adv-x="1517" 
d="M1191 889v37q-4 105 -78.5 173.5t-185.5 68.5q-179 0 -293 -157.5t-114 -403.5q0 -153 73.5 -241t200.5 -88q115 0 201.5 65t122.5 178h357q-43 -245 -236.5 -395.5t-467.5 -150.5q-286 0 -457 166.5t-171 444.5q0 262 101 462.5t287 310t430 109.5q255 0 421 -146.5
t169 -376.5q1 -27 -3 -56h-357z" />
    <glyph glyph-name="Tecyrillic" unicode="&#x422;" horiz-adv-x="1294" 
d="M748 0h-368l244 1148h-416l63 295h1199l-63 -295h-416z" />
    <glyph glyph-name="Ucyrillic" unicode="&#x423;" horiz-adv-x="1406" 
d="M303 -15q-36 0 -69.5 3.5t-50 7t-18.5 5.5l62 290q18 -9 87 -9q119 0 193 81l-238 1080h384l114 -730h19l412 730h395l-667 -1040q-68 -105 -129 -177t-135.5 -129.5t-163 -84.5t-195.5 -27z" />
    <glyph glyph-name="Efcyrillic" unicode="&#x424;" horiz-adv-x="1881" 
d="M1030 -35h-363l33 155q-261 10 -412.5 150.5t-151.5 370.5q0 300 223 485.5t597 198.5l33 153h363l-33 -153q261 -10 413 -151t152 -373q0 -297 -223.5 -482.5t-597.5 -198.5zM513 655q0 -111 65.5 -176.5t185.5 -72.5l135 634q-169 -10 -277.5 -117t-108.5 -268z
M1507 782q0 116 -65 182.5t-186 74.5l-136 -633q170 10 278.5 115.5t108.5 260.5z" />
    <glyph glyph-name="Xacyrillic" unicode="&#x425;" horiz-adv-x="1445" 
d="M-49 0l620 729l-311 714h395l191 -453h8l354 453h429l-623 -726l312 -717h-395l-194 458h-8l-358 -458h-420z" />
    <glyph glyph-name="Tsecyrillic" unicode="&#x426;" horiz-adv-x="1628" 
d="M1454 -285h-330l61 285h-1146l307 1443h368l-245 -1148h560l244 1148h369l-245 -1148h180z" />
    <glyph glyph-name="Checyrillic" unicode="&#x427;" horiz-adv-x="1477" 
d="M1273 0h-367l120 565h-10q-144 -87 -345 -87q-163 0 -273 75.5t-150 209.5t-4 304l81 376h367l-82 -383q-28 -129 24.5 -201.5t183.5 -72.5q84 0 155.5 22.5t116.5 58.5l123 576h367z" />
    <glyph glyph-name="Shacyrillic" unicode="&#x428;" horiz-adv-x="2043" 
d="M38 0l307 1443h367l-245 -1148h350l245 1148h367l-244 -1148h349l245 1148h368l-307 -1443h-1802z" />
    <glyph glyph-name="Shchacyrillic" unicode="&#x429;" horiz-adv-x="2125" 
d="M1959 -285h-330l61 285h-1652l307 1443h367l-245 -1148h350l245 1148h367l-244 -1148h349l245 1148h368l-245 -1148h180z" />
    <glyph glyph-name="Hardsigncyrillic" unicode="&#x42a;" horiz-adv-x="1586" 
d="M904 0h-615l245 1149h-338l63 294h705l-95 -443h170q240 0 374.5 -116t134.5 -327q0 -254 -176 -405.5t-468 -151.5zM963 718h-153l-94 -440h188q122 0 199.5 69.5t77.5 180.5q0 92 -57.5 141t-160.5 49z" />
    <glyph glyph-name="Yericyrillic" unicode="&#x42b;" horiz-adv-x="1933" 
d="M711 718h-153l-94 -440h188q123 0 200.5 69.5t77.5 180.5q0 92 -58 141t-161 49zM38 0l307 1443h367l-94 -443h169q240 0 375 -116t135 -327q0 -254 -176 -405.5t-468 -151.5h-615zM1734 0h-367l307 1443h367z" />
    <glyph glyph-name="Softsigncyrillic" unicode="&#x42c;" horiz-adv-x="1334" 
d="M711 718h-153l-94 -440h188q123 0 200.5 69.5t77.5 180.5q0 92 -58 141t-161 49zM38 0l307 1443h367l-94 -443h169q240 0 375 -116t135 -327q0 -254 -176 -405.5t-468 -151.5h-615z" />
    <glyph glyph-name="Ereversedcyrillic" unicode="&#x42d;" horiz-adv-x="1502" 
d="M731 -25q-268 0 -437 148.5t-174 389.5h357q11 -107 83.5 -168.5t188.5 -61.5q131 0 224.5 82t129.5 230h-531l59 266h505q0 141 -72.5 221t-200.5 80q-104 0 -186.5 -64t-121.5 -175h-358q57 254 243 399.5t455 145.5q292 0 455 -187.5t146 -502.5q-10 -239 -108 -421.5
t-268.5 -282t-388.5 -99.5z" />
    <glyph glyph-name="IUcyrillic" unicode="&#x42e;" horiz-adv-x="2157" 
d="M1382 273q110 0 202.5 74.5t145.5 202t53 279.5q0 156 -74.5 248.5t-200.5 92.5q-109 0 -201 -74.5t-145 -202.5t-53 -279q0 -155 74.5 -248t198.5 -93zM591 877h191q74 270 273 430.5t461 160.5q148 0 269.5 -46.5t202 -129t124 -196t43.5 -246.5q0 -190 -61 -354
t-166 -278t-249 -178.5t-306 -64.5q-287 0 -455.5 169t-172.5 438h-217l-124 -582h-366l307 1443h367z" />
    <glyph glyph-name="IAcyrillic" unicode="&#x42f;" horiz-adv-x="1407" 
d="M827 755h177l85 403h-201q-127 0 -203 -59.5t-76 -158.5q0 -87 59 -136t159 -49zM817 496l-427 -496h-427l484 561q-100 50 -156 148t-56 225q0 228 175.5 368.5t469.5 140.5h631l-307 -1443h-368l106 496h-125z" />
    <glyph glyph-name="acyrillic" unicode="&#x430;" horiz-adv-x="1143" 
d="M510 223q77 0 137 44.5t74 111.5l18 81l-198 -6q-79 -3 -126 -36.5t-47 -88.5q0 -48 39.5 -77t102.5 -29zM358 -16q-137 0 -229.5 84t-92.5 212q0 167 130 264.5t357 104.5l258 8l13 64q4 23 4 36q0 47 -41 75.5t-110 28.5q-67 0 -112 -28t-60 -78h-316
q31 165 169.5 262.5t342.5 97.5q207 0 335 -91t128 -237q0 -43 -8 -89l-149 -698h-333l28 129h-7q-44 -66 -125.5 -105.5t-181.5 -39.5z" />
    <glyph glyph-name="becyrillic" unicode="&#x431;" horiz-adv-x="1252" 
d="M812 1056q193 0 300.5 -119.5t101.5 -326.5q-8 -292 -171 -462.5t-436 -170.5q-239 0 -374.5 153.5t-128.5 418.5q6 214 71 389q176 483 718 522q2 0 77 5l76 5q230 15 298 38l-65 -270q-62 -24 -269 -36q-1 -1 -76.5 -5.5t-80.5 -4.5q-167 -11 -269.5 -91.5
t-148.5 -237.5h15q133 193 362 193zM625 242q101 0 174.5 96.5t77.5 233.5q2 109 -45 172.5t-131 63.5q-109 0 -181.5 -94t-76.5 -240q-2 -104 47.5 -168t134.5 -64z" />
    <glyph glyph-name="vecyrillic" unicode="&#x432;" horiz-adv-x="1177" 
d="M11 0l232 1089h568q160 0 251 -65.5t91 -181.5q0 -98 -73.5 -171.5t-186.5 -87.5l-3 -13q96 -10 152.5 -66t56.5 -142q0 -164 -129 -263t-343 -99h-616zM597 468h-148l-56 -259h157q87 0 141 41.5t54 107.5q0 110 -148 110zM683 885h-146l-49 -233h139q82 0 131.5 37.5
t49.5 98.5q0 97 -125 97z" />
    <glyph glyph-name="gecyrillic" unicode="&#x433;" horiz-adv-x="933" 
d="M983 834h-435l-177 -834h-345l232 1089h780z" />
    <glyph glyph-name="decyrillic" unicode="&#x434;" horiz-adv-x="1326" 
d="M794 256l124 580h-295q0 -1 -21 -75.5t-41.5 -148t-20.5 -72.5q-47 -170 -126 -266l-4 -18h384zM1310 1089l-177 -833h157l-114 -536h-312l60 280h-688l-60 -280h-312l115 536h81q110 52 181 307q0 -1 36 130t72.5 263t36.5 133h924z" />
    <glyph glyph-name="iecyrillic" unicode="&#x435;" horiz-adv-x="1203" 
d="M441 667h417q3 9 3 31q0 74 -49 122.5t-132 48.5q-86 0 -151 -56t-88 -146zM594 -25q-231 0 -365 132.5t-134 361.5q0 183 74.5 330t211.5 231.5t313 84.5q217 0 350 -128t133 -340q0 -103 -17 -178h-751q-3 -17 -3 -33q0 -94 55 -153t149 -59q74 0 127 34.5t73 92.5h321
q-43 -170 -187 -273t-350 -103z" />
    <glyph glyph-name="zhecyrillic" unicode="&#x436;" horiz-adv-x="1717" 
d="M1862 1089l-482 -534l254 -555h-349l-209 447h-14l-95 -447h-337l96 447h-14l-394 -447h-402l530 606l-236 483h349l201 -424h12l90 424h336l-90 -424h13l371 424h370z" />
    <glyph glyph-name="zecyrillic" unicode="&#x437;" horiz-adv-x="1148" 
d="M1068 344q-1 -161 -146 -264t-374 -103q-221 0 -353.5 111t-134.5 296h321q5 -67 52.5 -107t124.5 -40q71 0 118.5 34.5t47.5 84.5q0 91 -138 91h-140l44 209h127q71 0 115 29.5t45 76.5q0 41 -37 67.5t-95 26.5q-72 0 -119.5 -35.5t-61.5 -98.5h-320q32 185 172 287
t362 102q195 0 318 -82.5t123 -211.5q-1 -86 -61 -154.5t-152 -86.5l-3 -11q77 -26 121 -84t44 -137z" />
    <glyph glyph-name="iicyrillic" unicode="&#x438;" horiz-adv-x="1265" 
d="M349 0h-338l232 1089h336l-131 -614h17l518 614h337l-232 -1089h-337l133 627h-16z" />
    <glyph glyph-name="iishortcyrillic" unicode="&#x439;" horiz-adv-x="1265" 
d="M349 0h-338l232 1089h336l-131 -614h17l518 614h337l-232 -1089h-337l133 627h-16zM519 1586h210q-14 -78 19.5 -125.5t105.5 -47.5t125.5 47.5t72.5 125.5h211q-27 -156 -146 -250t-297 -94q-163 0 -245.5 94.5t-55.5 249.5z" />
    <glyph glyph-name="kacyrillic" unicode="&#x43a;" horiz-adv-x="1154" 
d="M1295 1089l-531 -534l303 -555h-377l-235 443h-6l-94 -443h-344l232 1089h344l-90 -420h6l403 420h389z" />
    <glyph glyph-name="elcyrillic" unicode="&#x43b;" horiz-adv-x="1203" 
d="M540 522q-76 -292 -192 -414t-318 -122q-70 0 -110 14l61 285q28 -7 65 -7q63 0 110.5 66.5t84.5 206.5q1 4 71.5 270t70.5 268h873l-232 -1089h-336l177 834h-241q-1 -1 -42.5 -156t-41.5 -156z" />
    <glyph glyph-name="emcyrillic" unicode="&#x43c;" horiz-adv-x="1580" 
d="M331 0h-320l232 1089h451l96 -645h17l376 645h452l-232 -1089h-320l149 701h-16l-379 -628h-231l-111 628h-15z" />
    <glyph glyph-name="encyrillic" unicode="&#x43d;" horiz-adv-x="1251" 
d="M11 0l232 1089h344l-86 -407h374l86 407h344l-231 -1089h-344l90 428h-374l-91 -428h-344z" />
    <glyph glyph-name="ocyrillic" unicode="&#x43e;" horiz-adv-x="1261" 
d="M618 242q113 0 189 108t76 267q0 104 -48 167t-127 63q-115 0 -190.5 -106.5t-75.5 -268.5q0 -104 48 -167t128 -63zM723 1115q229 0 370 -135.5t141 -355.5q0 -139 -47.5 -260t-130 -206.5t-200 -134.5t-252.5 -49q-229 0 -370 135t-141 356q0 139 47.5 260t130 206.5
t200 134.5t252.5 49z" />
    <glyph glyph-name="pecyrillic" unicode="&#x43f;" horiz-adv-x="1242" 
d="M720 0l177 834h-365l-177 -834h-344l232 1089h1053l-231 -1089h-345z" />
    <glyph glyph-name="ercyrillic" unicode="&#x440;" horiz-adv-x="1283" 
d="M644 258q110 0 186.5 106.5t76.5 261.5q0 98 -48 156t-129 58q-111 0 -189 -111t-78 -261q0 -94 49.5 -152t131.5 -58zM279 -352h-343l307 1441h335l-34 -157h7q60 85 148 129t192 44q171 0 270.5 -114.5t99.5 -310.5q0 -198 -70 -357t-194 -249t-277 -90q-118 0 -201 57
t-115 159h-7z" />
    <glyph glyph-name="escyrillic" unicode="&#x441;" horiz-adv-x="1170" 
d="M697 1115q209 0 343 -115t134 -285v-43h-329q-1 75 -45 120.5t-119 45.5q-108 0 -176 -105.5t-68 -274.5q0 -94 45 -150.5t120 -56.5q73 0 124.5 43.5t71.5 120.5h329q-28 -196 -177 -318.5t-362 -122.5q-228 0 -361.5 128t-133.5 342q0 305 164 488t440 183z" />
    <glyph glyph-name="tecyrillic" unicode="&#x442;" horiz-adv-x="1014" 
d="M1140 1089l-54 -255h-311l-178 -834h-345l178 834h-312l55 255h967z" />
    <glyph glyph-name="ucyrillic" unicode="&#x443;" horiz-adv-x="1162" 
d="M86 -399q-132 0 -144 4l55 267q9 -3 104 -3q159 0 180 114q0 3 4 17.5t3 16.5l-125 1072h352l29 -818h7l377 818h367l-587 -1102q-111 -209 -256 -297.5t-366 -88.5z" />
    <glyph glyph-name="efcyrillic" unicode="&#x444;" horiz-adv-x="1696" 
d="M861 -351h-341l71 334q-230 8 -364.5 134t-134.5 335q0 290 202 470t536 187l69 322h340l-69 -323q231 -7 365 -133.5t134 -335.5q0 -290 -202 -470t-536 -187zM1319 613q0 111 -54.5 176t-150.5 69l-132 -626q146 7 241.5 115t95.5 266zM443 478q0 -111 54.5 -176
t149.5 -69l132 626q-145 -7 -240.5 -115t-95.5 -266z" />
    <glyph glyph-name="hacyrillic" unicode="&#x445;" horiz-adv-x="1171" 
d="M575 341h-7l-239 -341h-381l447 549l-211 540h368l110 -341h7l238 341h381l-446 -549l211 -540h-369z" />
    <glyph glyph-name="tsecyrillic" unicode="&#x446;" horiz-adv-x="1313" 
d="M1163 -280h-311l60 280h-901l232 1089h344l-177 -833h364l178 833h344l-177 -833h158z" />
    <glyph glyph-name="checyrillic" unicode="&#x447;" horiz-adv-x="1210" 
d="M1032 0h-344l95 446h-10q-116 -118 -299 -118q-186 0 -270 126.5t-38 339.5l63 295h344l-62 -289q-20 -94 15.5 -144.5t122.5 -50.5q53 0 103 23t82 62l87 399h344z" />
    <glyph glyph-name="shacyrillic" unicode="&#x448;" horiz-adv-x="1746" 
d="M11 0l232 1089h344l-177 -833h262l177 833h345l-177 -833h262l177 833h344l-231 -1089h-1558z" />
    <glyph glyph-name="shchacyrillic" unicode="&#x449;" horiz-adv-x="1817" 
d="M1666 -280h-311l60 280h-1404l232 1089h344l-177 -833h262l177 833h345l-177 -833h262l177 833h344l-177 -833h158z" />
    <glyph glyph-name="hardsigncyrillic" unicode="&#x44a;" horiz-adv-x="1312" 
d="M750 0h-559l177 834h-275l55 255h619l-64 -301h182q176 0 281.5 -89.5t105.5 -236.5q0 -197 -149 -329.5t-373 -132.5zM797 537h-147l-59 -281h147q80 0 133.5 49t53.5 120q0 53 -34 82.5t-94 29.5z" />
    <glyph glyph-name="yericyrillic" unicode="&#x44b;" horiz-adv-x="1639" 
d="M1114 0l232 1089h345l-232 -1089h-345zM616 537h-146l-60 -281h146q80 0 134 49.5t54 119.5q0 51 -34 81.5t-94 30.5zM11 0l232 1089h344l-64 -301h181q175 0 281 -89.5t106 -236.5q0 -128 -67 -234t-187 -167t-269 -61h-557z" />
    <glyph glyph-name="softsigncyrillic" unicode="&#x44c;" horiz-adv-x="1131" 
d="M616 537h-146l-60 -281h146q80 0 134 49.5t54 119.5q0 51 -34 81.5t-94 30.5zM11 0l232 1089h344l-64 -301h181q175 0 281 -89.5t106 -236.5q0 -128 -67 -234t-187 -167t-269 -61h-557z" />
    <glyph glyph-name="ereversedcyrillic" unicode="&#x44d;" horiz-adv-x="1178" 
d="M439 702h-316q50 199 190 306t353 107q227 0 356.5 -128t129.5 -352q0 -192 -74.5 -342t-213 -234.5t-319.5 -84.5q-217 0 -339 109t-131 303h318q5 -69 47 -108t113 -39q85 0 150.5 60t81.5 149h-353l45 212h339q0 88 -46 137.5t-130 49.5q-68 0 -120.5 -38t-80.5 -107z
" />
    <glyph glyph-name="iucyrillic" unicode="&#x44e;" horiz-adv-x="1755" 
d="M1107 -26q-215 0 -351 122.5t-150 327.5v4h-156l-91 -428h-344l231 1090h344l-86 -407h131q61 196 218.5 314t371.5 118q226 0 364.5 -135.5t138.5 -355.5q0 -187 -79 -335.5t-221 -231.5t-321 -83zM1120 234q104 0 180.5 113t76.5 281q0 101 -46 164t-122 63
q-105 0 -181 -112t-76 -282q0 -101 46 -164t122 -63z" />
    <glyph glyph-name="iacyrillic" unicode="&#x44f;" horiz-adv-x="1166" 
d="M617 569h149l57 267h-150q-81 0 -132.5 -43t-51.5 -111q0 -52 34.5 -82.5t93.5 -30.5zM645 0l72 338h-74l-296 -338h-402l364 397q-80 41 -123.5 113t-43.5 163q0 183 145 299.5t373 116.5h561l-232 -1089h-344z" />
    <glyph glyph-name="uni0450" unicode="&#x450;" horiz-adv-x="1203" 
d="M441 667h417q3 9 3 31q0 74 -49 122.5t-132 48.5q-86 0 -151 -56t-88 -146zM594 -25q-231 0 -365 132.5t-134 361.5q0 183 74.5 330t211.5 231.5t313 84.5q217 0 350 -128t133 -340q0 -103 -17 -178h-751q-3 -17 -3 -33q0 -94 55 -153t149 -59q74 0 127 34.5t73 92.5h321
q-43 -170 -187 -273t-350 -103zM849 1259h-273l-193 316h307z" />
    <glyph glyph-name="iocyrillic" unicode="&#x451;" horiz-adv-x="1203" 
d="M441 667h417q3 9 3 31q0 74 -49 122.5t-132 48.5q-86 0 -151 -56t-88 -146zM594 -25q-231 0 -365 132.5t-134 361.5q0 183 74.5 330t211.5 231.5t313 84.5q217 0 350 -128t133 -340q0 -103 -17 -178h-751q-3 -17 -3 -33q0 -94 55 -153t149 -59q74 0 127 34.5t73 92.5h321
q-43 -170 -187 -273t-350 -103zM563 1246q-60 0 -100 38.5t-40 94.5t40 95t100 39q59 0 99 -39t40 -95t-40 -94.5t-99 -38.5zM970 1246q-60 0 -100 38.5t-40 94.5t40 95t100 39t100 -39t40 -95t-40 -94.5t-100 -38.5z" />
    <glyph glyph-name="djecyrillic" unicode="&#x452;" horiz-adv-x="1261" 
d="M551 923h7q60 89 151.5 138t202.5 49q149 0 241.5 -85.5t92.5 -221.5q0 -60 -14 -132l-156 -727q-34 -164 -154 -250.5t-311 -87.5q-14 0 -118 4l56 251q8 -2 47 -2q121 0 143 103l140 655q9 44 9 76q0 66 -47 108t-122 42q-82 0 -144.5 -55t-81.5 -143l-137 -645h-343
l252 1181h-141l35 159h140l22 105h342l-23 -105h218l-36 -159h-216z" />
    <glyph glyph-name="gjecyrillic" unicode="&#x453;" horiz-adv-x="933" 
d="M983 834h-435l-177 -834h-345l232 1089h780zM873 1259h-277l293 316h312z" />
    <glyph glyph-name="ecyrillic" unicode="&#x454;" horiz-adv-x="1163" 
d="M1118 388q-41 -195 -180.5 -304.5t-351.5 -109.5q-237 0 -365.5 128.5t-128.5 358.5q0 189 75.5 338t213 232.5t313.5 83.5q219 0 341.5 -109.5t132.5 -303.5h-317q-7 67 -53.5 107.5t-120.5 40.5q-80 0 -139 -51.5t-79 -136.5h353l-44 -212h-341q-1 -2 -1 -6
q1 -95 49.5 -149t134.5 -54q69 0 121 40t71 107h316z" />
    <glyph glyph-name="dzecyrillic" unicode="&#x455;" horiz-adv-x="1118" 
d="M170 757q0 161 130.5 259t346.5 98q204 0 334.5 -100t135.5 -259h-310q-4 56 -49.5 91.5t-115.5 35.5q-66 0 -105.5 -26t-39.5 -69q0 -36 30.5 -59t113.5 -51l116 -38q154 -52 219.5 -120t65.5 -178q0 -165 -135.5 -266t-358.5 -101q-226 0 -363.5 101t-144.5 270h327
q5 -62 56.5 -99.5t134.5 -37.5q66 0 104.5 26t38.5 70q0 34 -29 55.5t-109 48.5l-98 33q-152 50 -223.5 127t-71.5 189z" />
    <glyph glyph-name="icyrillic" unicode="&#x456;" horiz-adv-x="538" 
d="M13 0l232 1089h345l-232 -1089h-345zM473 1180q-76 0 -128 49.5t-52 122.5q0 74 52 123.5t128 49.5t128 -49.5t52 -123.5q0 -73 -52 -122.5t-128 -49.5z" />
    <glyph glyph-name="yicyrillic" unicode="&#x457;" horiz-adv-x="538" 
d="M301 1210q-62 0 -104 43t-42 104t42 103.5t104 42.5t104 -42.5t42 -103.5t-42 -104t-104 -43zM677 1210q-62 0 -104 43t-42 104t42 103.5t104 42.5t104 -42.5t42 -103.5t-42 -104t-104 -43zM17 0l232 1089h345l-232 -1089h-345z" />
    <glyph glyph-name="jecyrillic" unicode="&#x458;" horiz-adv-x="536" 
d="M475 1180q-76 0 -128 49.5t-52 122.5q0 74 52 123.5t128 49.5t128 -49.5t52 -123.5q0 -73 -52 -122.5t-128 -49.5zM589 1089l-247 -1159q-33 -153 -148 -238t-285 -85q-85 0 -151 14l54 247q34 -6 66 -6q107 0 128 103l239 1124h344z" />
    <glyph glyph-name="ljecyrillic" unicode="&#x459;" horiz-adv-x="1800" 
d="M23 -14q-61 0 -103 14l61 285q28 -7 65 -7q123 0 193 263q-1 -2 35.5 136t72.5 275.5t36 136.5h873l-64 -301h180q176 0 282 -90t106 -236q0 -197 -150 -329.5t-373 -132.5h-557l177 834h-237q0 1 -21 -77.5t-42 -157.5t-21 -78q-79 -296 -193.5 -415.5t-319.5 -119.5z
M1285 537h-146l-60 -281h146q80 0 133.5 49.5t53.5 119.5q0 52 -34 82t-93 30z" />
    <glyph glyph-name="njecyrillic" unicode="&#x45a;" horiz-adv-x="1841" 
d="M1123 249h153q80 0 129 37t49 97q0 45 -32.5 70t-90.5 25h-160zM358 0h-345l232 1089h344l-78 -369h367l78 369h345l-78 -365h169q186 0 297.5 -85t111.5 -226q0 -179 -145 -296t-367 -117h-564l99 471h-366z" />
    <glyph glyph-name="tshecyrillic" unicode="&#x45b;" horiz-adv-x="1257" 
d="M551 923h7q59 88 149.5 137.5t204.5 49.5q150 0 242.5 -86t92.5 -221q0 -61 -15 -132l-142 -671h-342l131 617q9 44 9 76q0 66 -46.5 108t-121.5 42q-83 0 -146 -56t-82 -145l-136 -642h-343l251 1179h-96l36 172h96l20 92h343l-20 -92h208l-37 -172h-208z" />
    <glyph glyph-name="kjecyrillic" unicode="&#x45c;" horiz-adv-x="1154" 
d="M1251 1575l-328 -316h-277l293 316h312zM1295 1089l-531 -534l303 -555h-377l-235 443h-6l-94 -443h-344l232 1089h344l-90 -420h6l403 420h389z" />
    <glyph glyph-name="uni045D" unicode="&#x45d;" horiz-adv-x="1265" 
d="M349 0h-338l232 1089h336l-131 -614h17l518 614h337l-232 -1089h-337l133 627h-16zM938 1259h-273l-193 316h307z" />
    <glyph glyph-name="ushortcyrillic" unicode="&#x45e;" horiz-adv-x="1162" 
d="M86 -399q-132 0 -144 4l55 267q9 -3 104 -3q159 0 180 114q0 3 4 17.5t3 16.5l-125 1072h352l29 -818h7l377 818h367l-587 -1102q-111 -209 -256 -297.5t-366 -88.5zM461 1587h210q-14 -78 19.5 -125.5t105.5 -47.5t125.5 47.5t72.5 125.5h211q-27 -156 -146 -250
t-297 -94q-163 0 -245.5 94.5t-55.5 249.5z" />
    <glyph glyph-name="dzhecyrillic" unicode="&#x45f;" horiz-adv-x="1242" 
d="M1065 0h-371l-60 -280h-312l60 280h-371l232 1089h344l-177 -833h364l178 833h344z" />
    <glyph glyph-name="uni0462" unicode="&#x462;" horiz-adv-x="1378" 
d="M509 278h188q122 0 198.5 65t76.5 169q0 81 -59.5 123.5t-165.5 42.5h-153zM653 955h169q243 0 379.5 -109t136.5 -304q0 -248 -175 -395t-465 -147h-616l232 1091h-184l50 235h185l43 204h367l-43 -204h355l-50 -235h-355z" />
    <glyph glyph-name="uni0463" unicode="&#x463;" horiz-adv-x="1838" 
d="M791 348q0 62 14 124l28 124q8 36 8 78q0 68 -38 110t-102 42q-74 0 -130 -55.5t-76 -147.5l-135 -623h-353l234 1089h343l-40 -181h8q56 95 145.5 146t201.5 51q141 0 226.5 -87t85.5 -229v-6h153q197 0 305.5 -88t108.5 -248q0 -212 -146 -341t-384 -129
q-218 0 -337.5 98.5t-119.5 272.5zM1140 364q0 -54 37 -88t97 -34q71 0 116 47.5t45 122.5q0 117 -140 117h-126l-24 -111q-5 -21 -5 -54z" />
    </font>
</defs>
</svg>
