<?xml version="1.0" standalone="no"?>
<!DOCTYPE svg PUBLIC "-//W3C//DTD SVG 1.1//EN" "http://www.w3.org/Graphics/SVG/1.1/DTD/svg11.dtd" >
<svg xmlns="http://www.w3.org/2000/svg" xmlns:xlink="http://www.w3.org/1999/xlink" version="1.1">
<metadata>
Created by FontForge 20201107 at Wed May 31 05:49:02 2017
 By 
(c) 2015-2017 Apple Inc. All rights reserved.
</metadata>
<defs>
<font id="SFProDisplay-Bold" horiz-adv-x="1702" >
  <font-face 
    font-family="SF Pro Display"
    font-weight="700"
    font-stretch="normal"
    units-per-em="2048"
    panose-1="0 0 8 0 0 0 0 0 0 0"
    ascent="1638"
    descent="-410"
    x-height="1072"
    cap-height="1443"
    bbox="-585 -537 2631 2178"
    underline-thickness="190"
    underline-position="-375"
    unicode-range="U+0020-1F189"
  />
<missing-glyph horiz-adv-x="2048" 
d="M100 -494v206h1848v-206h-1848zM100 -46v206h1848v-206h-1848zM100 401v206h1848v-206h-1848zM100 849v206h1848v-206h-1848zM100 1296v206h1848v-206h-1848zM100 1744v206h1848v-206h-1848z" />
    <glyph glyph-name="uni2460" unicode="&#x31;&#x20dd;" 
d="M986 383h-201v517h-7l-160 -108v171l167 112h201v-692zM851 121q163 0 299 80.5t214 218t78 300.5t-78 301t-214 218t-299 80q-122 0 -232 -47.5t-188 -127.5t-124 -191t-46 -233q0 -163 77.5 -300.5t213.5 -218t299 -80.5zM851 -55q-212 0 -390 103.5t-281 282
t-103 390.5q0 159 61 302.5t164 247t246.5 164.5t302.5 61t302.5 -61t247 -164.5t164.5 -247t61 -302.5t-61 -302.5t-164.5 -247.5t-247 -165t-302.5 -61z" />
    <glyph glyph-name="uni2461" unicode="&#x32;&#x20dd;" 
d="M767 848h-186v3q0 102 72.5 168.5t199.5 66.5q117 0 190 -57.5t73 -147.5q0 -56 -32 -105t-99 -110l-122 -121v-7h264v-156h-534v123l249 239q40 38 58.5 64.5t18.5 55.5q0 30 -20.5 49t-53.5 19q-37 0 -58 -22.5t-20 -58.5v-3zM851 121q163 0 299 80.5t214 218t78 300.5
t-78 301t-214 218t-299 80q-122 0 -232 -47.5t-188 -127.5t-124 -191t-46 -233q0 -163 77.5 -300.5t213.5 -218t299 -80.5zM851 -55q-212 0 -390 103.5t-281 282t-103 390.5q0 159 61 302.5t164 247t246.5 164.5t302.5 61t302.5 -61t247 -164.5t164.5 -247t61 -302.5
t-61 -302.5t-164.5 -247.5t-247 -165t-302.5 -61z" />
    <glyph glyph-name="uni2462" unicode="&#x33;&#x20dd;" 
d="M776 662v145h70q37 0 60.5 20t23.5 52q0 29 -23.5 47.5t-60.5 18.5q-40 0 -64.5 -22t-26.5 -55h-183q4 102 75.5 160t201.5 58q123 0 196.5 -51t75.5 -134q1 -57 -40.5 -99.5t-91.5 -49.5v-10q60 -5 104.5 -49t45.5 -114q1 -95 -80 -151.5t-212 -56.5q-128 0 -204.5 61
t-78.5 158h183q2 -32 29 -52.5t70 -21.5q45 0 72 20.5t27 53.5q-1 33 -27 52.5t-70 19.5h-72zM851 121q163 0 299 80.5t214 218t78 300.5t-78 301t-214 218t-299 80q-122 0 -232 -47.5t-188 -127.5t-124 -191t-46 -233q0 -163 77.5 -300.5t213.5 -218t299 -80.5zM851 -55
q-212 0 -390 103.5t-281 282t-103 390.5q0 159 61 302.5t164 247t246.5 164.5t302.5 61t302.5 -61t247 -164.5t164.5 -247t61 -302.5t-61 -302.5t-164.5 -247.5t-247 -165t-302.5 -61z" />
    <glyph glyph-name="uni2463" unicode="&#x34;&#x20dd;" 
d="M775 1075h271v-431h95v-148h-95v-113h-168v113h-346v151q75 147 243 428zM704 644h174v308h-7q-94 -155 -167 -306v-2zM851 121q163 0 299 80.5t214 218t78 300.5t-78 301t-214 218t-299 80q-122 0 -232 -47.5t-188 -127.5t-124 -191t-46 -233q0 -163 77.5 -300.5
t213.5 -218t299 -80.5zM851 -55q-212 0 -390 103.5t-281 282t-103 390.5q0 159 61 302.5t164 247t246.5 164.5t302.5 61t302.5 -61t247 -164.5t164.5 -247t61 -302.5t-61 -302.5t-164.5 -247.5t-247 -165t-302.5 -61z" />
    <glyph glyph-name="uni2464" unicode="&#x35;&#x20dd;" 
d="M582 589h185q6 -31 33 -48.5t62 -17.5q40 0 68.5 28t28.5 72q0 41 -28.5 67.5t-69.5 26.5q-61 0 -88 -49h-177l27 412h481v-142h-330l-12 -152h9q16 26 56.5 45.5t93.5 19.5q101 0 165 -60.5t64 -162.5q0 -115 -78.5 -183.5t-211.5 -68.5q-122 0 -199 59.5t-79 153.5z
M851 121q163 0 299 80.5t214 218t78 300.5t-78 301t-214 218t-299 80q-122 0 -232 -47.5t-188 -127.5t-124 -191t-46 -233q0 -163 77.5 -300.5t213.5 -218t299 -80.5zM851 -55q-212 0 -390 103.5t-281 282t-103 390.5q0 159 61 302.5t164 247t246.5 164.5t302.5 61
t302.5 -61t247 -164.5t164.5 -247t61 -302.5t-61 -302.5t-164.5 -247.5t-247 -165t-302.5 -61z" />
    <glyph glyph-name="uni2465" unicode="&#x36;&#x20dd;" 
d="M1126 896h-181q-21 48 -83 48q-57 0 -89.5 -55.5t-26.5 -143.5h8q42 90 163 90q97 0 160.5 -58t63.5 -158q0 -114 -78 -181t-206 -67q-170 0 -249 125q-55 87 -55 228q0 175 82 268.5t226 93.5q111 0 184 -55.5t81 -134.5zM759 614q0 -44 27.5 -70.5t69.5 -26.5t69 25.5
t27 70.5q0 44 -27.5 69.5t-68.5 25.5q-43 0 -70 -26.5t-27 -67.5zM851 121q163 0 299 80.5t214 218t78 300.5t-78 301t-214 218t-299 80q-122 0 -232 -47.5t-188 -127.5t-124 -191t-46 -233q0 -163 77.5 -300.5t213.5 -218t299 -80.5zM851 -55q-212 0 -390 103.5t-281 282
t-103 390.5q0 159 61 302.5t164 247t246.5 164.5t302.5 61t302.5 -61t247 -164.5t164.5 -247t61 -302.5t-61 -302.5t-164.5 -247.5t-247 -165t-302.5 -61z" />
    <glyph glyph-name="uni2466" unicode="&#x37;&#x20dd;" 
d="M589 1070h543v-157l-274 -535h-213l284 529v8h-340v155zM851 121q163 0 299 80.5t214 218t78 300.5t-78 301t-214 218t-299 80q-122 0 -232 -47.5t-188 -127.5t-124 -191t-46 -233q0 -163 77.5 -300.5t213.5 -218t299 -80.5zM851 -55q-212 0 -390 103.5t-281 282
t-103 390.5q0 159 61 302.5t164 247t246.5 164.5t302.5 61t302.5 -61t247 -164.5t164.5 -247t61 -302.5t-61 -302.5t-164.5 -247.5t-247 -165t-302.5 -61z" />
    <glyph glyph-name="uni2467" unicode="&#x38;&#x20dd;" 
d="M851 502q44 0 73 25.5t29 64.5t-28.5 64.5t-73.5 25.5q-44 0 -73 -26t-29 -64q0 -39 29 -64.5t73 -25.5zM851 802q37 0 60.5 22t23.5 55t-24 54.5t-60 21.5t-60 -21.5t-24 -54.5t24 -55t60 -22zM850 371q-139 0 -221.5 56t-82.5 150q0 66 42.5 111t113.5 56v8
q-127 37 -127 149q0 83 75.5 134t200.5 51t200.5 -51t75.5 -134q0 -114 -127 -149v-8q71 -10 113.5 -55.5t42.5 -110.5q0 -95 -83 -151t-223 -56zM851 121q163 0 299 80.5t214 218t78 300.5t-78 301t-214 218t-299 80q-122 0 -232 -47.5t-188 -127.5t-124 -191t-46 -233
q0 -163 77.5 -300.5t213.5 -218t299 -80.5zM851 -55q-212 0 -390 103.5t-281 282t-103 390.5q0 159 61 302.5t164 247t246.5 164.5t302.5 61t302.5 -61t247 -164.5t164.5 -247t61 -302.5t-61 -302.5t-164.5 -247.5t-247 -165t-302.5 -61z" />
    <glyph glyph-name="uni2468" unicode="&#x39;&#x20dd;" 
d="M562 841q0 110 80.5 178t205.5 68q138 0 219.5 -87t81.5 -265q0 -176 -79.5 -270t-228.5 -94q-111 0 -182.5 54.5t-80.5 134.5h183q20 -46 81 -46q63 0 94 56.5t23 141.5h-7q-18 -41 -59.5 -66t-101.5 -25q-101 0 -165 59t-64 161zM944 843q0 45 -27 71.5t-69 26.5
q-41 0 -68.5 -26.5t-27.5 -70.5t27.5 -70t69.5 -26q41 0 68 25.5t27 69.5zM851 121q163 0 299 80.5t214 218t78 300.5t-78 301t-214 218t-299 80q-122 0 -232 -47.5t-188 -127.5t-124 -191t-46 -233q0 -163 77.5 -300.5t213.5 -218t299 -80.5zM851 -55q-212 0 -390 103.5
t-281 282t-103 390.5q0 159 61 302.5t164 247t246.5 164.5t302.5 61t302.5 -61t247 -164.5t164.5 -247t61 -302.5t-61 -302.5t-164.5 -247.5t-247 -165t-302.5 -61z" />
    <glyph glyph-name="uni24B6" unicode="A&#x20dd;" 
d="M778 688h147l-69 246h-9zM705 408h-200l226 692h241l225 -692h-199l-40 139h-214zM851 121q163 0 299 80.5t214 218t78 300.5t-78 301t-214 218t-299 80q-122 0 -232 -47.5t-188 -127.5t-124 -191t-46 -233q0 -163 77.5 -300.5t213.5 -218t299 -80.5zM851 -55
q-212 0 -390 103.5t-281 282t-103 390.5q0 159 61 302.5t164 247t246.5 164.5t302.5 61t302.5 -61t247 -164.5t164.5 -247t61 -302.5t-61 -302.5t-164.5 -247.5t-247 -165t-302.5 -61z" />
    <glyph glyph-name="uni24B7" unicode="B&#x20dd;" 
d="M582 383v692h343q100 0 158 -45.5t58 -124.5q0 -59 -36.5 -99.5t-95.5 -51.5v-7q75 -8 119 -53.5t44 -119.5q0 -86 -66.5 -138.5t-173.5 -52.5h-350zM768 948v-152h79q109 0 109 78q0 34 -24 54t-65 20h-99zM768 685v-169h87q122 0 122 84q0 39 -27.5 62t-76.5 23h-105z
M851 121q163 0 299 80.5t214 218t78 300.5t-78 301t-214 218t-299 80q-122 0 -232 -47.5t-188 -127.5t-124 -191t-46 -233q0 -163 77.5 -300.5t213.5 -218t299 -80.5zM851 -55q-212 0 -390 103.5t-281 282t-103 390.5q0 159 61 302.5t164 247t246.5 164.5t302.5 61
t302.5 -61t247 -164.5t164.5 -247t61 -302.5t-61 -302.5t-164.5 -247.5t-247 -165t-302.5 -61z" />
    <glyph glyph-name="uni24B8" unicode="C&#x20dd;" 
d="M981 633h186q-9 -117 -95.5 -189.5t-220.5 -72.5q-148 0 -243 96.5t-95 260.5t95 261t243 97q136 0 222.5 -74t94.5 -193h-185q-4 47 -40.5 77.5t-88.5 30.5q-65 0 -104 -53t-39 -146q0 -92 39 -145t104 -53q50 0 86.5 29.5t40.5 73.5zM851 121q163 0 299 80.5t214 218
t78 300.5t-78 301t-214 218t-299 80q-122 0 -232 -47.5t-188 -127.5t-124 -191t-46 -233q0 -163 77.5 -300.5t213.5 -218t299 -80.5zM851 -55q-212 0 -390 103.5t-281 282t-103 390.5q0 159 61 302.5t164 247t246.5 164.5t302.5 61t302.5 -61t247 -164.5t164.5 -247
t61 -302.5t-61 -302.5t-164.5 -247.5t-247 -165t-302.5 -61z" />
    <glyph glyph-name="uni24B9" unicode="D&#x20dd;" 
d="M582 1075h298q160 0 242 -89t82 -257t-82.5 -257t-241.5 -89h-298v692zM774 923v-389h75q80 0 117 47t37 147q0 101 -37 148t-117 47h-75zM851 121q163 0 299 80.5t214 218t78 300.5t-78 301t-214 218t-299 80q-122 0 -232 -47.5t-188 -127.5t-124 -191t-46 -233
q0 -163 77.5 -300.5t213.5 -218t299 -80.5zM851 -55q-212 0 -390 103.5t-281 282t-103 390.5q0 159 61 302.5t164 247t246.5 164.5t302.5 61t302.5 -61t247 -164.5t164.5 -247t61 -302.5t-61 -302.5t-164.5 -247.5t-247 -165t-302.5 -61z" />
    <glyph glyph-name="uni24BA" unicode="E&#x20dd;" 
d="M1109 532v-149h-495v692h495v-149h-306v-130h287v-130h-287v-134h306zM851 121q163 0 299 80.5t214 218t78 300.5t-78 301t-214 218t-299 80q-122 0 -232 -47.5t-188 -127.5t-124 -191t-46 -233q0 -163 77.5 -300.5t213.5 -218t299 -80.5zM851 -55q-212 0 -390 103.5
t-281 282t-103 390.5q0 159 61 302.5t164 247t246.5 164.5t302.5 61t302.5 -61t247 -164.5t164.5 -247t61 -302.5t-61 -302.5t-164.5 -247.5t-247 -165t-302.5 -61z" />
    <glyph glyph-name="uni24BB" unicode="F&#x20dd;" 
d="M829 383h-198v692h493v-152h-295v-139h268v-151h-268v-250zM851 121q163 0 299 80.5t214 218t78 300.5t-78 301t-214 218t-299 80q-122 0 -232 -47.5t-188 -127.5t-124 -191t-46 -233q0 -163 77.5 -300.5t213.5 -218t299 -80.5zM851 -55q-212 0 -390 103.5t-281 282
t-103 390.5q0 159 61 302.5t164 247t246.5 164.5t302.5 61t302.5 -61t247 -164.5t164.5 -247t61 -302.5t-61 -302.5t-164.5 -247.5t-247 -165t-302.5 -61z" />
    <glyph glyph-name="uni24BC" unicode="G&#x20dd;" 
d="M984 612v31h-127v122h309v-121q0 -120 -84.5 -196.5t-229.5 -76.5q-152 0 -245.5 98.5t-93.5 258.5t93.5 259t245.5 99q128 0 215 -67t101 -177h-190q-5 42 -39 68.5t-84 26.5q-65 0 -104.5 -57t-39.5 -152t40 -154t104 -59q61 0 95 27t34 70zM851 121q163 0 299 80.5
t214 218t78 300.5t-78 301t-214 218t-299 80q-122 0 -232 -47.5t-188 -127.5t-124 -191t-46 -233q0 -163 77.5 -300.5t213.5 -218t299 -80.5zM851 -55q-212 0 -390 103.5t-281 282t-103 390.5q0 159 61 302.5t164 247t246.5 164.5t302.5 61t302.5 -61t247 -164.5t164.5 -247
t61 -302.5t-61 -302.5t-164.5 -247.5t-247 -165t-302.5 -61z" />
    <glyph glyph-name="uni24BD" unicode="H&#x20dd;" 
d="M1161 383h-187v268h-245v-268h-187v692h187v-265h245v265h187v-692zM851 121q163 0 299 80.5t214 218t78 300.5t-78 301t-214 218t-299 80q-122 0 -232 -47.5t-188 -127.5t-124 -191t-46 -233q0 -163 77.5 -300.5t213.5 -218t299 -80.5zM851 -55q-212 0 -390 103.5
t-281 282t-103 390.5q0 159 61 302.5t164 247t246.5 164.5t302.5 61t302.5 -61t247 -164.5t164.5 -247t61 -302.5t-61 -302.5t-164.5 -247.5t-247 -165t-302.5 -61z" />
    <glyph glyph-name="uni24BE" unicode="I&#x20dd;" 
d="M958 383h-214v692h214v-692zM851 121q163 0 299 80.5t214 218t78 300.5t-78 301t-214 218t-299 80q-122 0 -232 -47.5t-188 -127.5t-124 -191t-46 -233q0 -163 77.5 -300.5t213.5 -218t299 -80.5zM851 -55q-212 0 -390 103.5t-281 282t-103 390.5q0 159 61 302.5t164 247
t246.5 164.5t302.5 61t302.5 -61t247 -164.5t164.5 -247t61 -302.5t-61 -302.5t-164.5 -247.5t-247 -165t-302.5 -61z" />
    <glyph glyph-name="uni24BF" unicode="J&#x20dd;" 
d="M553 617h194q0 -39 19.5 -60t54.5 -21q73 0 73 91v438h201v-441q0 -123 -72 -193t-198 -70t-199 70.5t-73 185.5zM851 121q163 0 299 80.5t214 218t78 300.5t-78 301t-214 218t-299 80q-122 0 -232 -47.5t-188 -127.5t-124 -191t-46 -233q0 -163 77.5 -300.5t213.5 -218
t299 -80.5zM851 -55q-212 0 -390 103.5t-281 282t-103 390.5q0 159 61 302.5t164 247t246.5 164.5t302.5 61t302.5 -61t247 -164.5t164.5 -247t61 -302.5t-61 -302.5t-164.5 -247.5t-247 -165t-302.5 -61z" />
    <glyph glyph-name="uni24C0" unicode="K&#x20dd;" 
d="M1185 1075l-229 -313l235 -379h-225l-158 259l-64 -75v-184h-182v692h182v-293h6l221 293h214zM851 121q163 0 299 80.5t214 218t78 300.5t-78 301t-214 218t-299 80q-122 0 -232 -47.5t-188 -127.5t-124 -191t-46 -233q0 -163 77.5 -300.5t213.5 -218t299 -80.5z
M851 -55q-212 0 -390 103.5t-281 282t-103 390.5q0 159 61 302.5t164 247t246.5 164.5t302.5 61t302.5 -61t247 -164.5t164.5 -247t61 -302.5t-61 -302.5t-164.5 -247.5t-247 -165t-302.5 -61z" />
    <glyph glyph-name="uni24C1" unicode="L&#x20dd;" 
d="M1133 557v-164h-488v692h204v-528h284zM851 121q163 0 299 80.5t214 218t78 300.5t-78 301t-214 218t-299 80q-122 0 -232 -47.5t-188 -127.5t-124 -191t-46 -233q0 -163 77.5 -300.5t213.5 -218t299 -80.5zM851 -55q-212 0 -390 103.5t-281 282t-103 390.5
q0 159 61 302.5t164 247t246.5 164.5t302.5 61t302.5 -61t247 -164.5t164.5 -247t61 -302.5t-61 -302.5t-164.5 -247.5t-247 -165t-302.5 -61z" />
    <glyph glyph-name="uni24C2" unicode="M&#x20dd;" 
d="M649 383h-151v692h190l162 -456h5l162 456h189v-692h-152v424h-7l-140 -387h-112l-139 387h-7v-424zM851 121q163 0 299 80.5t214 218t78 300.5t-78 301t-214 218t-299 80q-122 0 -232 -47.5t-188 -127.5t-124 -191t-46 -233q0 -163 77.5 -300.5t213.5 -218t299 -80.5z
M851 -55q-212 0 -390 103.5t-281 282t-103 390.5q0 159 61 302.5t164 247t246.5 164.5t302.5 61t302.5 -61t247 -164.5t164.5 -247t61 -302.5t-61 -302.5t-164.5 -247.5t-247 -165t-302.5 -61z" />
    <glyph glyph-name="uni24C3" unicode="N&#x20dd;" 
d="M723 383h-174v692h144l279 -391h7v391h174v-692h-142l-281 396h-7v-396zM851 121q163 0 299 80.5t214 218t78 300.5t-78 301t-214 218t-299 80q-122 0 -232 -47.5t-188 -127.5t-124 -191t-46 -233q0 -163 77.5 -300.5t213.5 -218t299 -80.5zM851 -55q-212 0 -390 103.5
t-281 282t-103 390.5q0 159 61 302.5t164 247t246.5 164.5t302.5 61t302.5 -61t247 -164.5t164.5 -247t61 -302.5t-61 -302.5t-164.5 -247.5t-247 -165t-302.5 -61z" />
    <glyph glyph-name="uni24C4" unicode="O&#x20dd;" 
d="M851 530q61 0 101 51.5t40 146.5q0 96 -39.5 147.5t-101.5 51.5t-101.5 -51.5t-39.5 -147.5q0 -95 40 -146.5t101 -51.5zM851 371q-147 0 -243 95.5t-96 261.5q0 167 96 262.5t243 95.5t243 -95.5t96 -262.5q0 -166 -96 -261.5t-243 -95.5zM851 121q163 0 299 80.5
t214 218t78 300.5t-78 301t-214 218t-299 80q-122 0 -232 -47.5t-188 -127.5t-124 -191t-46 -233q0 -163 77.5 -300.5t213.5 -218t299 -80.5zM851 -55q-212 0 -390 103.5t-281 282t-103 390.5q0 159 61 302.5t164 247t246.5 164.5t302.5 61t302.5 -61t247 -164.5t164.5 -247
t61 -302.5t-61 -302.5t-164.5 -247.5t-247 -165t-302.5 -61z" />
    <glyph glyph-name="uni24C5" unicode="P&#x20dd;" 
d="M923 1075q118 0 188 -69.5t70 -181.5q0 -111 -70 -178.5t-190 -67.5h-111v-195h-202v692h315zM986 824q0 102 -98 102h-89v-203h89q98 0 98 101zM851 121q163 0 299 80.5t214 218t78 300.5t-78 301t-214 218t-299 80q-122 0 -232 -47.5t-188 -127.5t-124 -191t-46 -233
q0 -163 77.5 -300.5t213.5 -218t299 -80.5zM851 -55q-212 0 -390 103.5t-281 282t-103 390.5q0 159 61 302.5t164 247t246.5 164.5t302.5 61t302.5 -61t247 -164.5t164.5 -247t61 -302.5t-61 -302.5t-164.5 -247.5t-247 -165t-302.5 -61z" />
    <glyph glyph-name="uni24C6" unicode="Q&#x20dd;" 
d="M1170 322h-190l-35 62q-42 -13 -94 -13q-147 0 -243 95.5t-96 261.5q0 167 96 262.5t243 95.5t243 -95.5t96 -262.5q0 -178 -111 -276zM851 530q18 0 31 4l-54 98h110l22 -30q32 48 32 126q0 96 -39.5 147.5t-101.5 51.5t-101.5 -51.5t-39.5 -147.5q0 -95 40 -146.5
t101 -51.5zM851 121q163 0 299 80.5t214 218t78 300.5t-78 301t-214 218t-299 80q-122 0 -232 -47.5t-188 -127.5t-124 -191t-46 -233q0 -163 77.5 -300.5t213.5 -218t299 -80.5zM851 -55q-212 0 -390 103.5t-281 282t-103 390.5q0 159 61 302.5t164 247t246.5 164.5
t302.5 61t302.5 -61t247 -164.5t164.5 -247t61 -302.5t-61 -302.5t-164.5 -247.5t-247 -165t-302.5 -61z" />
    <glyph glyph-name="uni24C7" unicode="R&#x20dd;" 
d="M887 1075q131 0 203 -59.5t72 -164.5q0 -72 -37 -122.5t-98 -70.5l149 -275h-208l-117 240h-93v-240h-183v692h312zM758 753h105q47 0 73.5 22.5t26.5 64.5q0 44 -26 67t-72 23h-107v-177zM851 121q163 0 299 80.5t214 218t78 300.5t-78 301t-214 218t-299 80
q-122 0 -232 -47.5t-188 -127.5t-124 -191t-46 -233q0 -163 77.5 -300.5t213.5 -218t299 -80.5zM851 -55q-212 0 -390 103.5t-281 282t-103 390.5q0 159 61 302.5t164 247t246.5 164.5t302.5 61t302.5 -61t247 -164.5t164.5 -247t61 -302.5t-61 -302.5t-164.5 -247.5
t-247 -165t-302.5 -61z" />
    <glyph glyph-name="uni24C8" unicode="S&#x20dd;" 
d="M552 585h190q5 -33 35.5 -52.5t78.5 -19.5q49 0 78 19t29 51q0 26 -23.5 41t-85.5 27l-90 17q-97 17 -148 67.5t-51 129.5q0 100 78.5 160.5t208.5 60.5q122 0 200 -57t85 -151h-184q-5 32 -31.5 50.5t-69.5 18.5t-69 -18.5t-26 -48.5q0 -48 99 -64l97 -18
q198 -34 198 -198q0 -105 -82 -167t-220 -62q-134 0 -213 57t-84 157zM851 121q163 0 299 80.5t214 218t78 300.5t-78 301t-214 218t-299 80q-122 0 -232 -47.5t-188 -127.5t-124 -191t-46 -233q0 -163 77.5 -300.5t213.5 -218t299 -80.5zM851 -55q-212 0 -390 103.5
t-281 282t-103 390.5q0 159 61 302.5t164 247t246.5 164.5t302.5 61t302.5 -61t247 -164.5t164.5 -247t61 -302.5t-61 -302.5t-164.5 -247.5t-247 -165t-302.5 -61z" />
    <glyph glyph-name="uni24C9" unicode="T&#x20dd;" 
d="M953 360h-204v532h-195v161h594v-161h-195v-532zM851 121q163 0 299 80.5t214 218t78 300.5t-78 301t-214 218t-299 80q-122 0 -232 -47.5t-188 -127.5t-124 -191t-46 -233q0 -163 77.5 -300.5t213.5 -218t299 -80.5zM851 -55q-212 0 -390 103.5t-281 282t-103 390.5
q0 159 61 302.5t164 247t246.5 164.5t302.5 61t302.5 -61t247 -164.5t164.5 -247t61 -302.5t-61 -302.5t-164.5 -247.5t-247 -165t-302.5 -61z" />
    <glyph glyph-name="uni24CA" unicode="U&#x20dd;" 
d="M851 508q51 0 81 29t30 80v436h196v-454q0 -110 -84.5 -180.5t-222.5 -70.5q-137 0 -221.5 70.5t-84.5 180.5v454h195v-436q0 -51 30.5 -80t80.5 -29zM851 121q163 0 299 80.5t214 218t78 300.5t-78 301t-214 218t-299 80q-122 0 -232 -47.5t-188 -127.5t-124 -191
t-46 -233q0 -163 77.5 -300.5t213.5 -218t299 -80.5zM851 -55q-212 0 -390 103.5t-281 282t-103 390.5q0 159 61 302.5t164 247t246.5 164.5t302.5 61t302.5 -61t247 -164.5t164.5 -247t61 -302.5t-61 -302.5t-164.5 -247.5t-247 -165t-302.5 -61z" />
    <glyph glyph-name="uni24CB" unicode="V&#x20dd;" 
d="M718 355l-213 693h220l123 -515h7l123 515h219l-213 -693h-266zM851 121q163 0 299 80.5t214 218t78 300.5t-78 301t-214 218t-299 80q-122 0 -232 -47.5t-188 -127.5t-124 -191t-46 -233q0 -163 77.5 -300.5t213.5 -218t299 -80.5zM851 -55q-212 0 -390 103.5t-281 282
t-103 390.5q0 159 61 302.5t164 247t246.5 164.5t302.5 61t302.5 -61t247 -164.5t164.5 -247t61 -302.5t-61 -302.5t-164.5 -247.5t-247 -165t-302.5 -61z" />
    <glyph glyph-name="uni24CC" unicode="W&#x20dd;" 
d="M848 794l-104 -434h-169l-162 693h179l81 -467h7l101 467h141l101 -467h7l81 467h178l-161 -693h-169l-105 434h-6zM851 121q163 0 299 80.5t214 218t78 300.5t-78 301t-214 218t-299 80q-122 0 -232 -47.5t-188 -127.5t-124 -191t-46 -233q0 -163 77.5 -300.5
t213.5 -218t299 -80.5zM851 -55q-212 0 -390 103.5t-281 282t-103 390.5q0 159 61 302.5t164 247t246.5 164.5t302.5 61t302.5 -61t247 -164.5t164.5 -247t61 -302.5t-61 -302.5t-164.5 -247.5t-247 -165t-302.5 -61z" />
    <glyph glyph-name="uni24CD" unicode="X&#x20dd;" 
d="M1185 1075l-216 -347l215 -345h-212l-121 228h-7l-121 -228h-216l219 347l-218 345h222l119 -229h7l119 229h210zM851 121q163 0 299 80.5t214 218t78 300.5t-78 301t-214 218t-299 80q-122 0 -232 -47.5t-188 -127.5t-124 -191t-46 -233q0 -163 77.5 -300.5t213.5 -218
t299 -80.5zM851 -55q-212 0 -390 103.5t-281 282t-103 390.5q0 159 61 302.5t164 247t246.5 164.5t302.5 61t302.5 -61t247 -164.5t164.5 -247t61 -302.5t-61 -302.5t-164.5 -247.5t-247 -165t-302.5 -61z" />
    <glyph glyph-name="uni24CE" unicode="Y&#x20dd;" 
d="M956 368h-209v228l-238 464h220l120 -276h6l120 276h218l-237 -463v-229zM851 121q163 0 299 80.5t214 218t78 300.5t-78 301t-214 218t-299 80q-122 0 -232 -47.5t-188 -127.5t-124 -191t-46 -233q0 -163 77.5 -300.5t213.5 -218t299 -80.5zM851 -55q-212 0 -390 103.5
t-281 282t-103 390.5q0 159 61 302.5t164 247t246.5 164.5t302.5 61t302.5 -61t247 -164.5t164.5 -247t61 -302.5t-61 -302.5t-164.5 -247.5t-247 -165t-302.5 -61z" />
    <glyph glyph-name="uni24CF" unicode="Z&#x20dd;" 
d="M578 383v125l300 403v8h-299v156h540v-126l-300 -402v-8h311v-156h-552zM851 121q163 0 299 80.5t214 218t78 300.5t-78 301t-214 218t-299 80q-122 0 -232 -47.5t-188 -127.5t-124 -191t-46 -233q0 -163 77.5 -300.5t213.5 -218t299 -80.5zM851 -55q-212 0 -390 103.5
t-281 282t-103 390.5q0 159 61 302.5t164 247t246.5 164.5t302.5 61t302.5 -61t247 -164.5t164.5 -247t61 -302.5t-61 -302.5t-164.5 -247.5t-247 -165t-302.5 -61z" />
    <glyph glyph-name="uni24EA" unicode="&#x23;&#x20dd;" 
d="M851 526q48 0 75.5 50t27.5 152t-27.5 152t-75.5 50q-102 0 -102 -202t102 -202zM849 371q-132 0 -211 95t-79 262q0 166 79 261.5t211 95.5t213 -95.5t81 -261.5t-80.5 -261.5t-213.5 -95.5zM851 121q163 0 299 80.5t214 218t78 300.5t-78 301t-214 218t-299 80
q-122 0 -232 -47.5t-188 -127.5t-124 -191t-46 -233q0 -163 77.5 -300.5t213.5 -218t299 -80.5zM851 -55q-212 0 -390 103.5t-281 282t-103 390.5q0 159 61 302.5t164 247t246.5 164.5t302.5 61t302.5 -61t247 -164.5t164.5 -247t61 -302.5t-61 -302.5t-164.5 -247.5
t-247 -165t-302.5 -61z" />
    <glyph glyph-name="uni24FF" unicode="&#x30;&#x20dd;&#x25cf;" 
d="M849 502q-105 0 -105 226q0 225 105 225t105 -225q0 -226 -105 -226zM847 338q147 0 234.5 104t87.5 286q0 181 -87.5 285t-234.5 104q-146 0 -231.5 -104t-85.5 -285q0 -182 85.5 -286t231.5 -104zM851 -53q-157 0 -300 61.5t-247 165.5t-165.5 247.5t-61.5 300.5
q0 209 104 387.5t282.5 282.5t387.5 104q157 0 300.5 -61.5t247.5 -165.5t165.5 -247t61.5 -300t-61.5 -300.5t-165.5 -247.5t-247.5 -165.5t-300.5 -61.5z" />
    <glyph glyph-name="uni278A" unicode="&#x31;&#x20dd;&#x25cf;" 
d="M1000 352v753h-221l-183 -122v-195l176 118h5v-554h223zM851 -53q-157 0 -300 61.5t-247 165.5t-165.5 247.5t-61.5 300.5q0 209 104 387.5t282.5 282.5t387.5 104q157 0 300.5 -61.5t247.5 -165.5t165.5 -247t61.5 -300t-61.5 -300.5t-165.5 -247.5t-247.5 -165.5
t-300.5 -61.5z" />
    <glyph glyph-name="uni278B" unicode="&#x32;&#x20dd;&#x25cf;" 
d="M753 852v6q0 43 23 69.5t65 26.5q36 0 59.5 -20.5t23.5 -53.5q0 -36 -22 -67.5t-74 -79.5l-263 -246v-137h583v175h-294v3l139 135q72 65 105.5 117.5t33.5 116.5q0 94 -79 156.5t-200 62.5q-139 0 -220 -73t-81 -185v-6h201zM851 -53q-157 0 -300 61.5t-247 165.5
t-165.5 247.5t-61.5 300.5q0 209 104 387.5t282.5 282.5t387.5 104q157 0 300.5 -61.5t247.5 -165.5t165.5 -247t61.5 -300t-61.5 -300.5t-165.5 -247.5t-247.5 -165.5t-300.5 -61.5z" />
    <glyph glyph-name="uni278C" unicode="&#x33;&#x20dd;&#x25cf;" 
d="M763 660h82q47 0 75.5 -22t29.5 -58q0 -36 -29 -58.5t-77 -22.5q-47 1 -76.5 23.5t-32.5 58.5h-201q2 -106 86.5 -174t223.5 -68q141 0 230 62t88 166q-1 75 -49 123.5t-112 54.5v5q54 9 97.5 55t42.5 109q-2 91 -82.5 147t-212.5 56q-143 0 -221 -63.5t-83 -176.5h203
q2 36 27.5 59t69.5 23q39 0 64 -20.5t26 -52.5q0 -34 -25.5 -54.5t-66.5 -20.5h-77v-151zM851 -53q-157 0 -300 61.5t-247 165.5t-165.5 247.5t-61.5 300.5q0 209 104 387.5t282.5 282.5t387.5 104q157 0 300.5 -61.5t247.5 -165.5t165.5 -247t61.5 -300t-61.5 -300.5
t-165.5 -247.5t-247.5 -165.5t-300.5 -61.5z" />
    <glyph glyph-name="uni278D" unicode="&#x34;&#x20dd;&#x25cf;" 
d="M764 1105q-180 -299 -263 -465v-166h372v-122h189v122h102v166h-102v465h-298zM694 640v1q75 152 175 316h4v-317h-179zM851 -53q-157 0 -300 61.5t-247 165.5t-165.5 247.5t-61.5 300.5q0 209 104 387.5t282.5 282.5t387.5 104q157 0 300.5 -61.5t247.5 -165.5
t165.5 -247t61.5 -300t-61.5 -300.5t-165.5 -247.5t-247.5 -165.5t-300.5 -61.5z" />
    <glyph glyph-name="uni278E" unicode="&#x35;&#x20dd;&#x25cf;" 
d="M553 579q2 -104 85.5 -169.5t217.5 -65.5q144 0 230 74.5t86 201.5q0 112 -70.5 177.5t-180.5 65.5q-57 0 -100.5 -20t-61.5 -48h-5l12 160h356v155h-525l-29 -450h189q13 24 39.5 41.5t61.5 17.5q47 0 77.5 -29t30.5 -77q0 -50 -31.5 -80t-75.5 -30q-41 0 -71 20t-37 56
h-198zM851 -53q-157 0 -300 61.5t-247 165.5t-165.5 247.5t-61.5 300.5q0 209 104 387.5t282.5 282.5t387.5 104q157 0 300.5 -61.5t247.5 -165.5t165.5 -247t61.5 -300t-61.5 -300.5t-165.5 -247.5t-247.5 -165.5t-300.5 -61.5z" />
    <glyph glyph-name="uni278F" unicode="&#x36;&#x20dd;&#x25cf;" 
d="M1163 610q0 110 -67 171t-174 61q-67 0 -115 -27t-73 -70l-5 -1q-3 18 -3 21q-1 89 35 142t95 53q68 0 94 -54h197q-9 88 -88.5 150t-200.5 62q-156 0 -246 -103t-90 -292q0 -152 61 -249q90 -136 271 -136q137 0 223 74t86 198zM744 604q0 47 30 76.5t79 29.5
q46 0 77 -28.5t31 -77.5q0 -52 -30 -80.5t-78 -28.5t-78.5 29.5t-30.5 79.5zM851 -53q-157 0 -300 61.5t-247 165.5t-165.5 247.5t-61.5 300.5q0 209 104 387.5t282.5 282.5t387.5 104q157 0 300.5 -61.5t247.5 -165.5t165.5 -247t61.5 -300t-61.5 -300.5t-165.5 -247.5
t-247.5 -165.5t-300.5 -61.5z" />
    <glyph glyph-name="uni2790" unicode="&#x37;&#x20dd;&#x25cf;" 
d="M561 1100v-175h366v-3l-309 -575h237l297 579v174h-591zM851 -53q-157 0 -300 61.5t-247 165.5t-165.5 247.5t-61.5 300.5q0 209 104 387.5t282.5 282.5t387.5 104q157 0 300.5 -61.5t247.5 -165.5t165.5 -247t61.5 -300t-61.5 -300.5t-165.5 -247.5t-247.5 -165.5
t-300.5 -61.5z" />
    <glyph glyph-name="uni2791" unicode="&#x38;&#x20dd;&#x25cf;" 
d="M849 802q-41 0 -67.5 24t-26.5 63t26 63.5t68 24.5q43 0 69 -24.5t26 -63.5q0 -38 -26.5 -62.5t-68.5 -24.5zM849 479q-50 0 -82 28.5t-32 72.5t32 73t82 29t82.5 -29t32.5 -73t-32.5 -72.5t-82.5 -28.5zM849 338q152 0 242 61.5t90 165.5q0 71 -44.5 119.5t-122.5 61.5
v3q135 41 135 164q0 93 -81.5 148.5t-218.5 55.5q-136 0 -217.5 -55.5t-81.5 -148.5q0 -124 135 -164v-3q-78 -13 -122.5 -61.5t-44.5 -119.5q0 -104 89.5 -165.5t241.5 -61.5zM851 -53q-157 0 -300 61.5t-247 165.5t-165.5 247.5t-61.5 300.5q0 209 104 387.5t282.5 282.5
t387.5 104q157 0 300.5 -61.5t247.5 -165.5t165.5 -247t61.5 -300t-61.5 -300.5t-165.5 -247.5t-247.5 -165.5t-300.5 -61.5z" />
    <glyph glyph-name="uni2792" unicode="&#x39;&#x20dd;&#x25cf;" 
d="M949 851q0 -50 -30.5 -78.5t-76.5 -28.5q-47 0 -78 29t-31 79t30.5 80t77.5 30q48 0 78 -30t30 -81zM549 546q10 -88 88 -147.5t199 -59.5q161 0 248.5 101.5t87.5 287.5q0 195 -91 292.5t-239 97.5q-137 0 -224 -73.5t-87 -195.5q0 -112 67.5 -175t177.5 -63
q65 0 113 27t71 70h4q8 -92 -25.5 -152t-101.5 -60q-67 0 -90 50h-198zM851 -53q-157 0 -300 61.5t-247 165.5t-165.5 247.5t-61.5 300.5q0 209 104 387.5t282.5 282.5t387.5 104q157 0 300.5 -61.5t247.5 -165.5t165.5 -247t61.5 -300t-61.5 -300.5t-165.5 -247.5
t-247.5 -165.5t-300.5 -61.5z" />
    <glyph glyph-name="uni1F130" unicode="A&#x20de;" 
d="M778 678h147l-69 246h-9zM705 398h-200l226 692h241l225 -692h-199l-40 139h-214zM364 1471h975q108 0 184 -75t76 -181v-985q0 -107 -76 -182t-184 -75h-975q-108 0 -184.5 75.5t-76.5 181.5v985q0 106 76.5 181t184.5 75zM1419 1178q0 53 -39 90.5t-94 37.5h-870
q-55 0 -94 -37.5t-39 -90.5v-911q0 -52 39.5 -90t93.5 -38h870q55 0 94 37.5t39 90.5v911z" />
    <glyph glyph-name="uni1F131" unicode="B&#x20de;" 
d="M582 383v692h343q100 0 158 -45.5t58 -124.5q0 -59 -36.5 -99.5t-95.5 -51.5v-7q75 -8 119 -53.5t44 -119.5q0 -86 -66.5 -138.5t-173.5 -52.5h-350zM768 948v-152h79q109 0 109 78q0 34 -24 54t-65 20h-99zM768 685v-169h87q122 0 122 84q0 39 -27.5 62t-76.5 23h-105z
M364 1471h975q108 0 184 -75t76 -181v-985q0 -107 -76 -182t-184 -75h-975q-108 0 -184.5 75.5t-76.5 181.5v985q0 106 76.5 181t184.5 75zM1419 1178q0 53 -39 90.5t-94 37.5h-870q-55 0 -94 -37.5t-39 -90.5v-911q0 -52 39.5 -90t93.5 -38h870q55 0 94 37.5t39 90.5v911z
" />
    <glyph glyph-name="uni1F132" unicode="C&#x20de;" 
d="M981 633h186q-9 -117 -95.5 -189.5t-220.5 -72.5q-148 0 -243 96.5t-95 260.5t95 261t243 97q136 0 222.5 -74t94.5 -193h-185q-4 47 -40.5 77.5t-88.5 30.5q-65 0 -104 -53t-39 -146q0 -92 39 -145t104 -53q50 0 86.5 29.5t40.5 73.5zM364 1471h975q108 0 184 -75
t76 -181v-985q0 -107 -76 -182t-184 -75h-975q-108 0 -184.5 75.5t-76.5 181.5v985q0 106 76.5 181t184.5 75zM1419 1178q0 53 -39 90.5t-94 37.5h-870q-55 0 -94 -37.5t-39 -90.5v-911q0 -52 39.5 -90t93.5 -38h870q55 0 94 37.5t39 90.5v911z" />
    <glyph glyph-name="uni1F133" unicode="D&#x20de;" 
d="M569 1075h298q160 0 242 -89t82 -257t-82.5 -257t-241.5 -89h-298v692zM761 923v-389h75q80 0 117 47t37 147q0 101 -37 148t-117 47h-75zM364 1471h975q108 0 184 -75t76 -181v-985q0 -107 -76 -182t-184 -75h-975q-108 0 -184.5 75.5t-76.5 181.5v985q0 106 76.5 181
t184.5 75zM1419 1178q0 53 -39 90.5t-94 37.5h-870q-55 0 -94 -37.5t-39 -90.5v-911q0 -52 39.5 -90t93.5 -38h870q55 0 94 37.5t39 90.5v911z" />
    <glyph glyph-name="uni1F134" unicode="E&#x20de;" 
d="M1109 532v-149h-495v692h495v-149h-306v-130h287v-130h-287v-134h306zM364 1471h975q108 0 184 -75t76 -181v-985q0 -107 -76 -182t-184 -75h-975q-108 0 -184.5 75.5t-76.5 181.5v985q0 106 76.5 181t184.5 75zM1419 1178q0 53 -39 90.5t-94 37.5h-870q-55 0 -94 -37.5
t-39 -90.5v-911q0 -52 39.5 -90t93.5 -38h870q55 0 94 37.5t39 90.5v911z" />
    <glyph glyph-name="uni1F135" unicode="F&#x20de;" 
d="M829 383h-198v692h493v-152h-295v-139h268v-151h-268v-250zM364 1471h975q108 0 184 -75t76 -181v-985q0 -107 -76 -182t-184 -75h-975q-108 0 -184.5 75.5t-76.5 181.5v985q0 106 76.5 181t184.5 75zM1419 1178q0 53 -39 90.5t-94 37.5h-870q-55 0 -94 -37.5t-39 -90.5
v-911q0 -52 39.5 -90t93.5 -38h870q55 0 94 37.5t39 90.5v911z" />
    <glyph glyph-name="uni1F136" unicode="G&#x20de;" 
d="M984 612v31h-127v122h309v-121q0 -120 -84.5 -196.5t-229.5 -76.5q-152 0 -245.5 98.5t-93.5 258.5t93.5 259t245.5 99q128 0 215 -67t101 -177h-190q-5 42 -39 68.5t-84 26.5q-65 0 -104.5 -57t-39.5 -152t40 -154t104 -59q61 0 95 27t34 70zM364 1471h975
q108 0 184 -75t76 -181v-985q0 -107 -76 -182t-184 -75h-975q-108 0 -184.5 75.5t-76.5 181.5v985q0 106 76.5 181t184.5 75zM1419 1178q0 53 -39 90.5t-94 37.5h-870q-55 0 -94 -37.5t-39 -90.5v-911q0 -52 39.5 -90t93.5 -38h870q55 0 94 37.5t39 90.5v911z" />
    <glyph glyph-name="uni1F137" unicode="H&#x20de;" 
d="M1161 383h-187v268h-245v-268h-187v692h187v-265h245v265h187v-692zM364 1471h975q108 0 184 -75t76 -181v-985q0 -107 -76 -182t-184 -75h-975q-108 0 -184.5 75.5t-76.5 181.5v985q0 106 76.5 181t184.5 75zM1419 1178q0 53 -39 90.5t-94 37.5h-870q-55 0 -94 -37.5
t-39 -90.5v-911q0 -52 39.5 -90t93.5 -38h870q55 0 94 37.5t39 90.5v911z" />
    <glyph glyph-name="uni1F138" unicode="I&#x20de;" 
d="M958 383h-214v692h214v-692zM364 1471h975q108 0 184 -75t76 -181v-985q0 -107 -76 -182t-184 -75h-975q-108 0 -184.5 75.5t-76.5 181.5v985q0 106 76.5 181t184.5 75zM1419 1178q0 53 -39 90.5t-94 37.5h-870q-55 0 -94 -37.5t-39 -90.5v-911q0 -52 39.5 -90t93.5 -38
h870q55 0 94 37.5t39 90.5v911z" />
    <glyph glyph-name="uni1F139" unicode="J&#x20de;" 
d="M553 617h194q0 -39 19.5 -60t54.5 -21q73 0 73 91v438h201v-441q0 -123 -72 -193t-198 -70t-199 70.5t-73 185.5zM364 1471h975q108 0 184 -75t76 -181v-985q0 -107 -76 -182t-184 -75h-975q-108 0 -184.5 75.5t-76.5 181.5v985q0 106 76.5 181t184.5 75zM1419 1178
q0 53 -39 90.5t-94 37.5h-870q-55 0 -94 -37.5t-39 -90.5v-911q0 -52 39.5 -90t93.5 -38h870q55 0 94 37.5t39 90.5v911z" />
    <glyph glyph-name="uni1F13A" unicode="K&#x20de;" 
d="M1185 1075l-229 -313l235 -379h-225l-158 259l-64 -75v-184h-182v692h182v-293h6l221 293h214zM364 1471h975q108 0 184 -75t76 -181v-985q0 -107 -76 -182t-184 -75h-975q-108 0 -184.5 75.5t-76.5 181.5v985q0 106 76.5 181t184.5 75zM1419 1178q0 53 -39 90.5
t-94 37.5h-870q-55 0 -94 -37.5t-39 -90.5v-911q0 -52 39.5 -90t93.5 -38h870q55 0 94 37.5t39 90.5v911z" />
    <glyph glyph-name="uni1F13B" unicode="L&#x20de;" 
d="M1138 557v-164h-488v692h204v-528h284zM364 1471h975q108 0 184 -75t76 -181v-985q0 -107 -76 -182t-184 -75h-975q-108 0 -184.5 75.5t-76.5 181.5v985q0 106 76.5 181t184.5 75zM1419 1178q0 53 -39 90.5t-94 37.5h-870q-55 0 -94 -37.5t-39 -90.5v-911q0 -52 39.5 -90
t93.5 -38h870q55 0 94 37.5t39 90.5v911z" />
    <glyph glyph-name="uni1F13C" unicode="M&#x20de;" 
d="M649 383h-151v692h190l162 -456h5l162 456h189v-692h-152v439h-7l-140 -402h-112l-139 402h-7v-439zM364 1471h975q108 0 184 -75t76 -181v-985q0 -107 -76 -182t-184 -75h-975q-108 0 -184.5 75.5t-76.5 181.5v985q0 106 76.5 181t184.5 75zM1419 1178q0 53 -39 90.5
t-94 37.5h-870q-55 0 -94 -37.5t-39 -90.5v-911q0 -52 39.5 -90t93.5 -38h870q55 0 94 37.5t39 90.5v911z" />
    <glyph glyph-name="uni1F13D" unicode="N&#x20de;" 
d="M723 383h-174v692h144l280 -391h6v391h174v-692h-142l-281 396h-7v-396zM364 1471h975q108 0 184 -75t76 -181v-985q0 -107 -76 -182t-184 -75h-975q-108 0 -184.5 75.5t-76.5 181.5v985q0 106 76.5 181t184.5 75zM1419 1178q0 53 -39 90.5t-94 37.5h-870
q-55 0 -94 -37.5t-39 -90.5v-911q0 -52 39.5 -90t93.5 -38h870q55 0 94 37.5t39 90.5v911z" />
    <glyph glyph-name="uni1F13E" unicode="O&#x20de;" 
d="M851 530q61 0 101 51.5t40 146.5q0 96 -39.5 147.5t-101.5 51.5t-101.5 -51.5t-39.5 -147.5q0 -95 40 -146.5t101 -51.5zM851 371q-147 0 -243 95.5t-96 261.5q0 167 96 262.5t243 95.5t243 -95.5t96 -262.5q0 -166 -96 -261.5t-243 -95.5zM364 1471h975q108 0 184 -75
t76 -181v-985q0 -107 -76 -182t-184 -75h-975q-108 0 -184.5 75.5t-76.5 181.5v985q0 106 76.5 181t184.5 75zM1419 1178q0 53 -39 90.5t-94 37.5h-870q-55 0 -94 -37.5t-39 -90.5v-911q0 -52 39.5 -90t93.5 -38h870q55 0 94 37.5t39 90.5v911z" />
    <glyph glyph-name="uni1F13F" unicode="P&#x20de;" 
d="M923 1075q118 0 188 -69.5t70 -181.5q0 -111 -70 -178.5t-190 -67.5h-111v-195h-202v692h315zM986 824q0 102 -98 102h-89v-203h89q98 0 98 101zM364 1471h975q108 0 184 -75t76 -181v-985q0 -107 -76 -182t-184 -75h-975q-108 0 -184.5 75.5t-76.5 181.5v985
q0 106 76.5 181t184.5 75zM1419 1178q0 53 -39 90.5t-94 37.5h-870q-55 0 -94 -37.5t-39 -90.5v-911q0 -52 39.5 -90t93.5 -38h870q55 0 94 37.5t39 90.5v911z" />
    <glyph glyph-name="uni1F140" unicode="Q&#x20de;" 
d="M1170 322h-190l-35 62q-42 -13 -94 -13q-147 0 -243 95.5t-96 261.5q0 167 96 262.5t243 95.5t243 -95.5t96 -262.5q0 -178 -111 -276zM851 530q18 0 31 4l-54 98h110l22 -30q32 48 32 126q0 96 -39.5 147.5t-101.5 51.5t-101.5 -51.5t-39.5 -147.5q0 -95 40 -146.5
t101 -51.5zM364 1471h975q108 0 184 -75t76 -181v-985q0 -107 -76 -182t-184 -75h-975q-108 0 -184.5 75.5t-76.5 181.5v985q0 106 76.5 181t184.5 75zM1419 1178q0 53 -39 90.5t-94 37.5h-870q-55 0 -94 -37.5t-39 -90.5v-911q0 -52 39.5 -90t93.5 -38h870q55 0 94 37.5
t39 90.5v911z" />
    <glyph glyph-name="uni1F141" unicode="R&#x20de;" 
d="M887 1075q131 0 203 -59.5t72 -164.5q0 -72 -37 -122.5t-98 -70.5l149 -275h-208l-117 240h-93v-240h-183v692h312zM758 753h105q47 0 73.5 22.5t26.5 64.5q0 44 -26 67t-72 23h-107v-177zM364 1471h975q108 0 184 -75t76 -181v-985q0 -107 -76 -182t-184 -75h-975
q-108 0 -184.5 75.5t-76.5 181.5v985q0 106 76.5 181t184.5 75zM1419 1178q0 53 -39 90.5t-94 37.5h-870q-55 0 -94 -37.5t-39 -90.5v-911q0 -52 39.5 -90t93.5 -38h870q55 0 94 37.5t39 90.5v911z" />
    <glyph glyph-name="uni1F142" unicode="S&#x20de;" 
d="M552 585h190q5 -33 35.5 -52.5t78.5 -19.5q49 0 78 19t29 51q0 26 -23.5 41t-85.5 27l-90 17q-97 17 -148 67.5t-51 129.5q0 100 78.5 160.5t208.5 60.5q122 0 200 -57t85 -151h-184q-5 32 -31.5 50.5t-69.5 18.5t-69 -18.5t-26 -48.5q0 -48 99 -64l97 -18
q198 -34 198 -198q0 -105 -82 -167t-220 -62q-134 0 -213 57t-84 157zM364 1471h975q108 0 184 -75t76 -181v-985q0 -107 -76 -182t-184 -75h-975q-108 0 -184.5 75.5t-76.5 181.5v985q0 106 76.5 181t184.5 75zM1419 1178q0 53 -39 90.5t-94 37.5h-870q-55 0 -94 -37.5
t-39 -90.5v-911q0 -52 39.5 -90t93.5 -38h870q55 0 94 37.5t39 90.5v911z" />
    <glyph glyph-name="uni1F143" unicode="T&#x20de;" 
d="M953 370h-204v532h-195v161h594v-161h-195v-532zM364 1471h975q108 0 184 -75t76 -181v-985q0 -107 -76 -182t-184 -75h-975q-108 0 -184.5 75.5t-76.5 181.5v985q0 106 76.5 181t184.5 75zM1419 1178q0 53 -39 90.5t-94 37.5h-870q-55 0 -94 -37.5t-39 -90.5v-911
q0 -52 39.5 -90t93.5 -38h870q55 0 94 37.5t39 90.5v911z" />
    <glyph glyph-name="uni1F144" unicode="U&#x20de;" 
d="M851 518q51 0 81 29t30 80v436h196v-454q0 -110 -84.5 -180.5t-222.5 -70.5q-137 0 -221.5 70.5t-84.5 180.5v454h195v-436q0 -51 30.5 -80t80.5 -29zM364 1471h975q108 0 184 -75t76 -181v-985q0 -107 -76 -182t-184 -75h-975q-108 0 -184.5 75.5t-76.5 181.5v985
q0 106 76.5 181t184.5 75zM1419 1178q0 53 -39 90.5t-94 37.5h-870q-55 0 -94 -37.5t-39 -90.5v-911q0 -52 39.5 -90t93.5 -38h870q55 0 94 37.5t39 90.5v911z" />
    <glyph glyph-name="uni1F145" unicode="V&#x20de;" 
d="M718 365l-213 693h220l123 -515h7l123 515h219l-213 -693h-266zM364 1471h975q108 0 184 -75t76 -181v-985q0 -107 -76 -182t-184 -75h-975q-108 0 -184.5 75.5t-76.5 181.5v985q0 106 76.5 181t184.5 75zM1419 1178q0 53 -39 90.5t-94 37.5h-870q-55 0 -94 -37.5
t-39 -90.5v-911q0 -52 39.5 -90t93.5 -38h870q55 0 94 37.5t39 90.5v911z" />
    <glyph glyph-name="uni1F146" unicode="W&#x20de;" 
d="M848 804l-104 -434h-169l-162 693h179l81 -467h7l101 467h141l101 -467h7l81 467h178l-161 -693h-169l-105 434h-6zM364 1471h975q108 0 184 -75t76 -181v-985q0 -107 -76 -182t-184 -75h-975q-108 0 -184.5 75.5t-76.5 181.5v985q0 106 76.5 181t184.5 75zM1419 1178
q0 53 -39 90.5t-94 37.5h-870q-55 0 -94 -37.5t-39 -90.5v-911q0 -52 39.5 -90t93.5 -38h870q55 0 94 37.5t39 90.5v911z" />
    <glyph glyph-name="uni1F147" unicode="X&#x20de;" 
d="M1185 1075l-216 -347l215 -345h-212l-121 228h-7l-121 -228h-216l219 347l-218 345h222l119 -229h7l119 229h210zM364 1471h975q108 0 184 -75t76 -181v-985q0 -107 -76 -182t-184 -75h-975q-108 0 -184.5 75.5t-76.5 181.5v985q0 106 76.5 181t184.5 75zM1419 1178
q0 53 -39 90.5t-94 37.5h-870q-55 0 -94 -37.5t-39 -90.5v-911q0 -52 39.5 -90t93.5 -38h870q55 0 94 37.5t39 90.5v911z" />
    <glyph glyph-name="uni1F148" unicode="Y&#x20de;" 
d="M956 370h-209v229l-238 464h220l120 -276h6l120 276h218l-237 -463v-230zM364 1471h975q108 0 184 -75t76 -181v-985q0 -107 -76 -182t-184 -75h-975q-108 0 -184.5 75.5t-76.5 181.5v985q0 106 76.5 181t184.5 75zM1419 1178q0 53 -39 90.5t-94 37.5h-870
q-55 0 -94 -37.5t-39 -90.5v-911q0 -52 39.5 -90t93.5 -38h870q55 0 94 37.5t39 90.5v911z" />
    <glyph glyph-name="uni1F149" unicode="Z&#x20de;" 
d="M578 383v125l300 403v8h-299v156h540v-126l-300 -402v-8h311v-156h-552zM364 1471h975q108 0 184 -75t76 -181v-985q0 -107 -76 -182t-184 -75h-975q-108 0 -184.5 75.5t-76.5 181.5v985q0 106 76.5 181t184.5 75zM1419 1178q0 53 -39 90.5t-94 37.5h-870
q-55 0 -94 -37.5t-39 -90.5v-911q0 -52 39.5 -90t93.5 -38h870q55 0 94 37.5t39 90.5v911z" />
    <glyph glyph-name="uni1F150" unicode="A&#x20dd;&#x25cf;" 
d="M936 671h-169l81 291h6zM694 377l43 150h229l43 -150h220l-245 754h-265l-245 -754h220zM851 -53q-157 0 -300 61.5t-247 165.5t-165.5 247.5t-61.5 300.5q0 209 104 387.5t282.5 282.5t387.5 104q157 0 300.5 -61.5t247.5 -165.5t165.5 -247t61.5 -300t-61.5 -300.5
t-165.5 -247.5t-247.5 -165.5t-300.5 -61.5z" />
    <glyph glyph-name="uni1F151" unicode="B&#x20dd;&#x25cf;" 
d="M552 352h380q117 0 190.5 58.5t73.5 152.5q0 77 -45.5 126.5t-127.5 61.5v3q65 14 101.5 58t36.5 107q0 87 -63 137t-173 50h-373v-754zM756 964h106q44 0 70 -21t26 -58q0 -83 -117 -83h-85v162zM755 680h113q54 0 83.5 -24t29.5 -67q0 -89 -132 -89h-94v180zM851 -53
q-157 0 -300 61.5t-247 165.5t-165.5 247.5t-61.5 300.5q0 209 104 387.5t282.5 282.5t387.5 104q157 0 300.5 -61.5t247.5 -165.5t165.5 -247t61.5 -300t-61.5 -300.5t-165.5 -247.5t-247.5 -165.5t-300.5 -61.5z" />
    <glyph glyph-name="uni1F152" unicode="C&#x20dd;&#x25cf;" 
d="M988 623q-5 -44 -43 -74t-90 -30q-68 0 -109 55.5t-41 152.5t41 152.5t109 55.5q53 0 91.5 -31.5t43.5 -77.5h206q-8 129 -102.5 209.5t-241.5 80.5q-161 0 -264 -105.5t-103 -283.5t103 -283.5t264 -105.5q145 0 239 79t104 206h-207zM851 -53q-157 0 -300 61.5
t-247 165.5t-165.5 247.5t-61.5 300.5q0 209 104 387.5t282.5 282.5t387.5 104q157 0 300.5 -61.5t247.5 -165.5t165.5 -247t61.5 -300t-61.5 -300.5t-165.5 -247.5t-247.5 -165.5t-300.5 -61.5z" />
    <glyph glyph-name="uni1F153" unicode="D&#x20dd;&#x25cf;" 
d="M549 1106v-754h325q173 0 263 96t90 281t-90 281t-263 96h-325zM759 944h79q88 0 128.5 -51.5t40.5 -164.5q0 -112 -40 -163t-129 -51h-79v430zM851 -53q-157 0 -300 61.5t-247 165.5t-165.5 247.5t-61.5 300.5q0 209 104 387.5t282.5 282.5t387.5 104q157 0 300.5 -61.5
t247.5 -165.5t165.5 -247t61.5 -300t-61.5 -300.5t-165.5 -247.5t-247.5 -165.5t-300.5 -61.5z" />
    <glyph glyph-name="uni1F154" unicode="E&#x20dd;&#x25cf;" 
d="M1130 510h-336v149h314v144h-314v144h336v159h-544v-754h544v158zM851 -53q-157 0 -300 61.5t-247 165.5t-165.5 247.5t-61.5 300.5q0 209 104 387.5t282.5 282.5t387.5 104q157 0 300.5 -61.5t247.5 -165.5t165.5 -247t61.5 -300t-61.5 -300.5t-165.5 -247.5
t-247.5 -165.5t-300.5 -61.5z" />
    <glyph glyph-name="uni1F155" unicode="F&#x20dd;&#x25cf;" 
d="M824 352v270h290v167h-290v151h320v166h-540v-754h220zM851 -53q-157 0 -300 61.5t-247 165.5t-165.5 247.5t-61.5 300.5q0 209 104 387.5t282.5 282.5t387.5 104q157 0 300.5 -61.5t247.5 -165.5t165.5 -247t61.5 -300t-61.5 -300.5t-165.5 -247.5t-247.5 -165.5
t-300.5 -61.5z" />
    <glyph glyph-name="uni1F156" unicode="G&#x20dd;&#x25cf;" 
d="M990 615q0 -46 -35.5 -77t-98.5 -31q-68 0 -109.5 60t-41.5 160q0 99 41 157t110 58q55 0 89 -24t39 -62h212q-16 116 -110 187.5t-232 71.5q-165 0 -267 -107t-102 -281q0 -175 101.5 -281.5t266.5 -106.5q153 0 247 87t94 217v132h-335v-144h131v-16zM851 -53
q-157 0 -300 61.5t-247 165.5t-165.5 247.5t-61.5 300.5q0 209 104 387.5t282.5 282.5t387.5 104q157 0 300.5 -61.5t247.5 -165.5t165.5 -247t61.5 -300t-61.5 -300.5t-165.5 -247.5t-247.5 -165.5t-300.5 -61.5z" />
    <glyph glyph-name="uni1F157" unicode="H&#x20dd;&#x25cf;" 
d="M1188 352v754h-208v-286h-257v286h-208v-754h208v289h257v-289h208zM851 -53q-157 0 -300 61.5t-247 165.5t-165.5 247.5t-61.5 300.5q0 209 104 387.5t282.5 282.5t387.5 104q157 0 300.5 -61.5t247.5 -165.5t165.5 -247t61.5 -300t-61.5 -300.5t-165.5 -247.5
t-247.5 -165.5t-300.5 -61.5z" />
    <glyph glyph-name="uni1F158" unicode="I&#x20dd;&#x25cf;" 
d="M970 352v754h-237v-754h237zM851 -53q-157 0 -300 61.5t-247 165.5t-165.5 247.5t-61.5 300.5q0 209 104 387.5t282.5 282.5t387.5 104q157 0 300.5 -61.5t247.5 -165.5t165.5 -247t61.5 -300t-61.5 -300.5t-165.5 -247.5t-247.5 -165.5t-300.5 -61.5z" />
    <glyph glyph-name="uni1F159" unicode="J&#x20dd;&#x25cf;" 
d="M524 613q0 -130 81 -206.5t217 -76.5q138 0 216.5 76.5t78.5 210.5v479h-224v-476q0 -94 -76 -94q-75 0 -75 87h-218zM851 -53q-157 0 -300 61.5t-247 165.5t-165.5 247.5t-61.5 300.5q0 209 104 387.5t282.5 282.5t387.5 104q157 0 300.5 -61.5t247.5 -165.5t165.5 -247
t61.5 -300t-61.5 -300.5t-165.5 -247.5t-247.5 -165.5t-300.5 -61.5z" />
    <glyph glyph-name="uni1F15A" unicode="K&#x20dd;&#x25cf;" 
d="M1213 1106h-239l-236 -307h-4v307h-203v-754h203v202l64 75l170 -277h251l-257 412zM851 -53q-157 0 -300 61.5t-247 165.5t-165.5 247.5t-61.5 300.5q0 209 104 387.5t282.5 282.5t387.5 104q157 0 300.5 -61.5t247.5 -165.5t165.5 -247t61.5 -300t-61.5 -300.5
t-165.5 -247.5t-247.5 -165.5t-300.5 -61.5z" />
    <glyph glyph-name="uni1F15B" unicode="L&#x20dd;&#x25cf;" 
d="M1152 546h-307v570h-226v-754h533v184zM851 -53q-157 0 -300 61.5t-247 165.5t-165.5 247.5t-61.5 300.5q0 209 104 387.5t282.5 282.5t387.5 104q157 0 300.5 -61.5t247.5 -165.5t165.5 -247t61.5 -300t-61.5 -300.5t-165.5 -247.5t-247.5 -165.5t-300.5 -61.5z" />
    <glyph glyph-name="uni1F15C" unicode="M&#x20dd;&#x25cf;" 
d="M634 352v477h6l151 -434h119l153 432h6v-475h169v754h-208l-177 -496h-3l-176 496h-209v-754h169zM851 -53q-157 0 -300 61.5t-247 165.5t-165.5 247.5t-61.5 300.5q0 209 104 387.5t282.5 282.5t387.5 104q157 0 300.5 -61.5t247.5 -165.5t165.5 -247t61.5 -300
t-61.5 -300.5t-165.5 -247.5t-247.5 -165.5t-300.5 -61.5z" />
    <glyph glyph-name="uni1F15D" unicode="N&#x20dd;&#x25cf;" 
d="M716 352v426h4l299 -426h162v754h-194v-423h-4l-299 423h-162v-754h194zM851 -53q-157 0 -300 61.5t-247 165.5t-165.5 247.5t-61.5 300.5q0 209 104 387.5t282.5 282.5t387.5 104q157 0 300.5 -61.5t247.5 -165.5t165.5 -247t61.5 -300t-61.5 -300.5t-165.5 -247.5
t-247.5 -165.5t-300.5 -61.5z" />
    <glyph glyph-name="uni1F15E" unicode="O&#x20dd;&#x25cf;" 
d="M851 516q-65 0 -107.5 55t-42.5 156t42.5 156t107.5 55t107.5 -54.5t42.5 -156.5t-42.5 -156.5t-107.5 -54.5zM851 338q161 0 265 104t104 285t-104 285t-265 104q-160 0 -264 -104t-104 -285t104 -285t264 -104zM851 -53q-157 0 -300 61.5t-247 165.5t-165.5 247.5
t-61.5 300.5q0 209 104 387.5t282.5 282.5t387.5 104q157 0 300.5 -61.5t247.5 -165.5t165.5 -247t61.5 -300t-61.5 -300.5t-165.5 -247.5t-247.5 -165.5t-300.5 -61.5z" />
    <glyph glyph-name="uni1F15F" unicode="P&#x20dd;&#x25cf;" 
d="M922 1106h-344v-754h225v211h116q130 0 207.5 73t77.5 195q0 124 -77 199.5t-205 75.5zM991 831q0 -53 -28 -81.5t-80 -28.5h-96v222h96q52 0 80 -29.5t28 -82.5zM851 -53q-157 0 -300 61.5t-247 165.5t-165.5 247.5t-61.5 300.5q0 209 104 387.5t282.5 282.5t387.5 104
q157 0 300.5 -61.5t247.5 -165.5t165.5 -247t61.5 -300t-61.5 -300.5t-165.5 -247.5t-247.5 -165.5t-300.5 -61.5z" />
    <glyph glyph-name="uni1F160" unicode="Q&#x20dd;&#x25cf;" 
d="M1202 288l-100 141q118 107 118 298q0 181 -104 285t-265 104q-160 0 -264 -104t-104 -285t104 -285t264 -104q52 0 102 14l35 -64h214zM851 516q-65 0 -107.5 55t-42.5 156t42.5 156t107.5 55t107.5 -54.5t42.5 -156.5q0 -80 -32 -130l-23 31h-126l59 -109
q-13 -3 -28 -3zM851 -53q-157 0 -300 61.5t-247 165.5t-165.5 247.5t-61.5 300.5q0 209 104 387.5t282.5 282.5t387.5 104q157 0 300.5 -61.5t247.5 -165.5t165.5 -247t61.5 -300t-61.5 -300.5t-165.5 -247.5t-247.5 -165.5t-300.5 -61.5z" />
    <glyph glyph-name="uni1F161" unicode="R&#x20dd;&#x25cf;" 
d="M743 755v191h118q52 0 79.5 -25t27.5 -72q0 -44 -28.5 -69t-80.5 -25h-116zM884 1106h-340v-754h205v259h95l125 -259h234l-162 297q68 24 105.5 79.5t37.5 131.5q0 117 -78.5 181.5t-221.5 64.5zM851 -53q-157 0 -300 61.5t-247 165.5t-165.5 247.5t-61.5 300.5
q0 209 104 387.5t282.5 282.5t387.5 104q157 0 300.5 -61.5t247.5 -165.5t165.5 -247t61.5 -300t-61.5 -300.5t-165.5 -247.5t-247.5 -165.5t-300.5 -61.5z" />
    <glyph glyph-name="uni1F162" unicode="S&#x20dd;&#x25cf;" 
d="M525 577q5 -110 91.5 -173t232.5 -63q150 0 239.5 67.5t89.5 181.5q0 181 -217 218l-105 19q-56 9 -80.5 25t-24.5 42q0 32 27 51t74 19q45 0 73.5 -20t33.5 -55h203q-7 104 -91.5 167t-218.5 63q-141 0 -227 -66t-86 -175q0 -87 56 -142.5t161 -73.5l98 -19
q65 -12 90 -27.5t25 -43.5q0 -33 -30.5 -53t-82.5 -20q-51 0 -83.5 21.5t-36.5 56.5h-211zM851 -53q-157 0 -300 61.5t-247 165.5t-165.5 247.5t-61.5 300.5q0 209 104 387.5t282.5 282.5t387.5 104q157 0 300.5 -61.5t247.5 -165.5t165.5 -247t61.5 -300t-61.5 -300.5
t-165.5 -247.5t-247.5 -165.5t-300.5 -61.5z" />
    <glyph glyph-name="uni1F163" unicode="T&#x20dd;&#x25cf;" 
d="M964 330v573h211v180h-647v-180h211v-573h225zM851 -53q-157 0 -300 61.5t-247 165.5t-165.5 247.5t-61.5 300.5q0 209 104 387.5t282.5 282.5t387.5 104q157 0 300.5 -61.5t247.5 -165.5t165.5 -247t61.5 -300t-61.5 -300.5t-165.5 -247.5t-247.5 -165.5t-300.5 -61.5z
" />
    <glyph glyph-name="uni1F164" unicode="U&#x20dd;&#x25cf;" 
d="M851 497q-53 0 -84 30t-31 82v475h-219v-504q0 -119 91.5 -191t242.5 -72t243 72.5t92 190.5v504h-219v-475q0 -52 -31.5 -82t-84.5 -30zM851 -53q-157 0 -300 61.5t-247 165.5t-165.5 247.5t-61.5 300.5q0 209 104 387.5t282.5 282.5t387.5 104q157 0 300.5 -61.5
t247.5 -165.5t165.5 -247t61.5 -300t-61.5 -300.5t-165.5 -247.5t-247.5 -165.5t-300.5 -61.5z" />
    <glyph glyph-name="uni1F165" unicode="V&#x20dd;&#x25cf;" 
d="M995 325l232 753h-241l-132 -553h-6l-132 553h-241l233 -753h287zM851 -53q-157 0 -300 61.5t-247 165.5t-165.5 247.5t-61.5 300.5q0 209 104 387.5t282.5 282.5t387.5 104q157 0 300.5 -61.5t247.5 -165.5t165.5 -247t61.5 -300t-61.5 -300.5t-165.5 -247.5
t-247.5 -165.5t-300.5 -61.5z" />
    <glyph glyph-name="uni1F166" unicode="W&#x20dd;&#x25cf;" 
d="M850 792h3l112 -462h189l177 753h-202l-85 -503h-5l-109 503h-157l-109 -503h-5l-85 503h-202l178 -753h188zM851 -53q-157 0 -300 61.5t-247 165.5t-165.5 247.5t-61.5 300.5q0 209 104 387.5t282.5 282.5t387.5 104q157 0 300.5 -61.5t247.5 -165.5t165.5 -247
t61.5 -300t-61.5 -300.5t-165.5 -247.5t-247.5 -165.5t-300.5 -61.5z" />
    <glyph glyph-name="uni1F167" unicode="X&#x20dd;&#x25cf;" 
d="M1217 1106h-233l-127 -247h-6l-128 247h-246l236 -375l-237 -379h239l129 246h6l131 -246h234l-233 376zM851 -53q-157 0 -300 61.5t-247 165.5t-165.5 247.5t-61.5 300.5q0 209 104 387.5t282.5 282.5t387.5 104q157 0 300.5 -61.5t247.5 -165.5t165.5 -247t61.5 -300
t-61.5 -300.5t-165.5 -247.5t-247.5 -165.5t-300.5 -61.5z" />
    <glyph glyph-name="uni1F168" unicode="Y&#x20dd;&#x25cf;" 
d="M735 337h233v250l260 504h-245l-130 -297h-4l-129 297h-245l260 -504v-250zM851 -53q-157 0 -300 61.5t-247 165.5t-165.5 247.5t-61.5 300.5q0 209 104 387.5t282.5 282.5t387.5 104q157 0 300.5 -61.5t247.5 -165.5t165.5 -247t61.5 -300t-61.5 -300.5t-165.5 -247.5
t-247.5 -165.5t-300.5 -61.5z" />
    <glyph glyph-name="uni1F169" unicode="Z&#x20dd;&#x25cf;" 
d="M553 352h602v176h-328v5l317 433v140h-590v-177h316v-3l-317 -434v-140zM851 -53q-157 0 -300 61.5t-247 165.5t-165.5 247.5t-61.5 300.5q0 209 104 387.5t282.5 282.5t387.5 104q157 0 300.5 -61.5t247.5 -165.5t165.5 -247t61.5 -300t-61.5 -300.5t-165.5 -247.5
t-247.5 -165.5t-300.5 -61.5z" />
    <glyph glyph-name="uni1F170" unicode="A&#x20de;&#x25a0;" 
d="M936 661h-169l81 291h6zM694 367l43 150h229l43 -150h220l-245 754h-265l-245 -754h220zM364 1471h975q108 0 184 -75t76 -181v-985q0 -107 -76 -182t-184 -75h-975q-108 0 -184.5 75.5t-76.5 181.5v985q0 106 76.5 181t184.5 75z" />
    <glyph glyph-name="uni1F171" unicode="B&#x20de;&#x25a0;" 
d="M552 352h380q116 0 190 58.5t74 152.5q0 79 -46 127.5t-127 60.5v3q63 14 100.5 57.5t37.5 107.5q0 88 -63 137.5t-173 49.5h-373v-754zM756 964h106q45 0 70.5 -21.5t25.5 -57.5q0 -83 -117 -83h-85v162zM755 680h113q54 0 83.5 -24t29.5 -67q0 -89 -132 -89h-94v180z
M364 1471h975q108 0 184 -75t76 -181v-985q0 -107 -76 -182t-184 -75h-975q-108 0 -184.5 75.5t-76.5 181.5v985q0 106 76.5 181t184.5 75z" />
    <glyph glyph-name="uni1F172" unicode="C&#x20de;&#x25a0;" 
d="M988 623q-5 -44 -43 -74t-90 -30q-68 0 -109 55.5t-41 152.5t41 152.5t109 55.5q53 0 91.5 -31.5t43.5 -77.5h206q-8 129 -102.5 209.5t-241.5 80.5q-161 0 -264 -105.5t-103 -283.5t103 -283.5t264 -105.5q145 0 239 79t104 206h-207zM364 1471h975q108 0 184 -75
t76 -181v-985q0 -107 -76 -182t-184 -75h-975q-108 0 -184.5 75.5t-76.5 181.5v985q0 106 76.5 181t184.5 75z" />
    <glyph glyph-name="uni1F173" unicode="D&#x20de;&#x25a0;" 
d="M538 1106v-754h324q175 0 264.5 96.5t89.5 280.5t-89.5 280.5t-264.5 96.5h-324zM747 944h80q88 0 128 -52t40 -164q0 -111 -40 -162.5t-128 -51.5h-80v430zM364 1471h975q108 0 184 -75t76 -181v-985q0 -107 -76 -182t-184 -75h-975q-108 0 -184.5 75.5t-76.5 181.5v985
q0 106 76.5 181t184.5 75z" />
    <glyph glyph-name="uni1F174" unicode="E&#x20de;&#x25a0;" 
d="M1130 510h-336v149h314v144h-314v144h336v159h-544v-754h544v158zM364 1471h975q108 0 184 -75t76 -181v-985q0 -107 -76 -182t-184 -75h-975q-108 0 -184.5 75.5t-76.5 181.5v985q0 106 76.5 181t184.5 75z" />
    <glyph glyph-name="uni1F175" unicode="F&#x20de;&#x25a0;" 
d="M824 352v270h290v167h-290v151h320v166h-540v-754h220zM364 1471h975q108 0 184 -75t76 -181v-985q0 -107 -76 -182t-184 -75h-975q-108 0 -184.5 75.5t-76.5 181.5v985q0 106 76.5 181t184.5 75z" />
    <glyph glyph-name="uni1F176" unicode="G&#x20de;&#x25a0;" 
d="M990 615q0 -46 -35.5 -77t-98.5 -31q-68 0 -109.5 60t-41.5 160q0 99 41 157t110 58q55 0 89 -24t39 -62h212q-16 116 -110 187.5t-232 71.5q-165 0 -267 -107t-102 -281q0 -175 101.5 -281.5t266.5 -106.5q153 0 247 87t94 217v132h-335v-144h131v-16zM364 1471h975
q108 0 184 -75t76 -181v-985q0 -107 -76 -182t-184 -75h-975q-108 0 -184.5 75.5t-76.5 181.5v985q0 106 76.5 181t184.5 75z" />
    <glyph glyph-name="uni1F177" unicode="H&#x20de;&#x25a0;" 
d="M1188 352v754h-208v-286h-257v286h-208v-754h208v289h257v-289h208zM364 1471h975q108 0 184 -75t76 -181v-985q0 -107 -76 -182t-184 -75h-975q-108 0 -184.5 75.5t-76.5 181.5v985q0 106 76.5 181t184.5 75z" />
    <glyph glyph-name="uni1F178" unicode="I&#x20de;&#x25a0;" 
d="M970 352v754h-237v-754h237zM364 1471h975q108 0 184 -75t76 -181v-985q0 -107 -76 -182t-184 -75h-975q-108 0 -184.5 75.5t-76.5 181.5v985q0 106 76.5 181t184.5 75z" />
    <glyph glyph-name="uni1F179" unicode="J&#x20de;&#x25a0;" 
d="M524 613q0 -128 80 -205.5t218 -77.5q137 0 216 76t79 211v479h-224v-476q0 -94 -76 -94q-75 0 -75 87h-218zM364 1471h975q108 0 184 -75t76 -181v-985q0 -107 -76 -182t-184 -75h-975q-108 0 -184.5 75.5t-76.5 181.5v985q0 106 76.5 181t184.5 75z" />
    <glyph glyph-name="uni1F17A" unicode="K&#x20de;&#x25a0;" 
d="M1213 1106h-239l-236 -307h-4v307h-203v-754h203v202l64 75l170 -277h251q-23 34 -127 204.5t-130 207.5zM364 1471h975q108 0 184 -75t76 -181v-985q0 -107 -76 -182t-184 -75h-975q-108 0 -184.5 75.5t-76.5 181.5v985q0 106 76.5 181t184.5 75z" />
    <glyph glyph-name="uni1F17B" unicode="L&#x20de;&#x25a0;" 
d="M1157 546h-307v570h-226v-754h533v184zM364 1471h975q108 0 184 -75t76 -181v-985q0 -107 -76 -182t-184 -75h-975q-108 0 -184.5 75.5t-76.5 181.5v985q0 106 76.5 181t184.5 75z" />
    <glyph glyph-name="uni1F17C" unicode="M&#x20de;&#x25a0;" 
d="M634 352v477h6l151 -434h119l153 432h6v-475h169v754h-208l-177 -496h-3l-176 496h-209v-754h169zM364 1471h975q108 0 184 -75t76 -181v-985q0 -107 -76 -182t-184 -75h-975q-108 0 -184.5 75.5t-76.5 181.5v985q0 106 76.5 181t184.5 75z" />
    <glyph glyph-name="uni1F17D" unicode="N&#x20de;&#x25a0;" 
d="M716 352v426h4l299 -426h162v754h-194v-423h-4l-299 423h-162v-754h194zM364 1471h975q108 0 184 -75t76 -181v-985q0 -107 -76 -182t-184 -75h-975q-108 0 -184.5 75.5t-76.5 181.5v985q0 106 76.5 181t184.5 75z" />
    <glyph glyph-name="uni1F17E" unicode="O&#x20de;&#x25a0;" 
d="M851 516q-65 0 -107.5 55t-42.5 156t42.5 156t107.5 55t107.5 -54.5t42.5 -156.5t-42.5 -156.5t-107.5 -54.5zM851 338q161 0 265 104t104 285t-104 285t-265 104q-160 0 -264 -104t-104 -285t104 -285t264 -104zM364 1471h975q108 0 184 -75t76 -181v-985
q0 -107 -76 -182t-184 -75h-975q-108 0 -184.5 75.5t-76.5 181.5v985q0 106 76.5 181t184.5 75z" />
    <glyph glyph-name="uni1F17F" unicode="P&#x20de;&#x25a0;" 
d="M922 1106h-344v-754h225v211h116q131 0 208 74t77 194q0 123 -76.5 199t-205.5 76zM991 831q0 -53 -28 -81.5t-80 -28.5h-96v222h96q51 0 79.5 -29t28.5 -83zM364 1471h975q108 0 184 -75t76 -181v-985q0 -107 -76 -182t-184 -75h-975q-108 0 -184.5 75.5t-76.5 181.5
v985q0 106 76.5 181t184.5 75z" />
    <glyph glyph-name="uni1F180" unicode="Q&#x20de;&#x25a0;" 
d="M1202 288l-100 141q118 107 118 298q0 181 -104 285t-265 104q-160 0 -264 -104t-104 -285t104 -285t264 -104q52 0 102 14l35 -64h214zM851 516q-65 0 -107.5 55t-42.5 156t42.5 156t107.5 55t107.5 -54.5t42.5 -156.5q0 -80 -32 -130l-23 31h-126l59 -109
q-13 -3 -28 -3zM364 1471h975q108 0 184 -75t76 -181v-985q0 -107 -76 -182t-184 -75h-975q-108 0 -184.5 75.5t-76.5 181.5v985q0 106 76.5 181t184.5 75z" />
    <glyph glyph-name="uni1F181" unicode="R&#x20de;&#x25a0;" 
d="M743 755v191h118q51 0 79 -25t28 -72q0 -45 -29 -69.5t-80 -24.5h-116zM884 1106h-340v-754h205v259h95l125 -259h234l-162 297q66 24 104.5 78.5t38.5 132.5q0 117 -78.5 181.5t-221.5 64.5zM364 1471h975q108 0 184 -75t76 -181v-985q0 -107 -76 -182t-184 -75h-975
q-108 0 -184.5 75.5t-76.5 181.5v985q0 106 76.5 181t184.5 75z" />
    <glyph glyph-name="uni1F182" unicode="S&#x20de;&#x25a0;" 
d="M525 577q5 -110 91.5 -173t232.5 -63q150 0 239.5 67.5t89.5 181.5q0 181 -217 218l-105 19q-56 9 -80.5 25t-24.5 42q0 32 27 51t74 19q45 0 73.5 -20t33.5 -55h203q-7 104 -91.5 167t-218.5 63q-141 0 -227 -66t-86 -175q0 -87 56 -142.5t161 -73.5l98 -19
q65 -12 90 -27.5t25 -43.5q0 -33 -30.5 -53t-82.5 -20q-51 0 -83.5 21.5t-36.5 56.5h-211zM364 1471h975q108 0 184 -75t76 -181v-985q0 -107 -76 -182t-184 -75h-975q-108 0 -184.5 75.5t-76.5 181.5v985q0 106 76.5 181t184.5 75z" />
    <glyph glyph-name="uni1F183" unicode="T&#x20de;&#x25a0;" 
d="M964 340v573h211v180h-647v-180h211v-573h225zM364 1471h975q108 0 184 -75t76 -181v-985q0 -107 -76 -182t-184 -75h-975q-108 0 -184.5 75.5t-76.5 181.5v985q0 106 76.5 181t184.5 75z" />
    <glyph glyph-name="uni1F184" unicode="U&#x20de;&#x25a0;" 
d="M851 507q-53 0 -84 30t-31 82v475h-219v-504q0 -119 91.5 -191t242.5 -72t243 72.5t92 190.5v504h-219v-475q0 -52 -31.5 -82t-84.5 -30zM364 1471h975q108 0 184 -75t76 -181v-985q0 -107 -76 -182t-184 -75h-975q-108 0 -184.5 75.5t-76.5 181.5v985q0 106 76.5 181
t184.5 75z" />
    <glyph glyph-name="uni1F185" unicode="V&#x20de;&#x25a0;" 
d="M995 335l232 753h-241l-132 -553h-6l-132 553h-241l233 -753h287zM364 1471h975q108 0 184 -75t76 -181v-985q0 -107 -76 -182t-184 -75h-975q-108 0 -184.5 75.5t-76.5 181.5v985q0 106 76.5 181t184.5 75z" />
    <glyph glyph-name="uni1F186" unicode="W&#x20de;&#x25a0;" 
d="M850 802h3l112 -462h189l177 753h-202l-85 -503h-5l-109 503h-157l-109 -503h-5l-85 503h-202l178 -753h188zM364 1471h975q108 0 184 -75t76 -181v-985q0 -107 -76 -182t-184 -75h-975q-108 0 -184.5 75.5t-76.5 181.5v985q0 106 76.5 181t184.5 75z" />
    <glyph glyph-name="uni1F187" unicode="X&#x20de;&#x25a0;" 
d="M1217 1106h-233l-127 -247h-6l-128 247h-246l236 -375l-237 -379h239l129 246h6l131 -246h234l-233 376zM364 1471h975q108 0 184 -75t76 -181v-985q0 -107 -76 -182t-184 -75h-975q-108 0 -184.5 75.5t-76.5 181.5v985q0 106 76.5 181t184.5 75z" />
    <glyph glyph-name="uni1F188" unicode="Y&#x20de;&#x25a0;" 
d="M735 340h233v250l260 503h-245l-130 -297h-4l-129 297h-245l260 -503v-250zM364 1471h975q108 0 184 -75t76 -181v-985q0 -107 -76 -182t-184 -75h-975q-108 0 -184.5 75.5t-76.5 181.5v985q0 106 76.5 181t184.5 75z" />
    <glyph glyph-name="uni1F189" unicode="Z&#x20de;&#x25a0;" 
d="M553 352h602v176h-328v5l317 433v140h-590v-177h316v-3l-317 -434v-140zM364 1471h975q108 0 184 -75t76 -181v-985q0 -107 -76 -182t-184 -75h-975q-108 0 -184.5 75.5t-76.5 181.5v985q0 106 76.5 181t184.5 75z" />
    <glyph glyph-name="plus.uc.whitecircle" unicode="&#x2b;&#x20dd;" 
d="M938 645v-210h-173v210h-206v165h206v207h173v-207h205v-165h-205zM851 121q163 0 299 80.5t214 218t78 300.5t-78 301t-214 218t-299 80q-122 0 -232 -47.5t-188 -127.5t-124 -191t-46 -233q0 -163 77.5 -300.5t213.5 -218t299 -80.5zM851 -55q-212 0 -390 103.5
t-281 282t-103 390.5q0 159 61 302.5t164 247t246.5 164.5t302.5 61t302.5 -61t247 -164.5t164.5 -247t61 -302.5t-61 -302.5t-164.5 -247.5t-247 -165t-302.5 -61z" />
    <glyph glyph-name="minus.uc.whitecircle" unicode="&#x2212;&#x20dd;" 
d="M1116 640h-530v171h530v-171zM851 121q163 0 299 80.5t214 218t78 300.5t-78 301t-214 218t-299 80q-122 0 -232 -47.5t-188 -127.5t-124 -191t-46 -233q0 -163 77.5 -300.5t213.5 -218t299 -80.5zM851 -55q-212 0 -390 103.5t-281 282t-103 390.5q0 159 61 302.5
t164 247t246.5 164.5t302.5 61t302.5 -61t247 -164.5t164.5 -247t61 -302.5t-61 -302.5t-164.5 -247.5t-247 -165t-302.5 -61z" />
    <glyph glyph-name="multiply.uc.whitecircle" unicode="&#xd7;&#x20dd;" 
d="M851 847l159 155l123 -121l-159 -156l159 -155l-123 -120l-159 155l-160 -155l-121 120l159 155l-160 157l122 120zM851 121q163 0 299 80.5t214 218t78 300.5t-78 301t-214 218t-299 80q-122 0 -232 -47.5t-188 -127.5t-124 -191t-46 -233q0 -163 77.5 -300.5
t213.5 -218t299 -80.5zM851 -55q-212 0 -390 103.5t-281 282t-103 390.5q0 159 61 302.5t164 247t246.5 164.5t302.5 61t302.5 -61t247 -164.5t164.5 -247t61 -302.5t-61 -302.5t-164.5 -247.5t-247 -165t-302.5 -61z" />
    <glyph glyph-name="divide.uc.whitecircle" unicode="&#xf7;&#x20dd;" 
d="M1116 659h-530v133h530v-133zM754 948q0 39 27.5 63.5t69.5 24.5t70.5 -24.5t28.5 -63.5q0 -37 -28.5 -61.5t-70.5 -24.5q-41 0 -69 24.5t-28 61.5zM754 505q0 38 28 63t69 25q42 0 70.5 -25t28.5 -63q0 -37 -28.5 -62t-70.5 -25q-41 0 -69 25t-28 62zM851 121
q163 0 299 80.5t214 218t78 300.5t-78 301t-214 218t-299 80q-122 0 -232 -47.5t-188 -127.5t-124 -191t-46 -233q0 -163 77.5 -300.5t213.5 -218t299 -80.5zM851 -55q-212 0 -390 103.5t-281 282t-103 390.5q0 159 61 302.5t164 247t246.5 164.5t302.5 61t302.5 -61
t247 -164.5t164.5 -247t61 -302.5t-61 -302.5t-164.5 -247.5t-247 -165t-302.5 -61z" />
    <glyph glyph-name="equal.uc.whitecircle" unicode="&#x3d;&#x20dd;" 
d="M1124 519h-545v150h545v-150zM1124 780h-545v150h545v-150zM851 121q163 0 299 80.5t214 218t78 300.5t-78 301t-214 218t-299 80q-122 0 -232 -47.5t-188 -127.5t-124 -191t-46 -233q0 -163 77.5 -300.5t213.5 -218t299 -80.5zM851 -55q-212 0 -390 103.5t-281 282
t-103 390.5q0 159 61 302.5t164 247t246.5 164.5t302.5 61t302.5 -61t247 -164.5t164.5 -247t61 -302.5t-61 -302.5t-164.5 -247.5t-247 -165t-302.5 -61z" />
    <glyph glyph-name="greater.uc.whitecircle" unicode="&#x3e;&#x20dd;" 
d="M1138 777v-109l-521 -252v183l284 123v7l-284 119v188zM851 121q163 0 299 80.5t214 218t78 300.5t-78 301t-214 218t-299 80q-122 0 -232 -47.5t-188 -127.5t-124 -191t-46 -233q0 -163 77.5 -300.5t213.5 -218t299 -80.5zM851 -55q-212 0 -390 103.5t-281 282
t-103 390.5q0 159 61 302.5t164 247t246.5 164.5t302.5 61t302.5 -61t247 -164.5t164.5 -247t61 -302.5t-61 -302.5t-164.5 -247.5t-247 -165t-302.5 -61z" />
    <glyph glyph-name="less.uc.whitecircle" unicode="&#x3c;&#x20dd;" 
d="M565 668v109l521 259v-188l-285 -119v-7l285 -123v-183zM851 121q163 0 299 80.5t214 218t78 300.5t-78 301t-214 218t-299 80q-122 0 -232 -47.5t-188 -127.5t-124 -191t-46 -233q0 -163 77.5 -300.5t213.5 -218t299 -80.5zM851 -55q-212 0 -390 103.5t-281 282
t-103 390.5q0 159 61 302.5t164 247t246.5 164.5t302.5 61t302.5 -61t247 -164.5t164.5 -247t61 -302.5t-61 -302.5t-164.5 -247.5t-247 -165t-302.5 -61z" />
    <glyph glyph-name="numbersign.whitecircle" unicode="&#x30;&#x20dd;" 
d="M1145 779h-99l-20 -97h99l-26 -130h-100l-35 -172h-139l35 172h-93l-35 -172h-139l36 172h-97l26 130h97l20 97h-97l25 130h97l33 164h139l-34 -164h94l32 164h139l-32 -164h99zM804 790l-26 -127h119l25 127h-118zM851 121q163 0 299 80.5t214 218t78 300.5t-78 301
t-214 218t-299 80q-122 0 -232 -47.5t-188 -127.5t-124 -191t-46 -233q0 -163 77.5 -300.5t213.5 -218t299 -80.5zM851 -55q-212 0 -390 103.5t-281 282t-103 390.5q0 159 61 302.5t164 247t246.5 164.5t302.5 61t302.5 -61t247 -164.5t164.5 -247t61 -302.5t-61 -302.5
t-164.5 -247.5t-247 -165t-302.5 -61z" />
    <glyph glyph-name="uni25BC.whitecircle" unicode="&#x25bc;&#x20dd;" 
d="M1179 947l-328 -568l-327 568h655zM851 121q163 0 299 80.5t214 218t78 300.5t-78 301t-214 218t-299 80q-122 0 -232 -47.5t-188 -127.5t-124 -191t-46 -233q0 -163 77.5 -300.5t213.5 -218t299 -80.5zM851 -55q-212 0 -390 103.5t-281 282t-103 390.5q0 159 61 302.5
t164 247t246.5 164.5t302.5 61t302.5 -61t247 -164.5t164.5 -247t61 -302.5t-61 -302.5t-164.5 -247.5t-247 -165t-302.5 -61z" />
    <glyph glyph-name="uni25B2.whitecircle" unicode="&#x25b2;&#x20dd;" 
d="M1179 505h-655l327 568zM851 121q163 0 299 80.5t214 218t78 300.5t-78 301t-214 218t-299 80q-122 0 -232 -47.5t-188 -127.5t-124 -191t-46 -233q0 -163 77.5 -300.5t213.5 -218t299 -80.5zM851 -55q-212 0 -390 103.5t-281 282t-103 390.5q0 159 61 302.5t164 247
t246.5 164.5t302.5 61t302.5 -61t247 -164.5t164.5 -247t61 -302.5t-61 -302.5t-164.5 -247.5t-247 -165t-302.5 -61z" />
    <glyph glyph-name="uni25C0.whitecircle" unicode="&#x25c0;&#x20dd;" 
d="M1070 400l-568 328l568 327v-655zM851 121q163 0 299 80.5t214 218t78 300.5t-78 301t-214 218t-299 80q-122 0 -232 -47.5t-188 -127.5t-124 -191t-46 -233q0 -163 77.5 -300.5t213.5 -218t299 -80.5zM851 -55q-212 0 -390 103.5t-281 282t-103 390.5q0 159 61 302.5
t164 247t246.5 164.5t302.5 61t302.5 -61t247 -164.5t164.5 -247t61 -302.5t-61 -302.5t-164.5 -247.5t-247 -165t-302.5 -61z" />
    <glyph glyph-name="uni25B6.whitecircle" unicode="&#x25b6;&#x20dd;" 
d="M633 400v655l568 -327zM851 121q163 0 299 80.5t214 218t78 300.5t-78 301t-214 218t-299 80q-122 0 -232 -47.5t-188 -127.5t-124 -191t-46 -233q0 -163 77.5 -300.5t213.5 -218t299 -80.5zM851 -55q-212 0 -390 103.5t-281 282t-103 390.5q0 159 61 302.5t164 247
t246.5 164.5t302.5 61t302.5 -61t247 -164.5t164.5 -247t61 -302.5t-61 -302.5t-164.5 -247.5t-247 -165t-302.5 -61z" />
    <glyph glyph-name="question.whitecircle" unicode="&#x3f;&#x20dd;" 
d="M728 461q0 42 31 66t84 24q52 0 83 -24.5t31 -65.5t-30.5 -65t-83.5 -24t-84 24t-31 65zM751 605q-2 5 -2 32q-3 91 87 150q45 29 63.5 48.5t18.5 44.5q0 30 -19.5 46t-49.5 16q-32 0 -51.5 -20.5t-20.5 -51.5h-175q-1 108 71 162t192 54q110 0 179.5 -53t69.5 -145
q0 -57 -26 -94t-76 -70q-59 -40 -75.5 -57.5t-16.5 -47.5v-14h-169zM851 121q163 0 299 80.5t214 218t78 300.5t-78 301t-214 218t-299 80q-122 0 -232 -47.5t-188 -127.5t-124 -191t-46 -233q0 -163 77.5 -300.5t213.5 -218t299 -80.5zM851 -55q-212 0 -390 103.5t-281 282
t-103 390.5q0 159 61 302.5t164 247t246.5 164.5t302.5 61t302.5 -61t247 -164.5t164.5 -247t61 -302.5t-61 -302.5t-164.5 -247.5t-247 -165t-302.5 -61z" />
    <glyph glyph-name="exclam.whitecircle" unicode="&#x21;&#x20dd;" 
d="M740 461q0 42 31 66t84 24t83.5 -24.5t30.5 -65.5t-30.5 -65t-83.5 -24t-84 24t-31 65zM749 1075h213l-23 -456h-168zM851 121q163 0 299 80.5t214 218t78 300.5t-78 301t-214 218t-299 80q-122 0 -232 -47.5t-188 -127.5t-124 -191t-46 -233q0 -163 77.5 -300.5
t213.5 -218t299 -80.5zM851 -55q-212 0 -390 103.5t-281 282t-103 390.5q0 159 61 302.5t164 247t246.5 164.5t302.5 61t302.5 -61t247 -164.5t164.5 -247t61 -302.5t-61 -302.5t-164.5 -247.5t-247 -165t-302.5 -61z" />
    <glyph glyph-name="uni2717.whitecircle" unicode="&#x2717;&#x20dd;" 
d="M855 843l226 225l119 -119l-225 -225l225 -226l-119 -120l-226 225l-227 -225l-119 119l226 227l-225 226l118 119zM851 121q163 0 299 80.5t214 218t78 300.5t-78 301t-214 218t-299 80q-122 0 -232 -47.5t-188 -127.5t-124 -191t-46 -233q0 -163 77.5 -300.5
t213.5 -218t299 -80.5zM851 -55q-212 0 -390 103.5t-281 282t-103 390.5q0 159 61 302.5t164 247t246.5 164.5t302.5 61t302.5 -61t247 -164.5t164.5 -247t61 -302.5t-61 -302.5t-164.5 -247.5t-247 -165t-302.5 -61z" />
    <glyph glyph-name="uni2713.whitecircle" unicode="&#x2713;&#x20dd;" 
d="M1279 911l-543 -533l-311 306l125 122l188 -187l419 418zM851 121q163 0 299 80.5t214 218t78 300.5t-78 301t-214 218t-299 80q-122 0 -232 -47.5t-188 -127.5t-124 -191t-46 -233q0 -163 77.5 -300.5t213.5 -218t299 -80.5zM851 -55q-212 0 -390 103.5t-281 282
t-103 390.5q0 159 61 302.5t164 247t246.5 164.5t302.5 61t302.5 -61t247 -164.5t164.5 -247t61 -302.5t-61 -302.5t-164.5 -247.5t-247 -165t-302.5 -61z" />
    <glyph glyph-name="zero.whitesquare" unicode="&#x30;&#x20de;" 
d="M851 526q48 0 75.5 50t27.5 152t-27.5 152t-75.5 50q-102 0 -102 -202t102 -202zM849 371q-132 0 -211 95t-79 262q0 166 79 261.5t211 95.5t213 -95.5t81 -261.5t-80.5 -261.5t-213.5 -95.5zM364 1471h975q108 0 184 -75t76 -181v-985q0 -107 -76 -182t-184 -75h-975
q-108 0 -184.5 75.5t-76.5 181.5v985q0 106 76.5 181t184.5 75zM1419 1178q0 53 -39 90.5t-94 37.5h-870q-55 0 -94 -37.5t-39 -90.5v-911q0 -52 39.5 -90t93.5 -38h870q55 0 94 37.5t39 90.5v911z" />
    <glyph glyph-name="one.whitesquare" unicode="&#x31;&#x20de;" 
d="M991 383h-201v517h-7l-160 -108v171l167 112h201v-692zM364 1471h975q108 0 184 -75t76 -181v-985q0 -107 -76 -182t-184 -75h-975q-108 0 -184.5 75.5t-76.5 181.5v985q0 106 76.5 181t184.5 75zM1419 1178q0 53 -39 90.5t-94 37.5h-870q-55 0 -94 -37.5t-39 -90.5v-911
q0 -52 39.5 -90t93.5 -38h870q55 0 94 37.5t39 90.5v911z" />
    <glyph glyph-name="two.whitesquare" unicode="&#x32;&#x20de;" 
d="M767 848h-186v3q0 102 72.5 168.5t199.5 66.5q118 0 190.5 -57.5t72.5 -147.5q0 -56 -32 -104.5t-99 -110.5l-122 -121v-7h264v-156h-534v123l249 239q40 38 58.5 64.5t18.5 55.5q0 30 -20.5 49t-53.5 19q-37 0 -58 -23t-20 -58v-3zM364 1471h975q108 0 184 -75t76 -181
v-985q0 -107 -76 -182t-184 -75h-975q-108 0 -184.5 75.5t-76.5 181.5v985q0 106 76.5 181t184.5 75zM1419 1178q0 53 -39 90.5t-94 37.5h-870q-55 0 -94 -37.5t-39 -90.5v-911q0 -52 39.5 -90t93.5 -38h870q55 0 94 37.5t39 90.5v911z" />
    <glyph glyph-name="three.whitesquare" unicode="&#x33;&#x20de;" 
d="M776 662v145h70q37 0 60.5 20t23.5 52q0 29 -23.5 47.5t-60.5 18.5q-40 0 -64.5 -22t-26.5 -55h-183q4 102 75.5 160t201.5 58q123 0 196.5 -51t75.5 -134q1 -57 -40.5 -99.5t-91.5 -49.5v-10q60 -5 104.5 -49t45.5 -114q1 -95 -80 -151.5t-212 -56.5q-128 0 -204.5 61
t-78.5 158h183q2 -32 29 -52.5t70 -21.5q45 0 72 20.5t27 53.5q-1 33 -27 52.5t-70 19.5h-72zM364 1471h975q108 0 184 -75t76 -181v-985q0 -107 -76 -182t-184 -75h-975q-108 0 -184.5 75.5t-76.5 181.5v985q0 106 76.5 181t184.5 75zM1419 1178q0 53 -39 90.5t-94 37.5
h-870q-55 0 -94 -37.5t-39 -90.5v-911q0 -52 39.5 -90t93.5 -38h870q55 0 94 37.5t39 90.5v911z" />
    <glyph glyph-name="four.whitesquare" unicode="&#x34;&#x20de;" 
d="M785 1075h271v-431h95v-148h-95v-113h-168v113h-346v151q75 147 243 428zM714 644h174v308h-7q-94 -155 -167 -306v-2zM364 1471h975q108 0 184 -75t76 -181v-985q0 -107 -76 -182t-184 -75h-975q-108 0 -184.5 75.5t-76.5 181.5v985q0 106 76.5 181t184.5 75zM1419 1178
q0 53 -39 90.5t-94 37.5h-870q-55 0 -94 -37.5t-39 -90.5v-911q0 -52 39.5 -90t93.5 -38h870q55 0 94 37.5t39 90.5v911z" />
    <glyph glyph-name="five.whitesquare" unicode="&#x35;&#x20de;" 
d="M582 589h185q6 -31 33 -48.5t62 -17.5q40 0 68.5 28t28.5 72q0 41 -28.5 67.5t-69.5 26.5q-61 0 -88 -49h-177l27 412h481v-142h-330l-12 -152h9q16 26 56.5 45.5t93.5 19.5q101 0 165 -60.5t64 -162.5q0 -115 -78.5 -183.5t-211.5 -68.5q-122 0 -199 59.5t-79 153.5z
M364 1471h975q108 0 184 -75t76 -181v-985q0 -107 -76 -182t-184 -75h-975q-108 0 -184.5 75.5t-76.5 181.5v985q0 106 76.5 181t184.5 75zM1419 1178q0 53 -39 90.5t-94 37.5h-870q-55 0 -94 -37.5t-39 -90.5v-911q0 -52 39.5 -90t93.5 -38h870q55 0 94 37.5t39 90.5v911z
" />
    <glyph glyph-name="six.whitesquare" unicode="&#x36;&#x20de;" 
d="M1131 896h-181q-21 48 -83 48q-57 0 -89.5 -55.5t-26.5 -143.5h8q42 90 163 90q97 0 160.5 -58t63.5 -158q0 -114 -78 -181t-206 -67q-170 0 -249 125q-55 87 -55 228q0 175 82 268.5t226 93.5q111 0 184 -55.5t81 -134.5zM764 614q0 -44 27.5 -70.5t69.5 -26.5t69 25.5
t27 70.5q0 44 -28 69.5t-68 25.5q-43 0 -70 -26.5t-27 -67.5zM364 1471h975q108 0 184 -75t76 -181v-985q0 -107 -76 -182t-184 -75h-975q-108 0 -184.5 75.5t-76.5 181.5v985q0 106 76.5 181t184.5 75zM1419 1178q0 53 -39 90.5t-94 37.5h-870q-55 0 -94 -37.5t-39 -90.5
v-911q0 -52 39.5 -90t93.5 -38h870q55 0 94 37.5t39 90.5v911z" />
    <glyph glyph-name="seven.whitesquare" unicode="&#x37;&#x20de;" 
d="M584 1075h543v-157l-274 -535h-213l284 529v8h-340v155zM364 1471h975q108 0 184 -75t76 -181v-985q0 -107 -76 -182t-184 -75h-975q-108 0 -184.5 75.5t-76.5 181.5v985q0 106 76.5 181t184.5 75zM1419 1178q0 53 -39 90.5t-94 37.5h-870q-55 0 -94 -37.5t-39 -90.5
v-911q0 -52 39.5 -90t93.5 -38h870q55 0 94 37.5t39 90.5v911z" />
    <glyph glyph-name="eight.whitesquare" unicode="&#x38;&#x20de;" 
d="M851 502q44 0 73 25.5t29 64.5t-28.5 64.5t-73.5 25.5q-44 0 -73 -26t-29 -64q0 -39 29 -64.5t73 -25.5zM851 802q37 0 60.5 22t23.5 55t-24 54.5t-60 21.5t-60 -21.5t-24 -54.5t24 -55t60 -22zM850 371q-139 0 -221.5 56t-82.5 150q0 66 42.5 111t113.5 56v8
q-127 37 -127 149q0 83 75.5 134t200.5 51t200.5 -51t75.5 -134q0 -114 -127 -149v-8q71 -10 113.5 -55.5t42.5 -110.5q0 -95 -83 -151t-223 -56zM364 1471h975q108 0 184 -75t76 -181v-985q0 -107 -76 -182t-184 -75h-975q-108 0 -184.5 75.5t-76.5 181.5v985
q0 106 76.5 181t184.5 75zM1419 1178q0 53 -39 90.5t-94 37.5h-870q-55 0 -94 -37.5t-39 -90.5v-911q0 -52 39.5 -90t93.5 -38h870q55 0 94 37.5t39 90.5v911z" />
    <glyph glyph-name="nine.whitesquare" unicode="&#x39;&#x20de;" 
d="M557 841q0 110 80.5 178t205.5 68q138 0 219.5 -87t81.5 -265q0 -176 -79.5 -270t-228.5 -94q-111 0 -182.5 54.5t-80.5 134.5h183q20 -46 81 -46q63 0 94 56.5t23 141.5h-7q-18 -41 -59.5 -66t-101.5 -25q-101 0 -165 59t-64 161zM939 843q0 45 -27 71.5t-69 26.5
q-41 0 -68.5 -26.5t-27.5 -70.5t27.5 -70t69.5 -26q41 0 68 25.5t27 69.5zM364 1471h975q108 0 184 -75t76 -181v-985q0 -107 -76 -182t-184 -75h-975q-108 0 -184.5 75.5t-76.5 181.5v985q0 106 76.5 181t184.5 75zM1419 1178q0 53 -39 90.5t-94 37.5h-870q-55 0 -94 -37.5
t-39 -90.5v-911q0 -52 39.5 -90t93.5 -38h870q55 0 94 37.5t39 90.5v911z" />
    <glyph glyph-name="plus.uc.whitesquare" unicode="&#x2b;&#x20de;" 
d="M938 645v-210h-173v210h-206v165h206v207h173v-207h205v-165h-205zM364 1471h975q108 0 184 -75t76 -181v-985q0 -107 -76 -182t-184 -75h-975q-108 0 -184.5 75.5t-76.5 181.5v985q0 106 76.5 181t184.5 75zM1419 1178q0 53 -39 90.5t-94 37.5h-870q-55 0 -94 -37.5
t-39 -90.5v-911q0 -52 39.5 -90t93.5 -38h870q55 0 94 37.5t39 90.5v911z" />
    <glyph glyph-name="minus.uc.whitesquare" unicode="&#x2212;&#x20de;" 
d="M1116 640h-530v171h530v-171zM364 1471h975q108 0 184 -75t76 -181v-985q0 -107 -76 -182t-184 -75h-975q-108 0 -184.5 75.5t-76.5 181.5v985q0 106 76.5 181t184.5 75zM1419 1178q0 53 -39 90.5t-94 37.5h-870q-55 0 -94 -37.5t-39 -90.5v-911q0 -52 39.5 -90t93.5 -38
h870q55 0 94 37.5t39 90.5v911z" />
    <glyph glyph-name="multiply.uc.whitesquare" unicode="&#xd7;&#x20de;" 
d="M851 847l159 156l123 -121l-160 -156l160 -156l-123 -120l-159 156l-160 -156l-122 120l159 156l-159 156l122 121zM364 1471h975q108 0 184 -75t76 -181v-985q0 -107 -76 -182t-184 -75h-975q-108 0 -184.5 75.5t-76.5 181.5v985q0 106 76.5 181t184.5 75zM1419 1178
q0 53 -39 90.5t-94 37.5h-870q-55 0 -94 -37.5t-39 -90.5v-911q0 -52 39.5 -90t93.5 -38h870q55 0 94 37.5t39 90.5v911z" />
    <glyph glyph-name="divide.uc.whitesquare" unicode="&#xf7;&#x20de;" 
d="M1116 659h-530v133h530v-133zM754 948q0 39 27.5 63.5t69.5 24.5t70.5 -24.5t28.5 -63.5q0 -37 -28.5 -61.5t-70.5 -24.5q-41 0 -69 24.5t-28 61.5zM754 505q0 38 28 63t69 25q42 0 70.5 -25t28.5 -63q0 -37 -28.5 -62t-70.5 -25q-41 0 -69 25t-28 62zM364 1471h975
q108 0 184 -75t76 -181v-985q0 -107 -76 -182t-184 -75h-975q-108 0 -184.5 75.5t-76.5 181.5v985q0 106 76.5 181t184.5 75zM1419 1178q0 53 -39 90.5t-94 37.5h-870q-55 0 -94 -37.5t-39 -90.5v-911q0 -52 39.5 -90t93.5 -38h870q55 0 94 37.5t39 90.5v911z" />
    <glyph glyph-name="equal.uc.whitesquare" unicode="&#x3d;&#x20de;" 
d="M1124 519h-545v150h545v-150zM1124 780h-545v150h545v-150zM364 1471h975q108 0 184 -75t76 -181v-985q0 -107 -76 -182t-184 -75h-975q-108 0 -184.5 75.5t-76.5 181.5v985q0 106 76.5 181t184.5 75zM1419 1178q0 53 -39 90.5t-94 37.5h-870q-55 0 -94 -37.5t-39 -90.5
v-911q0 -52 39.5 -90t93.5 -38h870q55 0 94 37.5t39 90.5v911z" />
    <glyph glyph-name="greater.uc.whitesquare" unicode="&#x3e;&#x20de;" 
d="M1138 777v-109l-521 -252v183l284 123v7l-284 119v188zM364 1471h975q108 0 184 -75t76 -181v-985q0 -107 -76 -182t-184 -75h-975q-108 0 -184.5 75.5t-76.5 181.5v985q0 106 76.5 181t184.5 75zM1419 1178q0 53 -39 90.5t-94 37.5h-870q-55 0 -94 -37.5t-39 -90.5v-911
q0 -52 39.5 -90t93.5 -38h870q55 0 94 37.5t39 90.5v911z" />
    <glyph glyph-name="less.uc.whitesquare" unicode="&#x3c;&#x20de;" 
d="M565 668v109l521 259v-188l-285 -119v-7l285 -123v-183zM364 1471h975q108 0 184 -75t76 -181v-985q0 -107 -76 -182t-184 -75h-975q-108 0 -184.5 75.5t-76.5 181.5v985q0 106 76.5 181t184.5 75zM1419 1178q0 53 -39 90.5t-94 37.5h-870q-55 0 -94 -37.5t-39 -90.5
v-911q0 -52 39.5 -90t93.5 -38h870q55 0 94 37.5t39 90.5v911z" />
    <glyph glyph-name="numbersign.whitesquare" unicode="&#x23;&#x20de;" 
d="M1145 779h-99l-20 -97h99l-26 -130h-100l-35 -172h-139l35 172h-93l-35 -172h-139l36 172h-97l26 130h97l20 97h-97l25 130h97l33 164h139l-34 -164h94l32 164h139l-32 -164h99zM804 790l-26 -127h119l25 127h-118zM364 1471h975q108 0 184 -75t76 -181v-985
q0 -107 -76 -182t-184 -75h-975q-108 0 -184.5 75.5t-76.5 181.5v985q0 106 76.5 181t184.5 75zM1419 1178q0 53 -39 90.5t-94 37.5h-870q-55 0 -94 -37.5t-39 -90.5v-911q0 -52 39.5 -90t93.5 -38h870q55 0 94 37.5t39 90.5v911z" />
    <glyph glyph-name="uni25BC.whitesquare" unicode="&#x25bc;&#x20de;" 
d="M1180 947l-328 -568l-328 568h656zM364 1471h975q108 0 184 -75t76 -181v-985q0 -107 -76 -182t-184 -75h-975q-108 0 -184.5 75.5t-76.5 181.5v985q0 106 76.5 181t184.5 75zM1419 1178q0 53 -39 90.5t-94 37.5h-870q-55 0 -94 -37.5t-39 -90.5v-911q0 -52 39.5 -90
t93.5 -38h870q55 0 94 37.5t39 90.5v911z" />
    <glyph glyph-name="uni25B2.whitesquare" unicode="&#x25b2;&#x20de;" 
d="M1179 505h-655l327 568zM364 1471h975q108 0 184 -75t76 -181v-985q0 -107 -76 -182t-184 -75h-975q-108 0 -184.5 75.5t-76.5 181.5v985q0 106 76.5 181t184.5 75zM1419 1178q0 53 -39 90.5t-94 37.5h-870q-55 0 -94 -37.5t-39 -90.5v-911q0 -52 39.5 -90t93.5 -38h870
q55 0 94 37.5t39 90.5v911z" />
    <glyph glyph-name="uni25C0.whitesquare" unicode="&#x25c0;&#x20de;" 
d="M1070 400l-568 328l568 327v-655zM364 1471h975q108 0 184 -75t76 -181v-985q0 -107 -76 -182t-184 -75h-975q-108 0 -184.5 75.5t-76.5 181.5v985q0 106 76.5 181t184.5 75zM1419 1178q0 53 -39 90.5t-94 37.5h-870q-55 0 -94 -37.5t-39 -90.5v-911q0 -52 39.5 -90
t93.5 -38h870q55 0 94 37.5t39 90.5v911z" />
    <glyph glyph-name="uni25B6.whitesquare" unicode="&#x25b6;&#x20de;" 
d="M633 400v655l568 -327zM364 1471h975q108 0 184 -75t76 -181v-985q0 -107 -76 -182t-184 -75h-975q-108 0 -184.5 75.5t-76.5 181.5v985q0 106 76.5 181t184.5 75zM1419 1178q0 53 -39 90.5t-94 37.5h-870q-55 0 -94 -37.5t-39 -90.5v-911q0 -52 39.5 -90t93.5 -38h870
q55 0 94 37.5t39 90.5v911z" />
    <glyph glyph-name="question.whitesquare" unicode="&#x3f;&#x20de;" 
d="M728 461q0 42 31 66t84 24q52 0 83 -24.5t31 -65.5t-30.5 -65t-83.5 -24t-84 24t-31 65zM602 870q-1 108 71 162t192 54q110 0 179.5 -53t69.5 -145q0 -57 -26 -94t-76 -70q-59 -40 -75.5 -57.5t-16.5 -47.5v-14h-169q-2 5 -2 32q-3 91 87 150q45 29 63.5 48.5t18.5 44.5
q0 30 -19.5 46t-49.5 16q-32 0 -51.5 -20.5t-20.5 -51.5h-175zM364 1471h975q108 0 184 -75t76 -181v-985q0 -107 -76 -182t-184 -75h-975q-108 0 -184.5 75.5t-76.5 181.5v985q0 106 76.5 181t184.5 75zM1419 1178q0 53 -39 90.5t-94 37.5h-870q-55 0 -94 -37.5t-39 -90.5
v-911q0 -52 39.5 -90t93.5 -38h870q55 0 94 37.5t39 90.5v911z" />
    <glyph glyph-name="exclam.whitesquare" unicode="&#x21;&#x20de;" 
d="M740 461q0 42 31 66t84 24t83.5 -24.5t30.5 -65.5t-30.5 -65t-83.5 -24t-84 24t-31 65zM749 1075h213l-23 -456h-168zM364 1471h975q108 0 184 -75t76 -181v-985q0 -107 -76 -182t-184 -75h-975q-108 0 -184.5 75.5t-76.5 181.5v985q0 106 76.5 181t184.5 75zM1419 1178
q0 53 -39 90.5t-94 37.5h-870q-55 0 -94 -37.5t-39 -90.5v-911q0 -52 39.5 -90t93.5 -38h870q55 0 94 37.5t39 90.5v911z" />
    <glyph glyph-name="uni2717.whitesquare" unicode="&#x2717;&#x20de;" 
d="M855 843l226 225l119 -119l-225 -225l225 -226l-119 -120l-226 225l-227 -225l-119 119l226 227l-225 226l118 119zM364 1471h975q108 0 184 -75t76 -181v-985q0 -107 -76 -182t-184 -75h-975q-108 0 -184.5 75.5t-76.5 181.5v985q0 106 76.5 181t184.5 75zM1419 1178
q0 53 -39 90.5t-94 37.5h-870q-55 0 -94 -37.5t-39 -90.5v-911q0 -52 39.5 -90t93.5 -38h870q55 0 94 37.5t39 90.5v911z" />
    <glyph glyph-name="uni2713.whitesquare" unicode="&#x2713;&#x20de;" 
d="M1279 911l-543 -533l-311 306l125 122l188 -187l419 418zM364 1471h975q108 0 184 -75t76 -181v-985q0 -107 -76 -182t-184 -75h-975q-108 0 -184.5 75.5t-76.5 181.5v985q0 106 76.5 181t184.5 75zM1419 1178q0 53 -39 90.5t-94 37.5h-870q-55 0 -94 -37.5t-39 -90.5
v-911q0 -52 39.5 -90t93.5 -38h870q55 0 94 37.5t39 90.5v911z" />
    <glyph glyph-name="plus.uc.blackcircle" unicode="&#x2b;&#x20dd;&#x25cf;" 
d="M947 636h222v182h-222v224h-192v-224h-222v-182h222v-227h192v227zM851 -53q-157 0 -300 61.5t-247 165.5t-165.5 247.5t-61.5 300.5q0 209 104 387.5t282.5 282.5t387.5 104q157 0 300.5 -61.5t247.5 -165.5t165.5 -247t61.5 -300t-61.5 -300.5t-165.5 -247.5
t-247.5 -165.5t-300.5 -61.5z" />
    <glyph glyph-name="minus.uc.blackcircle" unicode="&#x2212;&#x20dd;&#x25cf;" 
d="M1140 630v189h-578v-189h578zM851 -53q-157 0 -300 61.5t-247 165.5t-165.5 247.5t-61.5 300.5q0 209 104 387.5t282.5 282.5t387.5 104q157 0 300.5 -61.5t247.5 -165.5t165.5 -247t61.5 -300t-61.5 -300.5t-165.5 -247.5t-247.5 -165.5t-300.5 -61.5z" />
    <glyph glyph-name="multiply.uc.blackcircle" unicode="&#xd7;&#x20dd;&#x25cf;" 
d="M851 859l-173 169l-135 -134l172 -169l-172 -168l135 -133l173 168l172 -168l136 133l-173 168l173 169l-136 134zM851 -53q-157 0 -300 61.5t-247 165.5t-165.5 247.5t-61.5 300.5q0 209 104 387.5t282.5 282.5t387.5 104q157 0 300.5 -61.5t247.5 -165.5t165.5 -247
t61.5 -300t-61.5 -300.5t-165.5 -247.5t-247.5 -165.5t-300.5 -61.5z" />
    <glyph glyph-name="divide.uc.blackcircle" unicode="&#xf7;&#x20dd;&#x25cf;" 
d="M743 965q0 -41 31 -68.5t77 -27.5t77.5 27.5t31.5 68.5q0 43 -31 70.5t-78 27.5q-46 0 -77 -28t-31 -70zM1140 650v149h-578v-149h578zM743 487q0 -42 31 -69t77 -27q47 0 78 27t31 69t-31 69.5t-78 27.5q-46 0 -77 -27.5t-31 -69.5zM851 -53q-157 0 -300 61.5
t-247 165.5t-165.5 247.5t-61.5 300.5q0 209 104 387.5t282.5 282.5t387.5 104q157 0 300.5 -61.5t247.5 -165.5t165.5 -247t61.5 -300t-61.5 -300.5t-165.5 -247.5t-247.5 -165.5t-300.5 -61.5z" />
    <glyph glyph-name="equal.uc.blackcircle" unicode="&#x3d;&#x20dd;&#x25cf;" 
d="M1147 784v165h-592v-165h592zM1147 499v164h-592v-164h592zM851 -53q-157 0 -300 61.5t-247 165.5t-165.5 247.5t-61.5 300.5q0 209 104 387.5t282.5 282.5t387.5 104q157 0 300.5 -61.5t247.5 -165.5t165.5 -247t61.5 -300t-61.5 -300.5t-165.5 -247.5t-247.5 -165.5
t-300.5 -61.5z" />
    <glyph glyph-name="greater.uc.blackcircle" unicode="&#x3e;&#x20dd;&#x25cf;" 
d="M1158 782l-569 283v-199l308 -141v-3l-308 -143v-194l569 276v121zM851 -53q-157 0 -300 61.5t-247 165.5t-165.5 247.5t-61.5 300.5q0 209 104 387.5t282.5 282.5t387.5 104q157 0 300.5 -61.5t247.5 -165.5t165.5 -247t61.5 -300t-61.5 -300.5t-165.5 -247.5
t-247.5 -165.5t-300.5 -61.5z" />
    <glyph glyph-name="less.uc.blackcircle" unicode="&#x3c;&#x20dd;&#x25cf;" 
d="M541 661l568 -276v194l-307 143v3l307 141v199l-568 -283v-121zM851 -53q-157 0 -300 61.5t-247 165.5t-165.5 247.5t-61.5 300.5q0 209 104 387.5t282.5 282.5t387.5 104q157 0 300.5 -61.5t247.5 -165.5t165.5 -247t61.5 -300t-61.5 -300.5t-165.5 -247.5
t-247.5 -165.5t-300.5 -61.5z" />
    <glyph glyph-name="numbersign.blackcircle" unicode="&#x23;&#x20dd;&#x25cf;" 
d="M795 799h135l-29 -145h-135zM1169 780l29 147h-108l35 176h-158l-34 -176h-93l37 176h-159l-34 -176h-105l-29 -147h105l-20 -97h-105l-29 -148h103l-37 -185h157l39 185h91l-38 -185h158l37 185h109l29 148h-106q3 23 19 97h107zM851 -53q-157 0 -300 61.5t-247 165.5
t-165.5 247.5t-61.5 300.5q0 209 104 387.5t282.5 282.5t387.5 104q157 0 300.5 -61.5t247.5 -165.5t165.5 -247t61.5 -300t-61.5 -300.5t-165.5 -247.5t-247.5 -165.5t-300.5 -61.5z" />
    <glyph glyph-name="uni25BC.blackcircle" unicode="&#x25bc;&#x20dd;&#x25cf;" 
d="M1201 981h-698l348 -604zM851 -53q-157 0 -300 61.5t-247 165.5t-165.5 247.5t-61.5 300.5q0 209 104 387.5t282.5 282.5t387.5 104q157 0 300.5 -61.5t247.5 -165.5t165.5 -247t61.5 -300t-61.5 -300.5t-165.5 -247.5t-247.5 -165.5t-300.5 -61.5z" />
    <glyph glyph-name="uni25B2.blackcircle" unicode="&#x25b2;&#x20dd;&#x25cf;" 
d="M1201 488l-350 604l-348 -604h698zM851 -53q-157 0 -300 61.5t-247 165.5t-165.5 247.5t-61.5 300.5q0 209 104 387.5t282.5 282.5t387.5 104q157 0 300.5 -61.5t247.5 -165.5t165.5 -247t61.5 -300t-61.5 -300.5t-165.5 -247.5t-247.5 -165.5t-300.5 -61.5z" />
    <glyph glyph-name="uni25C0.blackcircle" unicode="&#x25c0;&#x20dd;&#x25cf;" 
d="M1088 387v696l-605 -348zM851 -53q-157 0 -300 61.5t-247 165.5t-165.5 247.5t-61.5 300.5q0 209 104 387.5t282.5 282.5t387.5 104q157 0 300.5 -61.5t247.5 -165.5t165.5 -247t61.5 -300t-61.5 -300.5t-165.5 -247.5t-247.5 -165.5t-300.5 -61.5z" />
    <glyph glyph-name="uni25B6.blackcircle" unicode="&#x25b6;&#x20dd;&#x25cf;" 
d="M614 387l605 348l-605 348v-696zM851 -53q-157 0 -300 61.5t-247 165.5t-165.5 247.5t-61.5 300.5q0 209 104 387.5t282.5 282.5t387.5 104q157 0 300.5 -61.5t247.5 -165.5t165.5 -247t61.5 -300t-61.5 -300.5t-165.5 -247.5t-247.5 -165.5t-300.5 -61.5z" />
    <glyph glyph-name="question.blackcircle" unicode="&#x3f;&#x20dd;&#x25cf;" 
d="M711 429q0 -47 34 -74t93 -27q60 0 93.5 27t33.5 74t-34 74t-93 27q-60 0 -93.5 -26.5t-33.5 -74.5zM735 592h190v17q0 33 16 51t70 52q68 45 95 82.5t27 105.5q0 100 -76.5 159t-194.5 59q-132 0 -210 -59.5t-78 -179.5v-2l199 3q0 37 19.5 59.5t54.5 22.5
q32 0 52.5 -17t20.5 -51q0 -25 -16.5 -43t-49 -40t-49.5 -39q-76 -62 -72 -143q0 -32 2 -37zM851 -53q-157 0 -300 61.5t-247 165.5t-165.5 247.5t-61.5 300.5q0 209 104 387.5t282.5 282.5t387.5 104q157 0 300.5 -61.5t247.5 -165.5t165.5 -247t61.5 -300t-61.5 -300.5
t-165.5 -247.5t-247.5 -165.5t-300.5 -61.5z" />
    <glyph glyph-name="exclam.blackcircle" unicode="&#x21;&#x20dd;&#x25cf;" 
d="M734 1106l24 -500h189l25 500h-238zM727 430q0 -47 34 -74t93 -27t92.5 27t33.5 74q0 46 -33.5 73t-92.5 27t-93 -26.5t-34 -73.5zM851 -53q-157 0 -300 61.5t-247 165.5t-165.5 247.5t-61.5 300.5q0 209 104 387.5t282.5 282.5t387.5 104q157 0 300.5 -61.5
t247.5 -165.5t165.5 -247t61.5 -300t-61.5 -300.5t-165.5 -247.5t-247.5 -165.5t-300.5 -61.5z" />
    <glyph glyph-name="uni2717.blackcircle" unicode="&#x2717;&#x20dd;&#x25cf;" 
d="M852 852l-244 245l-130 -129l245 -246l-245 -245l130 -130l244 245l244 -244l130 131l-244 243l244 244l-130 130zM851 -53q-157 0 -300 61.5t-247 165.5t-165.5 247.5t-61.5 300.5q0 209 104 387.5t282.5 282.5t387.5 104q157 0 300.5 -61.5t247.5 -165.5t165.5 -247
t61.5 -300t-61.5 -300.5t-165.5 -247.5t-247.5 -165.5t-300.5 -61.5z" />
    <glyph glyph-name="uni2713.blackcircle" unicode="&#x2713;&#x20dd;&#x25cf;" horiz-adv-x="1740" 
d="M723 360l593 584l-135 138l-456 -456l-205 205l-137 -136zM851 -53q-157 0 -300 61.5t-247 165.5t-165.5 247.5t-61.5 300.5q0 209 104 387.5t282.5 282.5t387.5 104q157 0 300.5 -61.5t247.5 -165.5t165.5 -247t61.5 -300t-61.5 -300.5t-165.5 -247.5t-247.5 -165.5
t-300.5 -61.5z" />
    <glyph glyph-name="zero.blacksquare" unicode="&#x30;&#x20de;&#x25a0;" 
d="M849 502q-105 0 -105 226q0 225 105 225t105 -225q0 -226 -105 -226zM847 338q147 0 234.5 104t87.5 286q0 181 -87.5 285t-234.5 104q-146 0 -231.5 -104t-85.5 -285q0 -182 85.5 -286t231.5 -104zM364 1471h975q108 0 184 -75t76 -181v-985q0 -107 -76 -182t-184 -75
h-975q-108 0 -184.5 75.5t-76.5 181.5v985q0 106 76.5 181t184.5 75z" />
    <glyph glyph-name="one.blacksquare" unicode="&#x31;&#x20de;&#x25a0;" 
d="M1005 352v753h-221l-183 -122v-195l176 118h5v-554h223zM364 1471h975q108 0 184 -75t76 -181v-985q0 -107 -76 -182t-184 -75h-975q-108 0 -184.5 75.5t-76.5 181.5v985q0 106 76.5 181t184.5 75z" />
    <glyph glyph-name="two.blacksquare" unicode="&#x32;&#x20de;&#x25a0;" 
d="M753 852v6q0 43 23 69.5t65 26.5q36 0 59.5 -20.5t23.5 -53.5q0 -36 -22 -67.5t-74 -79.5l-263 -246v-137h583v175h-294v3l139 135q72 65 105.5 117.5t33.5 116.5q0 94 -79 156.5t-200 62.5q-139 0 -220 -73t-81 -185v-6h201zM364 1471h975q108 0 184 -75t76 -181v-985
q0 -107 -76 -182t-184 -75h-975q-108 0 -184.5 75.5t-76.5 181.5v985q0 106 76.5 181t184.5 75z" />
    <glyph glyph-name="three.blacksquare" unicode="&#x33;&#x20de;&#x25a0;" 
d="M763 660h82q47 0 75.5 -22t29.5 -58q0 -36 -29 -58.5t-77 -22.5q-47 1 -76.5 23.5t-32.5 58.5h-201q2 -106 86.5 -174t223.5 -68q141 0 230 62t88 166q-1 75 -49 123.5t-112 54.5v5q54 9 97.5 55t42.5 109q-2 91 -82.5 147t-212.5 56q-143 0 -221 -63.5t-83 -176.5h203
q2 36 27.5 59t69.5 23q39 0 64 -20.5t26 -52.5q0 -34 -25.5 -54.5t-66.5 -20.5h-77v-151zM364 1471h975q108 0 184 -75t76 -181v-985q0 -107 -76 -182t-184 -75h-975q-108 0 -184.5 75.5t-76.5 181.5v985q0 106 76.5 181t184.5 75z" />
    <glyph glyph-name="four.blacksquare" unicode="&#x34;&#x20de;&#x25a0;" 
d="M774 1105q-180 -299 -263 -465v-166h372v-122h189v122h102v166h-102v465h-298zM704 640v1q75 152 175 316h4v-317h-179zM364 1471h975q108 0 184 -75t76 -181v-985q0 -107 -76 -182t-184 -75h-975q-108 0 -184.5 75.5t-76.5 181.5v985q0 106 76.5 181t184.5 75z" />
    <glyph glyph-name="five.blacksquare" unicode="&#x35;&#x20de;&#x25a0;" 
d="M553 579q2 -104 85.5 -169.5t217.5 -65.5q144 0 230 74.5t86 201.5q0 112 -70.5 177.5t-180.5 65.5q-57 0 -100.5 -20t-61.5 -48h-5q2 16 6.5 80t5.5 80h356v155h-525l-29 -450h189q13 24 39.5 41.5t61.5 17.5q47 0 77.5 -29t30.5 -77q0 -50 -31.5 -80t-75.5 -30
q-41 0 -71 20t-37 56h-198zM364 1471h975q108 0 184 -75t76 -181v-985q0 -107 -76 -182t-184 -75h-975q-108 0 -184.5 75.5t-76.5 181.5v985q0 106 76.5 181t184.5 75z" />
    <glyph glyph-name="six.blacksquare" unicode="&#x36;&#x20de;&#x25a0;" 
d="M1168 610q0 110 -67 171t-174 61q-67 0 -115 -27t-73 -70l-5 -1q-3 18 -3 21q-1 89 35 142t95 53q68 0 94 -54h197q-9 88 -88.5 150t-200.5 62q-156 0 -246 -103t-90 -292q0 -152 61 -249q90 -136 271 -136q137 0 223 74t86 198zM749 604q0 47 30 76.5t79 29.5
q46 0 77 -28.5t31 -77.5q0 -52 -30 -80.5t-78 -28.5t-78.5 29.5t-30.5 79.5zM364 1471h975q108 0 184 -75t76 -181v-985q0 -107 -76 -182t-184 -75h-975q-108 0 -184.5 75.5t-76.5 181.5v985q0 106 76.5 181t184.5 75z" />
    <glyph glyph-name="seven.blacksquare" unicode="&#x37;&#x20de;&#x25a0;" 
d="M556 1105v-175h366v-3l-309 -575h237l297 579v174h-591zM364 1471h975q108 0 184 -75t76 -181v-985q0 -107 -76 -182t-184 -75h-975q-108 0 -184.5 75.5t-76.5 181.5v985q0 106 76.5 181t184.5 75z" />
    <glyph glyph-name="eight.blacksquare" unicode="&#x38;&#x20de;&#x25a0;" 
d="M849 802q-41 0 -67.5 24t-26.5 63t26 63.5t68 24.5q43 0 69 -24.5t26 -63.5q0 -38 -26.5 -62.5t-68.5 -24.5zM849 479q-50 0 -82 28.5t-32 72.5t32 73t82 29t82.5 -29t32.5 -73t-32.5 -72.5t-82.5 -28.5zM849 338q152 0 242 61.5t90 165.5q0 71 -44.5 119.5t-122.5 61.5
v3q135 41 135 164q0 93 -81.5 148.5t-218.5 55.5q-136 0 -217.5 -55.5t-81.5 -148.5q0 -124 135 -164v-3q-78 -13 -122.5 -61.5t-44.5 -119.5q0 -104 89.5 -165.5t241.5 -61.5zM364 1471h975q108 0 184 -75t76 -181v-985q0 -107 -76 -182t-184 -75h-975q-108 0 -184.5 75.5
t-76.5 181.5v985q0 106 76.5 181t184.5 75z" />
    <glyph glyph-name="nine.blacksquare" unicode="&#x39;&#x20de;&#x25a0;" 
d="M526 849q0 -112 67.5 -175t177.5 -63q65 0 113 27t71 70h4q8 -92 -25.5 -152t-101.5 -60q-67 0 -90 50h-198q10 -88 88 -147.5t199 -59.5q161 0 248.5 101.5t87.5 287.5q0 195 -91 292.5t-239 97.5q-137 0 -224 -73.5t-87 -195.5zM944 851q0 -50 -30.5 -78.5t-76.5 -28.5
q-47 0 -78 29t-31 79t30.5 80t77.5 30q48 0 78 -30t30 -81zM364 1471h975q108 0 184 -75t76 -181v-985q0 -107 -76 -182t-184 -75h-975q-108 0 -184.5 75.5t-76.5 181.5v985q0 106 76.5 181t184.5 75z" />
    <glyph glyph-name="plus.uc.blacksquare" unicode="&#x2b;&#x20de;&#x25a0;" 
d="M947 636h222v182h-222v224h-192v-224h-222v-182h222v-227h192v227zM364 1471h975q108 0 184 -75t76 -181v-985q0 -107 -76 -182t-184 -75h-975q-108 0 -184.5 75.5t-76.5 181.5v985q0 106 76.5 181t184.5 75z" />
    <glyph glyph-name="minus.uc.blacksquare" unicode="&#x2212;&#x20de;&#x25a0;" 
d="M1140 630v189h-578v-189h578zM364 1471h975q108 0 184 -75t76 -181v-985q0 -107 -76 -182t-184 -75h-975q-108 0 -184.5 75.5t-76.5 181.5v985q0 106 76.5 181t184.5 75z" />
    <glyph glyph-name="multiply.uc.blacksquare" unicode="&#xd7;&#x20de;&#x25a0;" 
d="M851 859l-173 169l-135 -134l172 -169l-172 -168l135 -133l173 168l172 -168l136 133l-173 168l173 169l-136 134zM364 1471h975q108 0 184 -75t76 -181v-985q0 -107 -76 -182t-184 -75h-975q-108 0 -184.5 75.5t-76.5 181.5v985q0 106 76.5 181t184.5 75z" />
    <glyph glyph-name="divide.uc.blacksquare" unicode="&#xf7;&#x20de;&#x25a0;" 
d="M743 965q0 -41 31 -68.5t77 -27.5t77.5 27.5t31.5 68.5q0 43 -31 70.5t-78 27.5q-46 0 -77 -28t-31 -70zM1140 650v149h-578v-149h578zM743 487q0 -42 31 -69t77 -27q47 0 78 27t31 69t-31 69.5t-78 27.5q-46 0 -77 -27.5t-31 -69.5zM364 1471h975q108 0 184 -75t76 -181
v-985q0 -107 -76 -182t-184 -75h-975q-108 0 -184.5 75.5t-76.5 181.5v985q0 106 76.5 181t184.5 75z" />
    <glyph glyph-name="equal.uc.blacksquare" unicode="&#x3d;&#x20de;&#x25a0;" 
d="M1147 784v165h-592v-165h592zM1147 499v164h-592v-164h592zM364 1471h975q108 0 184 -75t76 -181v-985q0 -107 -76 -182t-184 -75h-975q-108 0 -184.5 75.5t-76.5 181.5v985q0 106 76.5 181t184.5 75z" />
    <glyph glyph-name="greater.uc.blacksquare" unicode="&#x3e;&#x20de;&#x25a0;" 
d="M1158 782l-569 283v-199l308 -141v-3l-308 -143v-194l569 276v121zM364 1471h975q108 0 184 -75t76 -181v-985q0 -107 -76 -182t-184 -75h-975q-108 0 -184.5 75.5t-76.5 181.5v985q0 106 76.5 181t184.5 75z" />
    <glyph glyph-name="less.uc.blacksquare" unicode="&#x3c;&#x20de;&#x25a0;" 
d="M541 661l568 -276v194q-33 17 -157.5 74t-149.5 69v3l307 141v199l-568 -283v-121zM364 1471h975q108 0 184 -75t76 -181v-985q0 -107 -76 -182t-184 -75h-975q-108 0 -184.5 75.5t-76.5 181.5v985q0 106 76.5 181t184.5 75z" />
    <glyph glyph-name="numbersign.blacksquare" unicode="&#x23;&#x20de;&#x25a0;" 
d="M795 799h135l-29 -145h-135zM1169 780l29 147h-108l35 176h-158l-34 -176h-93l37 176h-159l-34 -176h-105l-29 -147h105l-20 -97h-105l-29 -148h103l-37 -185h157l39 185h91l-38 -185h158l37 185h109l29 148h-106q3 23 19 97h107zM364 1471h975q108 0 184 -75t76 -181
v-985q0 -107 -76 -182t-184 -75h-975q-108 0 -184.5 75.5t-76.5 181.5v985q0 106 76.5 181t184.5 75z" />
    <glyph glyph-name="uni25BC.blacksquare" unicode="&#x25bc;&#x20de;&#x25a0;" 
d="M1201 979h-698l348 -605zM364 1471h975q108 0 184 -75t76 -181v-985q0 -107 -76 -182t-184 -75h-975q-108 0 -184.5 75.5t-76.5 181.5v985q0 106 76.5 181t184.5 75z" />
    <glyph glyph-name="uni25B2.blacksquare" unicode="&#x25b2;&#x20de;&#x25a0;" 
d="M1201 488l-350 604l-348 -604h698zM364 1471h975q108 0 184 -75t76 -181v-985q0 -107 -76 -182t-184 -75h-975q-108 0 -184.5 75.5t-76.5 181.5v985q0 106 76.5 181t184.5 75z" />
    <glyph glyph-name="uni25C0.blacksquare" unicode="&#x25c0;&#x20de;&#x25a0;" 
d="M1088 387v696l-605 -348zM364 1471h975q108 0 184 -75t76 -181v-985q0 -107 -76 -182t-184 -75h-975q-108 0 -184.5 75.5t-76.5 181.5v985q0 106 76.5 181t184.5 75z" />
    <glyph glyph-name="uni25B6.blacksquare" unicode="&#x25b6;&#x20de;&#x25a0;" 
d="M614 387l605 348l-605 348v-696zM364 1471h975q108 0 184 -75t76 -181v-985q0 -107 -76 -182t-184 -75h-975q-108 0 -184.5 75.5t-76.5 181.5v985q0 106 76.5 181t184.5 75z" />
    <glyph glyph-name="question.blacksquare" unicode="&#x3f;&#x20de;&#x25a0;" 
d="M711 429q0 -47 34 -74t93 -27q60 0 93.5 27t33.5 74t-34 74t-93 27q-60 0 -93.5 -26.5t-33.5 -74.5zM862 1118q-132 0 -210 -59.5t-78 -179.5v-2l199 3q0 37 19.5 59.5t54.5 22.5q32 0 52.5 -17t20.5 -51q0 -25 -16.5 -43t-49 -40t-49.5 -39q-76 -62 -72 -143
q0 -32 2 -37h190v17q0 33 16 51t70 52q68 45 95 82.5t27 105.5q0 100 -76.5 159t-194.5 59zM364 1471h975q108 0 184 -75t76 -181v-985q0 -107 -76 -182t-184 -75h-975q-108 0 -184.5 75.5t-76.5 181.5v985q0 106 76.5 181t184.5 75z" />
    <glyph glyph-name="exclam.blacksquare" unicode="&#x21;&#x20de;&#x25a0;" 
d="M734 1106l24 -500h189l25 500h-238zM727 430q0 -47 34 -74t93 -27t92.5 27t33.5 74q0 46 -33.5 73t-92.5 27t-93 -26.5t-34 -73.5zM364 1471h975q108 0 184 -75t76 -181v-985q0 -107 -76 -182t-184 -75h-975q-108 0 -184.5 75.5t-76.5 181.5v985q0 106 76.5 181t184.5 75
z" />
    <glyph glyph-name="uni2717.blacksquare" unicode="&#x2717;&#x20de;&#x25a0;" 
d="M478 968l245 -246l-245 -245l130 -130l244 245l244 -244l130 131l-244 243l244 244l-130 130l-244 -244l-244 245zM364 1471h975q108 0 184 -75t76 -181v-985q0 -107 -76 -182t-184 -75h-975q-108 0 -184.5 75.5t-76.5 181.5v985q0 106 76.5 181t184.5 75z" />
    <glyph glyph-name="uni2713.blacksquare" unicode="&#x2713;&#x20de;&#x25a0;" 
d="M723 360l593 584l-135 138l-456 -456l-205 205l-137 -136zM364 1471h975q108 0 184 -75t76 -181v-985q0 -107 -76 -182t-184 -75h-975q-108 0 -184.5 75.5t-76.5 181.5v985q0 106 76.5 181t184.5 75z" />
    <glyph glyph-name=".notdef" horiz-adv-x="2048" 
d="M100 -494v206h1848v-206h-1848zM100 -46v206h1848v-206h-1848zM100 401v206h1848v-206h-1848zM100 849v206h1848v-206h-1848zM100 1296v206h1848v-206h-1848zM100 1744v206h1848v-206h-1848z" />
    <glyph glyph-name=".null" horiz-adv-x="0" 
 />
    <glyph glyph-name="nonmarkingreturn" horiz-adv-x="0" 
 />
    <glyph glyph-name="space" unicode=" " horiz-adv-x="405" 
 />
    <glyph glyph-name="exclam" unicode="!" horiz-adv-x="648" 
d="M174 1443h300l-24 -968h-252zM324 -25q-68 0 -115.5 45.5t-47.5 111.5t47.5 111.5t115.5 45.5t115.5 -45.5t47.5 -111.5t-47.5 -111.5t-115.5 -45.5z" />
    <glyph glyph-name="quotedbl" unicode="&#x22;" horiz-adv-x="929" 
d="M358 880h-250v563h250v-563zM821 880h-250v563h250v-563z" />
    <glyph glyph-name="numbersign" unicode="#" horiz-adv-x="1304" 
d="M630 0l76 380h-259l-77 -380h-220l75 380h-225l41 216h227l54 270h-230l41 214h232l74 364h220l-72 -364h259l73 364h222l-73 -364h236l-40 -214h-239l-55 -270h241l-40 -216h-243l-76 -380h-222zM471 577h287l63 307h-288z" />
    <glyph glyph-name="dollar" unicode="$" horiz-adv-x="1326" 
d="M741 -137h-141v128q-236 14 -370.5 125.5t-135.5 295.5h286q5 -78 65 -131t155 -63v390l-106 25q-181 42 -275.5 144.5t-94.5 258.5q0 184 125.5 296.5t350.5 130.5v137h141v-138q210 -19 335.5 -132.5t128.5 -286.5h-278q-2 71 -54 124t-132 64v-373l107 -21
q384 -84 384 -406q0 -190 -127.5 -304.5t-363.5 -134.5v-129zM949 399q0 73 -51 118t-157 66v-366q98 6 153 54t55 128zM413 1061q0 -134 187 -174v345q-82 -5 -134.5 -52.5t-52.5 -118.5z" />
    <glyph glyph-name="percent" unicode="%" horiz-adv-x="1670" 
d="M703 1097q0 -172 -88.5 -273t-240.5 -101q-151 0 -240 101t-89 273t89 273t240 101t240 -101t89 -273zM374 900q49 0 77 52.5t28 145.5t-28 146t-77 53t-77 -53t-28 -146t28 -145.5t77 -52.5zM430 0h-242l560 767l493 676h241l-544 -746zM1625 354q0 -173 -89 -274
t-240 -101t-240 101.5t-89 273.5t89 273t240 101t240 -101t89 -273zM1296 157q49 0 77 52.5t28 145.5t-28 146t-77 53t-77 -53t-28 -146t28 -145.5t77 -52.5z" />
    <glyph glyph-name="ampersand" unicode="&#x26;" horiz-adv-x="1437" 
d="M1129 0l-111 120q-80 -69 -198 -107.5t-249 -38.5q-229 0 -366 110t-137 294q0 123 64.5 215.5t202.5 168.5q6 3 22 11.5t28.5 15.5t14.5 8q-98 101 -138.5 176t-40.5 154q0 145 116.5 240t292.5 95q177 0 289.5 -92.5t112.5 -237.5q0 -111 -71 -202t-221 -173l274 -296
q52 92 52 273v76h243v-93q0 -267 -122 -436l269 -281h-327zM494 623q-82 -52 -117.5 -103.5t-35.5 -118.5q0 -97 72 -156t188 -59q78 0 150 27t114 73l-331 358q-12 -6 -40 -21zM605 893q98 51 141 102.5t43 116.5q0 69 -44 112.5t-114 43.5t-115 -44t-45 -112
q0 -50 30 -98.5t104 -120.5z" />
    <glyph glyph-name="quotesingle" unicode="'" horiz-adv-x="466" 
d="M358 880h-250v563h250v-563z" />
    <glyph glyph-name="parenleft" unicode="(" horiz-adv-x="782" 
d="M182 567q0 265 72.5 480t224.5 396h268q-112 -131 -188 -379.5t-76 -495.5t76 -496.5t188 -381.5h-268q-153 183 -225 398t-72 479z" />
    <glyph glyph-name="parenright" unicode=")" horiz-adv-x="782" 
d="M600 567q0 -286 -77 -497t-219 -380h-269q102 121 183 362t81 516q0 274 -80.5 514.5t-183.5 360.5h269q141 -167 218.5 -377.5t77.5 -498.5z" />
    <glyph glyph-name="asterisk" unicode="*" horiz-adv-x="994" 
d="M796 841l-231 161l25 -280h-182l25 280l-232 -162l-90 161l252 115l-252 117l90 160l230 -158l-23 277h183l-24 -276l229 158l92 -161l-255 -117l255 -115z" />
    <glyph glyph-name="plus" unicode="+" horiz-adv-x="1326" 
d="M794 451v-437h-262v437h-408v255h408v432h262v-432h408v-255h-408z" />
    <glyph glyph-name="comma" unicode="," horiz-adv-x="569" 
d="M310 -316h-219l75 564h278z" />
    <glyph glyph-name="hyphen" unicode="&#x2011;" horiz-adv-x="905" 
d="M781 459h-657v255h657v-255z" />
    <glyph glyph-name="hyphen" unicode="-" horiz-adv-x="905" 
d="M781 459h-657v255h657v-255z" />
    <glyph glyph-name="period" unicode="." horiz-adv-x="569" 
d="M285 -12q-67 0 -114 47t-47 114t47 114t114 47t114 -47t47 -114t-47 -114t-114 -47z" />
    <glyph glyph-name="slash" unicode="/" horiz-adv-x="782" 
d="M270 -310h-270l513 1753h269z" />
    <glyph glyph-name="zero" unicode="0" horiz-adv-x="1333" 
d="M667 -32q-272 0 -428 202.5t-156 553.5q0 349 156.5 550.5t427.5 201.5t427 -201t156 -550q0 -350 -155.5 -553.5t-427.5 -203.5zM667 210q130 0 203 134.5t73 379.5q0 243 -73.5 376.5t-202.5 133.5t-203 -134t-74 -376q0 -244 73.5 -379t203.5 -135z" />
    <glyph glyph-name="one" unicode="1" horiz-adv-x="983" 
d="M463 0v1166h-6l-368 -254v272l373 259h300v-1443h-299z" />
    <glyph glyph-name="two" unicode="2" horiz-adv-x="1235" 
d="M85 1009q0 205 148.5 335.5t384.5 130.5q227 0 370 -117.5t143 -299.5q0 -65 -19.5 -125.5t-62 -121t-85.5 -109t-112 -117.5l-352 -339v-6h651v-240h-1049v203l544 524q110 110 150.5 177t40.5 142q0 82 -65 138t-164 56q-105 0 -174 -65.5t-69 -165.5v-5h-280v5z" />
    <glyph glyph-name="three" unicode="3" horiz-adv-x="1290" 
d="M453 630v218h175q103 0 167 56t64 145t-61 141.5t-172 52.5q-105 0 -170 -57t-71 -152h-278q8 201 153 321t379 120q226 0 365.5 -106t139.5 -279q0 -131 -82 -222t-216 -115v-6q163 -14 258.5 -106.5t95.5 -241.5q0 -193 -158.5 -312t-409.5 -119q-243 0 -392.5 122
t-160.5 323h289q7 -92 78.5 -147t189.5 -55q113 0 185 58t72 149q0 99 -70 155.5t-192 56.5h-178z" />
    <glyph glyph-name="four" unicode="4" horiz-adv-x="1327" 
d="M790 0v257h-718v257q176 336 579 929h426v-944h188v-242h-188v-257h-287zM337 498v-8h459v739h-6q-167 -244 -268 -406.5t-185 -324.5z" />
    <glyph glyph-name="five" unicode="5" horiz-adv-x="1280" 
d="M657 -32q-232 0 -383.5 124.5t-158.5 320.5h279q13 -92 86.5 -149t178.5 -57q118 0 192.5 74.5t74.5 192.5q0 120 -74 196t-191 76q-82 0 -148.5 -35.5t-104.5 -97.5h-270l71 830h918v-240h-681l-33 -395h6q45 74 128.5 116t192.5 42q207 0 340.5 -136.5t133.5 -347.5
q0 -229 -154.5 -371.5t-402.5 -142.5z" />
    <glyph glyph-name="six" unicode="6" horiz-adv-x="1317" 
d="M684 -33q-156 0 -279.5 68.5t-199.5 197.5q-121 185 -121 477q0 357 162 561.5t443 204.5q206 0 353 -111t177 -288h-297q-22 72 -86 116t-149 44q-152 0 -236.5 -138t-79.5 -381h6q44 107 146 171t238 64q206 0 341.5 -135.5t135.5 -340.5q0 -223 -156 -366.5
t-398 -143.5zM681 208q110 0 186.5 75.5t76.5 184.5q0 112 -74.5 185t-187.5 73t-188.5 -73t-75.5 -182q0 -110 76 -186.5t187 -76.5z" />
    <glyph glyph-name="seven" unicode="7" horiz-adv-x="1172" 
d="M177 0l621 1197v6h-734v240h1032v-243l-602 -1200h-317z" />
    <glyph glyph-name="eight" unicode="8" horiz-adv-x="1336" 
d="M668 -32q-262 0 -423.5 117.5t-161.5 305.5q0 142 94 243.5t245 126.5v6q-126 29 -203.5 118.5t-77.5 208.5q0 166 148 273.5t379 107.5q232 0 379 -107.5t147 -274.5q0 -117 -77 -206.5t-203 -119.5v-6q152 -26 245.5 -127.5t93.5 -243.5q0 -188 -162.5 -305
t-422.5 -117zM668 188q119 0 194 63.5t75 161.5t-75 161.5t-194 63.5t-194.5 -63.5t-75.5 -161.5t75.5 -161.5t194.5 -63.5zM668 858q100 0 164 56.5t64 142.5q0 87 -64 143.5t-164 56.5t-164 -56.5t-64 -143.5t64 -143t164 -56z" />
    <glyph glyph-name="nine" unicode="9" horiz-adv-x="1321" 
d="M631 -32q-207 0 -355 111.5t-178 288.5h298q22 -73 87.5 -117t152.5 -44q151 0 234.5 137t77.5 383h-3h-2h-1q-40 -108 -142 -172t-242 -64q-205 0 -342 135.5t-137 340.5q0 222 157 365.5t399 143.5q157 0 281.5 -68t199.5 -196q121 -186 121 -478q0 -359 -160.5 -562.5
t-445.5 -203.5zM637 718q113 0 188.5 73.5t75.5 182.5q0 110 -76 185.5t-186 75.5q-111 0 -188 -75t-77 -184q0 -111 75 -184.5t188 -73.5z" />
    <glyph glyph-name="colon" unicode=":" horiz-adv-x="569" 
d="M285 -12q-67 0 -114 47t-47 114t47 114t114 47t114 -47t47 -114t-47 -114t-114 -47zM285 703q-67 0 -114 47t-47 114q0 68 47 114.5t114 46.5t114 -47t47 -114t-47 -114t-114 -47z" />
    <glyph glyph-name="semicolon" unicode=";" horiz-adv-x="569" 
d="M285 703q-67 0 -114 47t-47 114q0 68 47 114.5t114 46.5t114 -47t47 -114t-47 -114t-114 -47zM304 -316h-219l75 564h278z" />
    <glyph glyph-name="less" unicode="&#x3c;" horiz-adv-x="1326" 
d="M1140 906l-657 -319v-10l657 -309v-291l-953 489v225l953 506v-291z" />
    <glyph glyph-name="equal" unicode="=" horiz-adv-x="1326" 
d="M1187 220h-1048v251h1048v-251zM1187 687h-1048v251h1048v-251z" />
    <glyph glyph-name="greater" unicode="&#x3e;" horiz-adv-x="1326" 
d="M187 907v290l953 -505v-226l-953 -488v291l656 308v10z" />
    <glyph glyph-name="question" unicode="?" horiz-adv-x="1093" 
d="M54 1038q4 189 132 303.5t354 114.5q213 0 344 -107.5t131 -279.5q0 -111 -53 -193.5t-161 -145.5q-100 -58 -135 -104t-35 -120v-53h-265l-2 58q-10 116 32.5 191t147.5 137q97 58 132.5 104t35.5 117q0 72 -52.5 118t-137.5 46q-86 0 -139 -50.5t-58 -135.5h-271z
M502 -25q-68 0 -115.5 45.5t-47.5 111.5t47.5 111.5t115.5 45.5t116 -45.5t48 -111.5t-48 -111.5t-116 -45.5z" />
    <glyph glyph-name="at" unicode="@" horiz-adv-x="1810" 
d="M893 841q-79 0 -124 -61.5t-45 -171.5q0 -109 44.5 -171t123.5 -62q81 0 128 62.5t47 170.5t-47 170.5t-127 62.5zM926 1449q235 0 418.5 -92.5t286 -262t102.5 -388.5q0 -237 -105.5 -377.5t-287.5 -140.5q-94 0 -159.5 42.5t-81.5 114.5h-14q-63 -154 -241 -154
q-156 0 -251.5 116.5t-95.5 306.5q0 182 93.5 295.5t243.5 113.5q81 0 144.5 -38t92.5 -104h14v120h203v-535q0 -53 24.5 -83t70.5 -30q75 0 120.5 90.5t45.5 247.5q0 272 -172.5 435.5t-457.5 163.5q-289 0 -472 -189.5t-183 -490.5q0 -311 189.5 -489t503.5 -178
q178 0 273 35v-160q-125 -37 -288 -37q-189 0 -348 58t-273 164.5t-177.5 263.5t-63.5 348q0 245 107 435t299.5 294.5t439.5 104.5z" />
    <glyph glyph-name="A" unicode="A" horiz-adv-x="1413" 
d="M1065 0l-110 350h-507l-110 -350h-310l501 1443h355l502 -1443h-321zM698 1167l-185 -591h377l-185 591h-7z" />
    <glyph glyph-name="B" unicode="B" horiz-adv-x="1310" 
d="M759 0h-639v1443h628q203 0 322 -97t119 -263q0 -118 -77.5 -207t-193.5 -106v-8q148 -11 244 -109t96 -240q0 -191 -134 -302t-365 -111zM422 1218v-375h217q121 0 187 50.5t66 142.5q0 87 -58 134.5t-164 47.5h-248zM422 225h260q131 0 199.5 54.5t68.5 157.5
q0 101 -70.5 154t-204.5 53h-253v-419z" />
    <glyph glyph-name="C" unicode="C" horiz-adv-x="1459" 
d="M758 -25q-316 0 -499.5 199.5t-183.5 547.5q0 347 184 546.5t499 199.5q172 0 312.5 -68t225.5 -192t96 -283h-294q-21 133 -114.5 213t-225.5 80q-171 0 -273 -134t-102 -361q0 -231 101 -364.5t275 -133.5q134 0 225 74t115 202h294q-25 -241 -197 -383.5t-438 -142.5z
" />
    <glyph glyph-name="D" unicode="D" horiz-adv-x="1433" 
d="M120 1443h551q326 0 507 -187t181 -529q0 -343 -181.5 -535t-506.5 -192h-551v1443zM422 1194v-944h213q203 0 309.5 121.5t106.5 354.5q0 226 -108 347t-308 121h-213z" />
    <glyph glyph-name="E" unicode="E" horiz-adv-x="1174" 
d="M1076 250v-250h-956v1443h956v-249h-654v-348h617v-232h-617v-364h654z" />
    <glyph glyph-name="F" unicode="F" horiz-adv-x="1123" 
d="M422 0h-302v1443h945v-249h-643v-387h587v-239h-587v-568z" />
    <glyph glyph-name="G" unicode="G" horiz-adv-x="1489" 
d="M1410 606q0 -295 -169.5 -463t-470.5 -168q-324 0 -509.5 200t-185.5 551q0 346 184.5 544t503.5 198q252 0 427 -136t207 -355h-303q-33 113 -120.5 177t-209.5 64q-179 0 -280 -129t-101 -359q0 -234 105.5 -369t286.5 -135q148 0 241.5 83t98.5 217l1 23h-314v220h608
v-163z" />
    <glyph glyph-name="H" unicode="H" horiz-adv-x="1494" 
d="M1374 0h-302v608h-650v-608h-302v1443h302v-586h650v586h302v-1443z" />
    <glyph glyph-name="I" unicode="I" horiz-adv-x="542" 
d="M422 0h-302v1443h302v-1443z" />
    <glyph glyph-name="J" unicode="J" horiz-adv-x="1143" 
d="M31 425h293q2 -88 54.5 -141t137.5 -53q95 0 144.5 57t49.5 166v989h302v-991q0 -229 -130 -355.5t-363 -126.5q-221 0 -354.5 124t-133.5 331z" />
    <glyph glyph-name="K" unicode="K" horiz-adv-x="1353" 
d="M422 0h-302v1443h302v-658h9l542 658h336l-534 -640l571 -803h-361l-428 603l-135 -162v-441z" />
    <glyph glyph-name="L" unicode="L" horiz-adv-x="1112" 
d="M1053 250v-250h-933v1443h302v-1193h631z" />
    <glyph glyph-name="M" unicode="M" horiz-adv-x="1768" 
d="M1648 0h-269v974h-8l-392 -960h-190l-392 960h-8v-974h-269v1443h350l410 -1023h8l410 1023h350v-1443z" />
    <glyph glyph-name="N" unicode="N" horiz-adv-x="1463" 
d="M409 0h-289v1443h252l674 -940h8v940h289v-1443h-250l-675 945h-9v-945z" />
    <glyph glyph-name="O" unicode="O" horiz-adv-x="1541" 
d="M771 1468q321 0 508.5 -201t187.5 -546q0 -344 -188 -545t-508 -201q-321 0 -508.5 201t-187.5 545q0 345 187.5 546t508.5 201zM771 1216q-177 0 -282.5 -134t-105.5 -361q0 -226 105 -359.5t283 -133.5q177 0 282 133.5t105 359.5q0 227 -105 361t-282 134z" />
    <glyph glyph-name="P" unicode="P" horiz-adv-x="1265" 
d="M120 1443h587q223 0 361.5 -136t138.5 -358q0 -221 -143 -357.5t-372 -136.5h-270v-455h-302v1443zM422 1204v-513h204q130 0 202 67t72 190t-71.5 189.5t-201.5 66.5h-205z" />
    <glyph glyph-name="Q" unicode="Q" horiz-adv-x="1541" 
d="M771 -25q-322 0 -509 200t-187 546q0 344 187.5 545.5t508.5 201.5q320 0 507.5 -201.5t187.5 -545.5q0 -190 -59 -339.5t-171 -241.5l183 -276h-293l-103 151q-114 -40 -252 -40zM771 225q53 0 103 14l-158 236h273l63 -86q106 122 106 332q0 227 -105 362.5t-282 135.5
q-178 0 -283 -135.5t-105 -362.5t105 -361.5t283 -134.5z" />
    <glyph glyph-name="R" unicode="R" horiz-adv-x="1311" 
d="M422 1207v-460h260q114 0 177.5 61t63.5 169q0 105 -66 167.5t-178 62.5h-257zM422 528v-528h-302v1443h591q247 0 384.5 -122.5t137.5 -337.5q0 -141 -69.5 -251.5t-192.5 -158.5l304 -573h-342l-269 528h-242z" />
    <glyph glyph-name="S" unicode="S" horiz-adv-x="1293" 
d="M66 411h291q10 -88 93.5 -142.5t204.5 -54.5q120 0 195.5 51.5t75.5 131.5q0 70 -56 113t-187 72l-188 41q-397 85 -397 403q0 198 154.5 320t397.5 122q250 0 399 -118.5t153 -315.5h-283q-7 91 -80.5 143.5t-187.5 52.5q-112 0 -180.5 -49t-68.5 -129q0 -66 55.5 -107
t180.5 -70l175 -37q217 -46 316 -143.5t99 -262.5q0 -210 -158 -333.5t-427 -123.5q-261 0 -415.5 116.5t-161.5 319.5z" />
    <glyph glyph-name="T" unicode="T" horiz-adv-x="1232" 
d="M767 0h-302v1194h-417v249h1137v-249h-418v-1194z" />
    <glyph glyph-name="U" unicode="U" horiz-adv-x="1449" 
d="M422 1443v-903q0 -141 79.5 -223.5t223.5 -82.5q143 0 222.5 82.5t79.5 223.5v903h302v-933q0 -240 -164.5 -387.5t-439.5 -147.5q-276 0 -440.5 147.5t-164.5 387.5v933h302z" />
    <glyph glyph-name="V" unicode="V" horiz-adv-x="1389" 
d="M877 0h-364l-485 1443h338l330 -1132h7l330 1132h329z" />
    <glyph glyph-name="W" unicode="W" horiz-adv-x="1977" 
d="M984 986l-274 -986h-285l-382 1443h313l227 -1045h8l270 1045h255l270 -1045h8l228 1045h313l-383 -1443h-285l-274 986h-9z" />
    <glyph glyph-name="X" unicode="X" horiz-adv-x="1404" 
d="M43 0l458 723v8l-455 712h355l306 -520h8l309 520h337l-472 -718v-7l466 -718h-344l-316 505h-8l-318 -505h-326z" />
    <glyph glyph-name="Y" unicode="Y" horiz-adv-x="1362" 
d="M832 0h-302v539l-502 904h329l323 -616h7l324 616h324l-503 -904v-539z" />
    <glyph glyph-name="Z" unicode="Z" horiz-adv-x="1292" 
d="M89 0v197l733 989v8h-716v249h1077v-196l-730 -990v-7h750v-250h-1114z" />
    <glyph glyph-name="bracketleft" unicode="[" horiz-adv-x="782" 
d="M203 1443h554v-215h-273v-1324h273v-214h-554v1753z" />
    <glyph glyph-name="backslash" unicode="\" horiz-adv-x="782" 
d="M508 -310l-508 1753h275l507 -1753h-274z" />
    <glyph glyph-name="bracketright" unicode="]" horiz-adv-x="782" 
d="M579 1443v-1753h-554v214h274v1324h-274v215h554z" />
    <glyph glyph-name="asciicircum" unicode="^" horiz-adv-x="978" 
d="M480 1193l-184 -382h-251l316 612h259l314 -612h-258l-179 382h-17z" />
    <glyph glyph-name="underscore" unicode="_" horiz-adv-x="857" 
d="M903 -325h-949v218h949v-218z" />
    <glyph glyph-name="grave" unicode="`" horiz-adv-x="1010" 
d="M751 1282h-233l-256 310h268z" />
    <glyph glyph-name="a" unicode="a" horiz-adv-x="1121" 
d="M509 194q97 0 164.5 56.5t67.5 142.5v78l-226 -14q-82 -6 -126.5 -41t-44.5 -92q0 -60 45 -95t120 -35zM413 -17q-155 0 -257 91t-102 234q0 146 108 229t309 95l270 16v71q0 74 -48.5 116t-131.5 42q-80 0 -130.5 -36t-61.5 -97h-267q8 158 135 254.5t337 96.5
q206 0 330 -98t124 -260v-737h-282v164h-6q-44 -84 -134 -132.5t-193 -48.5z" />
    <glyph glyph-name="b" unicode="b" horiz-adv-x="1223" 
d="M732 -17q-116 0 -203.5 53t-132.5 148h-6v-184h-288v1443h292v-557h6q45 96 131 149.5t200 53.5q203 0 319.5 -147t116.5 -406q0 -258 -116 -405.5t-319 -147.5zM631 855q-106 0 -172 -88t-66 -231q0 -145 65.5 -231.5t172.5 -86.5q110 0 173.5 85.5t63.5 232.5
q0 146 -64 232.5t-173 86.5z" />
    <glyph glyph-name="c" unicode="c" horiz-adv-x="1116" 
d="M1069 673h-271q-13 87 -68.5 140t-143.5 53q-109 0 -171.5 -87.5t-62.5 -241.5q0 -157 62.5 -244t172.5 -87q87 0 142 49.5t69 137.5h272q-11 -190 -143 -303t-343 -113q-244 0 -386 149.5t-142 410.5q0 257 142.5 407.5t383.5 150.5q214 0 345.5 -118t141.5 -304z" />
    <glyph glyph-name="d" unicode="d" horiz-adv-x="1220" 
d="M493 -17q-201 0 -319 149t-118 406q0 255 118.5 403t320.5 148q114 0 200.5 -55t126.5 -146h6v555h292v-1443h-288v184h-5q-40 -91 -129 -146t-205 -55zM592 855q-110 0 -173.5 -86t-63.5 -233q0 -148 63.5 -233t173.5 -85q109 0 173.5 85.5t64.5 232.5
q0 146 -64.5 232.5t-173.5 86.5z" />
    <glyph glyph-name="e" unicode="e" horiz-adv-x="1137" 
d="M576 879q-95 0 -158.5 -65t-71.5 -166h455q-5 103 -66.5 167t-158.5 64zM805 328h268q-24 -158 -157.5 -254.5t-331.5 -96.5q-247 0 -387.5 148t-140.5 406q0 257 140 410.5t377 153.5q233 0 371 -146t138 -391v-89h-739v-18q0 -115 67.5 -186.5t178.5 -71.5
q80 0 138 36.5t78 98.5z" />
    <glyph glyph-name="f" unicode="f" horiz-adv-x="729" 
d="M173 0v852h-146v215h146v81q0 160 82.5 234t270.5 74q86 0 149 -13v-193q-32 6 -79 6q-138 0 -138 -118v-71h213v-215h-206v-852h-292z" />
    <glyph glyph-name="g" unicode="g" horiz-adv-x="1215" 
d="M590 228q110 0 174.5 82.5t64.5 227.5t-65 231t-174 86q-108 0 -171.5 -85.5t-63.5 -231.5t63 -228t172 -82zM585 -404q-209 0 -343.5 91.5t-152.5 236.5h286q17 -56 76.5 -90.5t141.5 -34.5q111 0 173 56.5t62 151.5v188h-6q-38 -87 -127 -139.5t-204 -52.5
q-198 0 -316.5 144t-118.5 393q0 255 118 402t322 147q114 0 201 -55t130 -149h5v187h288v-1057q0 -191 -146.5 -305t-388.5 -114z" />
    <glyph glyph-name="h" unicode="h" horiz-adv-x="1197" 
d="M102 0v1443h287v-562h6q43 102 129.5 156.5t207.5 54.5q177 0 275.5 -107.5t98.5 -294.5v-690h-292v628q0 105 -51.5 163.5t-149.5 58.5q-102 0 -160.5 -65.5t-58.5 -172.5v-612h-292z" />
    <glyph glyph-name="i" unicode="i" horiz-adv-x="491" 
d="M100 0v1072h292v-1072h-292zM246 1190q-66 0 -111 44t-45 107q0 64 45 107.5t111 43.5t111 -43.5t45 -107.5q0 -63 -45 -107t-111 -44z" />
    <glyph glyph-name="j" unicode="j" horiz-adv-x="491" 
d="M392 1072v-1122q0 -163 -98 -247t-286 -84q-54 0 -80 4v215q14 -2 37 -2q73 0 104 28.5t31 93.5v1114h292zM246 1190q-66 0 -111 44t-45 107q0 64 45 107.5t111 43.5t111 -43.5t45 -107.5q0 -63 -45 -107t-111 -44z" />
    <glyph glyph-name="k" unicode="k" horiz-adv-x="1102" 
d="M398 642l364 430h331l-409 -460l429 -612h-336l-307 436l-76 -82v-354h-292v1443h292v-801h4z" />
    <glyph glyph-name="l" unicode="l" horiz-adv-x="496" 
d="M102 0v1443h292v-1443h-292z" />
    <glyph glyph-name="m" unicode="m" horiz-adv-x="1768" 
d="M95 0v1072h282v-194h6q34 98 116 156t190 58q116 0 194 -57.5t105 -162.5h6q36 101 125.5 160.5t207.5 59.5q158 0 254.5 -99t96.5 -261v-732h-292v659q0 93 -45 142.5t-130 49.5q-83 0 -133.5 -55t-50.5 -145v-651h-281v668q0 86 -46 134.5t-127 48.5q-83 0 -134.5 -57
t-51.5 -147v-647h-292z" />
    <glyph glyph-name="n" unicode="n" horiz-adv-x="1180" 
d="M95 0v1072h282v-191h6q44 102 128.5 156.5t206.5 54.5q178 0 275 -106t97 -295v-691h-292v630q0 106 -50 163t-147 57t-155.5 -65t-58.5 -170v-615h-292z" />
    <glyph glyph-name="o" unicode="o" horiz-adv-x="1173" 
d="M587 -23q-245 0 -388 149t-143 411q0 259 144.5 408.5t386.5 149.5q243 0 387 -149.5t144 -408.5q0 -263 -143 -411.5t-388 -148.5zM587 200q108 0 171 88t63 248q0 158 -63 247t-171 89t-171.5 -89t-63.5 -247q0 -160 63 -248t172 -88z" />
    <glyph glyph-name="p" unicode="p" horiz-adv-x="1215" 
d="M721 1089q204 0 321.5 -147t117.5 -406q0 -258 -116 -405.5t-318 -147.5q-115 0 -202.5 52.5t-130.5 144.5h-6v-530h-292v1422h288v-187h6q44 96 130.5 150t201.5 54zM623 218q109 0 173.5 86t64.5 232t-64.5 232.5t-173.5 86.5q-107 0 -172 -87.5t-65 -231.5
q0 -145 64.5 -231.5t172.5 -86.5z" />
    <glyph glyph-name="q" unicode="q" horiz-adv-x="1215" 
d="M496 1089q115 0 201.5 -55t128.5 -149h6v187h288v-1422h-292v533h-6q-38 -90 -127 -145t-204 -55q-201 0 -318 149t-117 406q0 255 118.5 403t321.5 148zM590 218q109 0 174 86t65 232t-65.5 232.5t-173.5 86.5q-109 0 -172 -85.5t-63 -233.5t63 -233t172 -85z" />
    <glyph glyph-name="r" unicode="r" horiz-adv-x="745" 
d="M95 0v1072h282v-193h6q28 102 94 156t161 54q46 0 83 -11v-257q-41 17 -106 17q-108 0 -168 -63t-60 -176v-599h-292z" />
    <glyph glyph-name="s" unicode="s" horiz-adv-x="1055" 
d="M77 757q0 153 123 245.5t329 92.5q201 0 323 -94t125 -250h-269q-5 65 -53.5 102t-129.5 37q-76 0 -121.5 -31.5t-45.5 -83.5q0 -78 140 -111l205 -44q161 -36 231.5 -104.5t70.5 -188.5q0 -158 -132 -254t-345 -96q-212 0 -339 94t-139 253h285q11 -68 62.5 -105
t138.5 -37q83 0 130.5 30.5t47.5 83.5q0 41 -30 65.5t-102 41.5l-198 44q-307 70 -307 310z" />
    <glyph glyph-name="t" unicode="t" horiz-adv-x="728" 
d="M173 1319h292v-247h198v-220h-198v-513q0 -121 126 -121q41 0 71 5v-215q-51 -12 -139 -12q-189 0 -269.5 68t-80.5 225v563h-151v220h151v247z" />
    <glyph glyph-name="u" unicode="u" horiz-adv-x="1180" 
d="M1085 1072v-1072h-282v193h-6q-84 -213 -321 -213q-176 0 -281 107.5t-105 293.5v691h292v-630q0 -107 51.5 -163t148.5 -56t154 64t57 171v614h292z" />
    <glyph glyph-name="v" unicode="v" horiz-adv-x="1081" 
d="M1075 1072l-368 -1072h-330l-371 1072h313l223 -814h6l222 814h305z" />
    <glyph glyph-name="w" unicode="w" horiz-adv-x="1618" 
d="M1599 1072l-284 -1072h-311l-194 758h-6l-193 -758h-307l-285 1072h294l162 -795h6l190 795h280l191 -795h6l163 795h288z" />
    <glyph glyph-name="x" unicode="x" horiz-adv-x="1081" 
d="M536 372h-6l-201 -372h-307l336 534l-334 538h329l193 -362h6l190 362h318l-335 -530l332 -542h-317z" />
    <glyph glyph-name="y" unicode="y" horiz-adv-x="1112" 
d="M232 -397q-96 0 -110 3v225q9 -2 73 -2q81 0 123 27.5t57 91.5q0 1 5 25t4 26l-373 1073h321l228 -838h5l228 838h308l-369 -1096q-69 -206 -181.5 -289.5t-318.5 -83.5z" />
    <glyph glyph-name="z" unicode="z" horiz-adv-x="1035" 
d="M75 0v166l534 677v6h-526v223h865v-185l-502 -658v-5h514v-224h-885z" />
    <glyph glyph-name="braceleft" unicode="{" horiz-adv-x="782" 
d="M277 551q128 -14 195 -77.5t67 -171.5v-205q0 -106 39.5 -150.5t134.5 -44.5h44v-212h-74q-222 0 -322 90t-100 288v156q0 110 -54 156.5t-182 47.5v278q128 1 182 47.5t54 156.5v160q0 196 100 284.5t322 88.5h74v-212h-44q-95 0 -134.5 -44.5t-39.5 -150.5v-204
q0 -108 -67 -171.5t-195 -77.5v-32z" />
    <glyph glyph-name="bar" unicode="|" horiz-adv-x="782" 
d="M528 -310h-273v1753h273v-1753z" />
    <glyph glyph-name="braceright" unicode="}" horiz-adv-x="782" 
d="M505 551v32q-128 14 -195 77.5t-67 171.5v204q0 106 -39.5 150.5t-134.5 44.5h-44v212h74q223 0 323 -88.5t100 -284.5v-160q0 -110 53.5 -156.5t181.5 -47.5v-278q-129 -1 -182 -47t-53 -156v-153q0 -200 -100.5 -291t-322.5 -91h-74v212h44q94 0 134 44.5t40 149.5v205
q0 109 67.5 172.5t194.5 77.5z" />
    <glyph glyph-name="asciitilde" unicode="~" horiz-adv-x="1326" 
d="M616 624q-45 45 -76 63.5t-64 18.5q-110 0 -116 -178h-228q-9 195 77.5 309.5t243.5 114.5q68 0 130 -31t130 -99q44 -45 74 -63t63 -18q111 0 117 178h227q9 -195 -77 -309.5t-243 -114.5q-68 0 -129 30.5t-129 98.5z" />
    <glyph glyph-name="nonbreakingspace" unicode="&#xa0;" horiz-adv-x="405" 
 />
    <glyph glyph-name="exclamdown" unicode="&#xa1;" horiz-adv-x="648" 
d="M174 -324l24 969h252l24 -969h-300zM324 833q-68 0 -115.5 45.5t-47.5 110.5q0 67 47.5 112t115.5 45t115.5 -45t47.5 -112q0 -65 -47.5 -110.5t-115.5 -45.5z" />
    <glyph glyph-name="cent" unicode="&#xa2;" horiz-adv-x="1326" 
d="M1212 542q-14 -162 -127.5 -271.5t-288.5 -135.5v-182h-242v187q-202 38 -320.5 188t-118.5 375q0 222 119 371.5t320 186.5v187h242v-183q174 -26 289.5 -140t126.5 -273h-272q-17 86 -85.5 138.5t-165.5 52.5q-124 0 -202.5 -93t-78.5 -247q0 -156 78.5 -250.5
t201.5 -94.5q103 0 168.5 46.5t83.5 137.5h272z" />
    <glyph glyph-name="sterling" unicode="&#xa3;" horiz-adv-x="1326" 
d="M516 248h714v-248h-1124v232q134 20 218.5 111t84.5 215q0 32 -7 76h-292v207h224q-59 148 -59 244q0 187 146.5 291t411.5 104q90 0 184 -14.5t146 -35.5v-236q-49 22 -131.5 36.5t-160.5 14.5q-139 0 -216 -53.5t-77 -150.5q0 -76 45 -200h414v-207h-349q4 -38 4 -57
q0 -102 -50 -188t-126 -133v-8z" />
    <glyph glyph-name="currency" unicode="&#xa4;" horiz-adv-x="1326" 
d="M430 649q0 -96 69 -165.5t165 -69.5t165 69.5t69 165.5t-69 166t-165 70t-165 -70t-69 -166zM1203 1023l-149 -149q60 -104 60 -225t-60 -225l149 -149l-166 -166l-150 150q-103 -60 -223 -60t-224 60l-150 -150l-166 166l150 150q-60 104 -60 224t60 224l-150 150
l166 166l149 -149q106 60 225 60q120 0 224 -60l149 149z" />
    <glyph glyph-name="yen" unicode="&#xa5;" horiz-adv-x="1326" 
d="M1086 212h-271v-212h-302v212h-271v166h271v136h-271v166h195l-427 763h327l323 -613h9l320 613h327l-425 -763h195v-166h-271v-136h271v-166z" />
    <glyph glyph-name="brokenbar" unicode="&#xa6;" horiz-adv-x="782" 
d="M528 743h-273v700h273v-700zM528 -310h-273v700h273v-700z" />
    <glyph glyph-name="section" unicode="&#xa7;" horiz-adv-x="994" 
d="M445 449l109 -36q59 8 99 49t40 94q0 49 -36.5 85.5t-104.5 55.5l-109 37q-58 -8 -99 -50t-41 -93q0 -48 37.5 -85.5t104.5 -56.5zM496 -284q-187 0 -308 92t-128 240h253q7 -57 59.5 -92t127.5 -35q78 0 126 36t48 94q0 43 -35 73t-114 54l-175 58q-158 51 -229.5 122
t-71.5 178q0 94 57.5 165t157.5 102v18q-107 49 -156 114.5t-49 159.5q0 151 120 243t318 92q184 0 301.5 -89t128.5 -237h-251q-7 55 -57 88.5t-124 33.5q-77 0 -124 -35.5t-47 -93.5q0 -43 34 -72.5t113 -55.5l171 -58q160 -53 232 -123t72 -173q0 -98 -63.5 -174
t-167.5 -104v-18q116 -43 169.5 -106.5t53.5 -159.5q0 -151 -122 -244t-320 -93z" />
    <glyph glyph-name="dieresis" unicode="&#xa8;" horiz-adv-x="1010" 
d="M301 1279q-57 0 -95.5 38t-38.5 92t38.5 92t95.5 38t95.5 -38t38.5 -92t-38.5 -92t-95.5 -38zM709 1279q-57 0 -95.5 38t-38.5 92t38.5 92t95.5 38t95.5 -38t38.5 -92t-38.5 -92t-95.5 -38z" />
    <glyph glyph-name="copyright" unicode="&#xa9;" horiz-adv-x="1697" 
d="M849 -139q-162 0 -308 62t-251.5 167t-167.5 251.5t-62 308.5q0 163 62 309.5t167.5 251.5t251.5 166.5t308 61.5q216 0 397 -104t286 -285.5t105 -399.5q0 -163 -62 -309t-167 -251.5t-251 -167t-308 -61.5zM849 25q171 0 314.5 82.5t226.5 226t83 316.5
q0 130 -49 246.5t-132.5 199.5t-199 131.5t-243.5 48.5q-171 0 -314.5 -82t-227 -226.5t-83.5 -317.5t83.5 -316.5t227 -226t314.5 -82.5zM1216 760h-188q-12 58 -54.5 93.5t-107.5 35.5q-84 0 -133 -63t-49 -174q0 -113 48.5 -176.5t133.5 -63.5q65 0 107.5 32t54.5 90h188
q-14 -129 -107.5 -205.5t-243.5 -76.5q-177 0 -280 107t-103 293q0 183 103 290t278 107q149 0 243.5 -80t109.5 -209z" />
    <glyph glyph-name="ordfeminine" unicode="&#xaa;" horiz-adv-x="798" 
d="M366 858q60 0 100.5 32.5t40.5 81.5v51l-137 -9q-104 -8 -104 -79q0 -35 27 -56t73 -21zM284 697q-108 0 -178 63t-70 160q0 101 76 158.5t222 66.5l173 10v43q0 44 -29.5 69t-80.5 25q-46 0 -77.5 -22t-36.5 -58h-210q5 112 96 179.5t239 67.5q147 0 236.5 -68
t89.5 -180v-505h-226v107h-4q-28 -54 -88 -85t-132 -31z" />
    <glyph glyph-name="guillemotleft" unicode="&#xab;" horiz-adv-x="1356" 
d="M386 572v-10l346 -411h-275l-344 411v8l348 411h271zM897 572v-10l346 -411h-275l-344 411v8l348 411h271z" />
    <glyph glyph-name="logicalnot" unicode="&#xac;" horiz-adv-x="1326" 
d="M1185 708v-642h-255v394h-789v248h1044z" />
    <glyph glyph-name="registered" unicode="&#xae;" horiz-adv-x="1178" 
d="M589 565q-215 0 -362 145.5t-147 358.5t147 358.5t362 145.5q141 0 258 -66t184 -182t67 -256t-67 -256t-184 -182t-258 -66zM589 693q158 0 264.5 108t106.5 268t-106.5 267.5t-264.5 107.5t-264 -107.5t-106 -267.5t106 -268t264 -108zM513 844h-123v463h242
q77 0 124.5 -41t47.5 -107q0 -52 -26.5 -89.5t-71.5 -49.5l122 -176h-148l-101 158h-66v-158zM513 1209v-117h91q33 0 51.5 15.5t18.5 43.5q0 58 -68 58h-93z" />
    <glyph glyph-name="macron" unicode="&#xaf;" horiz-adv-x="1000" 
d="M820 1462v-148h-639v148h639z" />
    <glyph glyph-name="degree" unicode="&#xb0;" horiz-adv-x="752" 
d="M376 820q-135 0 -226.5 92t-91.5 227q0 134 91.5 226t226.5 92t226.5 -92t91.5 -226q0 -135 -92 -227t-226 -92zM376 992q61 0 102.5 43.5t41.5 103.5q0 61 -41.5 103.5t-102.5 42.5q-58 0 -101 -43t-43 -103q0 -59 43 -103t101 -44z" />
    <glyph glyph-name="plusminus" unicode="&#xb1;" horiz-adv-x="1326" 
d="M1160 75h-996v218h996v-218zM787 651v-239h-248v239h-375v216h375v240h248v-240h375v-216h-375z" />
    <glyph glyph-name="two.sups" unicode="&#xb2;" horiz-adv-x="668" 
d="M31 1574q0 112 81 178.5t217 66.5q129 0 207.5 -58.5t78.5 -153.5q0 -57 -28.5 -104t-99.5 -107l-146 -125v-4h282v-172h-578v153l290 248q57 53 57 92q0 28 -20.5 45.5t-53.5 17.5t-55 -22t-22 -55v-5h-210v5z" />
    <glyph glyph-name="three.sups" unicode="&#xb3;" horiz-adv-x="696" 
d="M255 1379v148h87q34 0 55.5 17.5t21.5 45.5q0 29 -21.5 46t-58.5 17t-59.5 -21t-24.5 -55h-205q-2 110 78.5 176t215.5 66q129 0 208 -54t79 -142q0 -61 -40.5 -105t-106.5 -55v-5q79 -9 124.5 -53.5t45.5 -113.5q0 -100 -84.5 -158.5t-227.5 -58.5q-133 0 -216.5 67
t-88.5 177h219q1 -31 24 -48.5t61 -17.5q37 0 59.5 17.5t22.5 45.5q0 30 -22.5 47t-61.5 17h-84z" />
    <glyph glyph-name="acute" unicode="&#xb4;" horiz-adv-x="1010" 
d="M492 1282h-233l221 310h268z" />
    <glyph glyph-name="mugreek" unicode="&#x3bc;" horiz-adv-x="1284" 
d="M95 -350v1422h290v-624q0 -225 199 -225q102 0 159.5 64t57.5 171v614h289v-742q0 -66 19 -93.5t64 -27.5q38 0 56 10l5 -210q-59 -18 -143 -18q-105 0 -167 37t-96 121q-2 6 -5.5 17t-5.5 15h-5q-35 -94 -100.5 -147.5t-150.5 -53.5q-55 0 -101 22t-68 57h-5v-409h-292z
" />
    <glyph glyph-name="mugreek" unicode="&#xb5;" horiz-adv-x="1284" 
d="M95 -350v1422h290v-624q0 -225 199 -225q102 0 159.5 64t57.5 171v614h289v-742q0 -66 19 -93.5t64 -27.5q38 0 56 10l5 -210q-59 -18 -143 -18q-105 0 -167 37t-96 121q-2 6 -5.5 17t-5.5 15h-5q-35 -94 -100.5 -147.5t-150.5 -53.5q-55 0 -101 22t-68 57h-5v-409h-292z
" />
    <glyph glyph-name="paragraph" unicode="&#xb6;" horiz-adv-x="1473" 
d="M914 -255h-280v710h-20q-225 0 -374.5 141.5t-149.5 348.5q0 216 147 357t378 141h299v-1698zM1083 -255v1698h280v-1698h-280z" />
    <glyph glyph-name="periodcentered" unicode="&#xb7;" horiz-adv-x="632" 
d="M316 465q-68 0 -116 48t-48 116q0 69 48 116.5t116 47.5t116 -47.5t48 -116.5q0 -68 -48 -116t-116 -48z" />
    <glyph glyph-name="cedilla" unicode="&#xb8;" horiz-adv-x="1010" 
d="M366 -227v98l64 141h152v-12l-51 -110q86 -1 137 -44.5t51 -119.5q0 -89 -66 -137t-182 -49q-97 -2 -142 14v122q41 -12 112 -12q111 0 111 54q0 30 -28 42.5t-95 12.5h-63z" />
    <glyph glyph-name="one.sups" unicode="&#xb9;" horiz-adv-x="551" 
d="M230 1095v511h-4l-172 -112v190l174 114h230v-703h-228z" />
    <glyph glyph-name="ordmasculine" unicode="&#xba;" horiz-adv-x="831" 
d="M416 691q-175 0 -275 101.5t-100 282.5q0 178 101 281t274 103t274 -102.5t101 -281.5q0 -182 -100 -283t-275 -101zM416 862q65 0 102 56t37 157q0 99 -37 155.5t-102 56.5t-102 -56.5t-37 -155.5q0 -102 36.5 -157.5t102.5 -55.5z" />
    <glyph glyph-name="guillemotright" unicode="&#xbb;" horiz-adv-x="1356" 
d="M459 572l-346 409h271l348 -411v-8l-344 -411h-275l346 411v10zM970 572l-346 409h271l348 -411v-8l-344 -411h-275l346 411v10z" />
    <glyph glyph-name="onequarter" unicode="&#xbc;" horiz-adv-x="1625" 
d="M240 743v511h-4l-172 -112v190l174 114h230v-703h-228zM363 0h-242l560 767l494 676h241l-545 -747zM1289 0v96h-344v190q88 173 244 417h318v-432h80v-175h-80v-96h-218zM1133 265v-4h163v294h-4q-103 -176 -159 -290z" />
    <glyph glyph-name="onehalf" unicode="&#xbd;" horiz-adv-x="1622" 
d="M240 743v511h-4l-172 -112v190l174 114h230v-703h-228zM363 0h-242l560 767l494 676h241l-545 -747zM994 479q0 112 81 178.5t217 66.5q129 0 207.5 -58.5t78.5 -153.5q0 -57 -28.5 -104t-99.5 -107l-146 -125v-4h282v-172h-578v153l290 248q57 53 57 92q0 28 -20.5 45.5
t-53.5 17.5t-55 -22t-22 -55v-5h-210v5z" />
    <glyph glyph-name="threequarters" unicode="&#xbe;" horiz-adv-x="1715" 
d="M255 1027v148h87q34 0 55.5 17.5t21.5 45.5q0 29 -21.5 46t-58.5 17t-59.5 -21t-24.5 -55h-205q-2 110 78.5 176t215.5 66q129 0 208 -54t79 -142q0 -61 -40.5 -105t-106.5 -55v-5q79 -9 124.5 -53.5t45.5 -113.5q0 -100 -84.5 -158.5t-227.5 -58.5q-133 0 -216.5 67
t-88.5 177h219q1 -31 24 -48.5t61 -17.5q37 0 59.5 17.5t22.5 45.5q0 30 -22.5 47t-61.5 17h-84zM468 0h-242l560 767l494 676h241l-545 -747zM1379 0v96h-344v190q88 173 244 417h318v-432h80v-175h-80v-96h-218zM1223 265v-4h163v294h-4q-103 -176 -159 -290z" />
    <glyph glyph-name="questiondown" unicode="&#xbf;" horiz-adv-x="1093" 
d="M1040 80q-4 -189 -132 -303.5t-353 -114.5q-214 0 -345 107.5t-131 280.5q0 110 53.5 192t160.5 146q100 59 135 105t35 119v53h264l2 -58q10 -116 -32 -191t-148 -137q-97 -58 -132.5 -104t-35.5 -116q0 -73 53 -119t138 -46t138 50.5t58 135.5h272zM585 833
q-68 0 -116 45.5t-48 110.5q0 66 47.5 111.5t116.5 45.5q68 0 115.5 -45.5t47.5 -111.5q0 -65 -47.5 -110.5t-115.5 -45.5z" />
    <glyph glyph-name="Agrave" unicode="&#xc0;" horiz-adv-x="1413" 
d="M1065 0l-110 350h-507l-110 -350h-310l501 1443h355l502 -1443h-321zM698 1167l-185 -591h377l-185 591h-7zM589 1563l-267 305h271l226 -305h-230z" />
    <glyph glyph-name="Aacute" unicode="&#xc1;" horiz-adv-x="1413" 
d="M1065 0l-110 350h-507l-110 -350h-310l501 1443h355l502 -1443h-321zM698 1167l-185 -591h377l-185 591h-7zM822 1558h-230l226 305h271z" />
    <glyph glyph-name="Acircumflex" unicode="&#xc2;" horiz-adv-x="1413" 
d="M1065 0l-110 350h-507l-110 -350h-310l501 1443h355l502 -1443h-321zM698 1167l-185 -591h377l-185 591h-7zM595 1855h224l269 -317h-221l-156 192h-8l-156 -192h-221z" />
    <glyph glyph-name="Atilde" unicode="&#xc3;" horiz-adv-x="1413" 
d="M1065 0l-110 350h-507l-110 -350h-310l501 1443h355l502 -1443h-321zM698 1167l-185 -591h377l-185 591h-7zM849 1563q-47 0 -89.5 21.5t-67.5 46.5t-54.5 46.5t-53.5 21.5q-34 0 -52 -33t-18 -89h-159q0 128 62 201t158 73q40 0 75.5 -14t60 -33.5t46 -39.5t43 -34
t40.5 -14q66 0 69 124h159q0 -126 -62.5 -201.5t-156.5 -75.5z" />
    <glyph glyph-name="Adieresis" unicode="&#xc4;" horiz-adv-x="1413" 
d="M1065 0l-110 350h-507l-110 -350h-310l501 1443h355l502 -1443h-321zM698 1167l-185 -591h377l-185 591h-7zM503 1571q-57 0 -95.5 38t-38.5 92t38.5 92t95.5 38t95.5 -38t38.5 -92t-38.5 -92t-95.5 -38zM911 1571q-57 0 -95.5 38t-38.5 92t38.5 92t95.5 38t95.5 -38
t38.5 -92t-38.5 -92t-95.5 -38z" />
    <glyph glyph-name="Aring" unicode="&#xc5;" horiz-adv-x="1413" 
d="M1065 0l-110 350h-507l-110 -350h-310l501 1443h355l502 -1443h-321zM698 1167l-185 -591h377l-185 591h-7zM707 1518q-84 0 -145 59.5t-61 142.5q0 84 61 143t145 59t145 -59t61 -143q0 -83 -61 -142.5t-145 -59.5zM707 1630q38 0 65 26.5t27 63.5t-27 63.5t-65 26.5
t-65 -26.5t-27 -63.5t27 -63.5t65 -26.5z" />
    <glyph glyph-name="AE" unicode="&#xc6;" horiz-adv-x="2039" 
d="M830 1211l-255 -612h391v612h-136zM966 0v373h-479l-158 -373h-301l613 1443h1270v-249h-669v-353h632v-232h-632v-360h669v-249h-945z" />
    <glyph glyph-name="Ccedilla" unicode="&#xc7;" horiz-adv-x="1459" 
d="M1099 501h294q-24 -224 -174 -363.5t-386 -159.5l-41 -88q86 -1 137 -44.5t51 -119.5q0 -89 -66 -137t-182 -49q-97 -2 -142 14v122q41 -12 112 -12q111 0 111 54q0 30 -28 42.5t-95 12.5h-63v98l49 108q-280 26 -440.5 222t-160.5 521q0 347 184 546.5t499 199.5
q172 0 312.5 -68t225.5 -192t96 -283h-294q-21 133 -114.5 213t-225.5 80q-171 0 -273 -134t-102 -361q0 -231 101 -364.5t275 -133.5q134 0 225 74t115 202z" />
    <glyph glyph-name="Egrave" unicode="&#xc8;" horiz-adv-x="1174" 
d="M1076 250v-250h-956v1443h956v-249h-654v-348h617v-232h-617v-364h654zM480 1563l-267 305h271l226 -305h-230z" />
    <glyph glyph-name="Eacute" unicode="&#xc9;" horiz-adv-x="1174" 
d="M1076 250v-250h-956v1443h956v-249h-654v-348h617v-232h-617v-364h654zM713 1558h-230l226 305h271z" />
    <glyph glyph-name="Ecircumflex" unicode="&#xca;" horiz-adv-x="1174" 
d="M1076 250v-250h-956v1443h956v-249h-654v-348h617v-232h-617v-364h654zM486 1855h224l269 -317h-221l-156 192h-8l-156 -192h-221z" />
    <glyph glyph-name="Edieresis" unicode="&#xcb;" horiz-adv-x="1174" 
d="M1076 250v-250h-956v1443h956v-249h-654v-348h617v-232h-617v-364h654zM394 1571q-57 0 -95.5 38t-38.5 92t38.5 92t95.5 38t95.5 -38t38.5 -92t-38.5 -92t-95.5 -38zM802 1571q-57 0 -95.5 38t-38.5 92t38.5 92t95.5 38t95.5 -38t38.5 -92t-38.5 -92t-95.5 -38z" />
    <glyph glyph-name="Igrave" unicode="&#xcc;" horiz-adv-x="542" 
d="M422 0h-302v1443h302v-1443zM153 1563l-267 305h271l226 -305h-230z" />
    <glyph glyph-name="Iacute" unicode="&#xcd;" horiz-adv-x="542" 
d="M422 0h-302v1443h302v-1443zM386 1558h-230l226 305h271z" />
    <glyph glyph-name="Icircumflex" unicode="&#xce;" horiz-adv-x="542" 
d="M422 0h-302v1443h302v-1443zM159 1855h224l269 -317h-221l-156 192h-8l-156 -192h-221z" />
    <glyph glyph-name="Idieresis" unicode="&#xcf;" horiz-adv-x="542" 
d="M422 0h-302v1443h302v-1443zM67 1571q-57 0 -95.5 38t-38.5 92t38.5 92t95.5 38t95.5 -38t38.5 -92t-38.5 -92t-95.5 -38zM475 1571q-57 0 -95.5 38t-38.5 92t38.5 92t95.5 38t95.5 -38t38.5 -92t-38.5 -92t-95.5 -38z" />
    <glyph glyph-name="Eth" unicode="&#xd0;" horiz-adv-x="1458" 
d="M442 250h213q203 0 309.5 121.5t106.5 354.5q0 226 -108 347t-308 121h-213v-351h255v-221h-255v-372zM140 1443h551q326 0 507 -187t181 -529q0 -343 -181.5 -535t-506.5 -192h-551v622h-98v221h98v600z" />
    <glyph glyph-name="Ntilde" unicode="&#xd1;" horiz-adv-x="1463" 
d="M409 0h-289v1443h252l674 -940h8v940h289v-1443h-250l-675 945h-9v-945zM874 1563q-47 0 -89.5 21.5t-67.5 46.5t-54.5 46.5t-53.5 21.5q-34 0 -52 -33t-18 -89h-159q0 128 62 201t158 73q40 0 75.5 -14t60 -33.5t46 -39.5t43 -34t40.5 -14q66 0 69 124h159
q0 -126 -62.5 -201.5t-156.5 -75.5z" />
    <glyph glyph-name="Ograve" unicode="&#xd2;" horiz-adv-x="1541" 
d="M771 1468q321 0 508.5 -201t187.5 -546q0 -344 -188 -545t-508 -201q-321 0 -508.5 201t-187.5 545q0 345 187.5 546t508.5 201zM771 1216q-177 0 -282.5 -134t-105.5 -361q0 -226 105 -359.5t283 -133.5q177 0 282 133.5t105 359.5q0 227 -105 361t-282 134zM653 1563
l-267 305h271l226 -305h-230z" />
    <glyph glyph-name="Oacute" unicode="&#xd3;" horiz-adv-x="1541" 
d="M771 1468q321 0 508.5 -201t187.5 -546q0 -344 -188 -545t-508 -201q-321 0 -508.5 201t-187.5 545q0 345 187.5 546t508.5 201zM771 1216q-177 0 -282.5 -134t-105.5 -361q0 -226 105 -359.5t283 -133.5q177 0 282 133.5t105 359.5q0 227 -105 361t-282 134zM886 1558
h-230l226 305h271z" />
    <glyph glyph-name="Ocircumflex" unicode="&#xd4;" horiz-adv-x="1541" 
d="M771 1468q321 0 508.5 -201t187.5 -546q0 -344 -188 -545t-508 -201q-321 0 -508.5 201t-187.5 545q0 345 187.5 546t508.5 201zM771 1216q-177 0 -282.5 -134t-105.5 -361q0 -226 105 -359.5t283 -133.5q177 0 282 133.5t105 359.5q0 227 -105 361t-282 134zM659 1855
h224l269 -317h-221l-156 192h-8l-156 -192h-221z" />
    <glyph glyph-name="Otilde" unicode="&#xd5;" horiz-adv-x="1541" 
d="M771 1468q321 0 508.5 -201t187.5 -546q0 -344 -188 -545t-508 -201q-321 0 -508.5 201t-187.5 545q0 345 187.5 546t508.5 201zM771 1216q-177 0 -282.5 -134t-105.5 -361q0 -226 105 -359.5t283 -133.5q177 0 282 133.5t105 359.5q0 227 -105 361t-282 134zM913 1563
q-47 0 -89.5 21.5t-67.5 46.5t-54.5 46.5t-53.5 21.5q-34 0 -52 -33t-18 -89h-159q0 128 62 201t158 73q40 0 75.5 -14t60 -33.5t46 -39.5t43 -34t40.5 -14q66 0 69 124h159q0 -126 -62.5 -201.5t-156.5 -75.5z" />
    <glyph glyph-name="Odieresis" unicode="&#xd6;" horiz-adv-x="1541" 
d="M771 1468q321 0 508.5 -201t187.5 -546q0 -344 -188 -545t-508 -201q-321 0 -508.5 201t-187.5 545q0 345 187.5 546t508.5 201zM771 1216q-177 0 -282.5 -134t-105.5 -361q0 -226 105 -359.5t283 -133.5q177 0 282 133.5t105 359.5q0 227 -105 361t-282 134zM567 1571
q-57 0 -95.5 38t-38.5 92t38.5 92t95.5 38t95.5 -38t38.5 -92t-38.5 -92t-95.5 -38zM975 1571q-57 0 -95.5 38t-38.5 92t38.5 92t95.5 38t95.5 -38t38.5 -92t-38.5 -92t-95.5 -38z" />
    <glyph glyph-name="multiply" unicode="&#xd7;" horiz-adv-x="1326" 
d="M664 409l-305 -304l-175 175l304 304l-304 305l175 175l305 -304l304 304l175 -175l-304 -305l304 -304l-175 -175z" />
    <glyph glyph-name="Oslash" unicode="&#xd8;" horiz-adv-x="1541" 
d="M1081 1041l-505 -759q85 -54 195 -54q177 0 282 133.5t105 359.5q0 194 -77 320zM484 366l514 773q-94 77 -227 77q-177 0 -282.5 -134t-105.5 -361q0 -223 101 -355zM1350 1446l-100 -150q217 -203 217 -575q0 -344 -188 -545t-508 -201q-197 0 -347 78l-80 -120
l-102 68l80 120q-120 97 -183.5 250t-63.5 350q0 345 187.5 546t508.5 201q220 0 381 -98l90 136z" />
    <glyph glyph-name="Ugrave" unicode="&#xd9;" horiz-adv-x="1449" 
d="M422 1443v-903q0 -141 79.5 -223.5t223.5 -82.5q143 0 222.5 82.5t79.5 223.5v903h302v-933q0 -240 -164.5 -387.5t-439.5 -147.5q-276 0 -440.5 147.5t-164.5 387.5v933h302zM607 1563l-267 305h271l226 -305h-230z" />
    <glyph glyph-name="Uacute" unicode="&#xda;" horiz-adv-x="1449" 
d="M422 1443v-903q0 -141 79.5 -223.5t223.5 -82.5q143 0 222.5 82.5t79.5 223.5v903h302v-933q0 -240 -164.5 -387.5t-439.5 -147.5q-276 0 -440.5 147.5t-164.5 387.5v933h302zM840 1558h-230l226 305h271z" />
    <glyph glyph-name="Ucircumflex" unicode="&#xdb;" horiz-adv-x="1449" 
d="M422 1443v-903q0 -141 79.5 -223.5t223.5 -82.5q143 0 222.5 82.5t79.5 223.5v903h302v-933q0 -240 -164.5 -387.5t-439.5 -147.5q-276 0 -440.5 147.5t-164.5 387.5v933h302zM613 1855h224l269 -317h-221l-156 192h-8l-156 -192h-221z" />
    <glyph glyph-name="Udieresis" unicode="&#xdc;" horiz-adv-x="1449" 
d="M422 1443v-903q0 -141 79.5 -223.5t223.5 -82.5q143 0 222.5 82.5t79.5 223.5v903h302v-933q0 -240 -164.5 -387.5t-439.5 -147.5q-276 0 -440.5 147.5t-164.5 387.5v933h302zM521 1571q-57 0 -95.5 38t-38.5 92t38.5 92t95.5 38t95.5 -38t38.5 -92t-38.5 -92t-95.5 -38z
M929 1571q-57 0 -95.5 38t-38.5 92t38.5 92t95.5 38t95.5 -38t38.5 -92t-38.5 -92t-95.5 -38z" />
    <glyph glyph-name="Yacute" unicode="&#xdd;" horiz-adv-x="1362" 
d="M832 0h-302v539l-502 904h329l323 -616h7l324 616h324l-503 -904v-539zM796 1558h-230l226 305h271z" />
    <glyph glyph-name="Thorn" unicode="&#xde;" horiz-adv-x="1330" 
d="M151 1443h304v-235h307q209 0 342 -123.5t133 -333.5q0 -139 -64.5 -244t-175 -159t-250.5 -54h-294v-294h-302v1443zM453 968v-437h226q117 0 184 56t67 163t-66.5 162.5t-183.5 55.5h-227z" />
    <glyph glyph-name="germandbls" unicode="&#xdf;" horiz-adv-x="1330" 
d="M433 0h-291v1062q0 180 132.5 285.5t359.5 105.5q215 0 350 -102t135 -265q0 -118 -57.5 -205.5t-153.5 -115.5v-12q148 -13 236.5 -114t88.5 -252q0 -185 -127 -293.5t-346 -108.5q-114 0 -178 16v232q50 -17 125 -17q107 0 168.5 52.5t61.5 141.5q0 92 -70 146t-192 54
h-71v236h49q85 0 134.5 52t49.5 139q0 83 -54 132.5t-144 49.5q-100 0 -153 -55.5t-53 -160.5v-1003z" />
    <glyph glyph-name="agrave" unicode="&#xe0;" horiz-adv-x="1121" 
d="M509 194q97 0 164.5 56.5t67.5 142.5v78l-226 -14q-82 -6 -126.5 -41t-44.5 -92q0 -60 45 -95t120 -35zM413 -17q-155 0 -257 91t-102 234q0 146 108 229t309 95l270 16v71q0 74 -48.5 116t-131.5 42q-80 0 -130.5 -36t-61.5 -97h-267q8 158 135 254.5t337 96.5
q206 0 330 -98t124 -260v-737h-282v164h-6q-44 -84 -134 -132.5t-193 -48.5zM685 1223h-233l-256 310h268z" />
    <glyph glyph-name="aacute" unicode="&#xe1;" horiz-adv-x="1121" 
d="M509 194q97 0 164.5 56.5t67.5 142.5v78l-226 -14q-82 -6 -126.5 -41t-44.5 -92q0 -60 45 -95t120 -35zM413 -17q-155 0 -257 91t-102 234q0 146 108 229t309 95l270 16v71q0 74 -48.5 116t-131.5 42q-80 0 -130.5 -36t-61.5 -97h-267q8 158 135 254.5t337 96.5
q206 0 330 -98t124 -260v-737h-282v164h-6q-44 -84 -134 -132.5t-193 -48.5zM680 1223h-233l221 310h268z" />
    <glyph glyph-name="acircumflex" unicode="&#xe2;" horiz-adv-x="1121" 
d="M509 194q97 0 164.5 56.5t67.5 142.5v78l-226 -14q-82 -6 -126.5 -41t-44.5 -92q0 -60 45 -95t120 -35zM413 -17q-155 0 -257 91t-102 234q0 146 108 229t309 95l270 16v71q0 74 -48.5 116t-131.5 42q-80 0 -130.5 -36t-61.5 -97h-267q8 158 135 254.5t337 96.5
q206 0 330 -98t124 -260v-737h-282v164h-6q-44 -84 -134 -132.5t-193 -48.5zM678 1531l263 -318h-223l-149 186h-7l-148 -186h-224l264 318h224z" />
    <glyph glyph-name="atilde" unicode="&#xe3;" horiz-adv-x="1121" 
d="M509 194q97 0 164.5 56.5t67.5 142.5v78l-226 -14q-82 -6 -126.5 -41t-44.5 -92q0 -60 45 -95t120 -35zM413 -17q-155 0 -257 91t-102 234q0 146 108 229t309 95l270 16v71q0 74 -48.5 116t-131.5 42q-80 0 -130.5 -36t-61.5 -97h-267q8 158 135 254.5t337 96.5
q206 0 330 -98t124 -260v-737h-282v164h-6q-44 -84 -134 -132.5t-193 -48.5zM710 1218q-39 0 -73.5 14t-59 34t-46.5 40t-44 34t-42 14q-34 0 -52 -33t-18 -89h-159q0 128 62 201t158 73q40 0 75.5 -14t60 -34t46 -39.5t43 -33.5t40.5 -14q66 0 69 124h159
q0 -126 -62.5 -201.5t-156.5 -75.5z" />
    <glyph glyph-name="adieresis" unicode="&#xe4;" horiz-adv-x="1121" 
d="M509 194q97 0 164.5 56.5t67.5 142.5v78l-226 -14q-82 -6 -126.5 -41t-44.5 -92q0 -60 45 -95t120 -35zM413 -17q-155 0 -257 91t-102 234q0 146 108 229t309 95l270 16v71q0 74 -48.5 116t-131.5 42q-80 0 -130.5 -36t-61.5 -97h-267q8 158 135 254.5t337 96.5
q206 0 330 -98t124 -260v-737h-282v164h-6q-44 -84 -134 -132.5t-193 -48.5zM362 1220q-57 0 -95.5 38t-38.5 92t38.5 92t95.5 38t95.5 -38t38.5 -92t-38.5 -92t-95.5 -38zM770 1220q-57 0 -95.5 38t-38.5 92t38.5 92t95.5 38t95.5 -38t38.5 -92t-38.5 -92t-95.5 -38z" />
    <glyph glyph-name="aring" unicode="&#xe5;" horiz-adv-x="1121" 
d="M509 194q97 0 164.5 56.5t67.5 142.5v78l-226 -14q-82 -6 -126.5 -41t-44.5 -92q0 -60 45 -95t120 -35zM413 -17q-155 0 -257 91t-102 234q0 146 108 229t309 95l270 16v71q0 74 -48.5 116t-131.5 42q-80 0 -130.5 -36t-61.5 -97h-267q8 158 135 254.5t337 96.5
q206 0 330 -98t124 -260v-737h-282v164h-6q-44 -84 -134 -132.5t-193 -48.5zM566 1174q-89 0 -153 62.5t-64 150.5t64 150.5t153 62.5t153 -62.5t64 -150.5t-64 -150.5t-153 -62.5zM566 1293q39 0 67.5 27.5t28.5 66.5t-28.5 66.5t-67.5 27.5t-67 -27.5t-28 -66.5t28 -66.5
t67 -27.5z" />
    <glyph glyph-name="ae" unicode="&#xe6;" horiz-adv-x="1798" 
d="M1252 -23q-133 0 -237.5 54.5t-155.5 149.5h-9q-57 -94 -157 -146t-233 -52q-188 0 -298.5 89.5t-110.5 235.5q0 145 109 228t315 94l266 15v59q0 74 -54.5 123.5t-137.5 49.5q-79 0 -131.5 -37.5t-59.5 -96.5h-263q8 157 130.5 254.5t316.5 97.5q126 0 219.5 -43
t137.5 -118h8q114 161 353 161q218 0 350 -145t132 -392v-88h-730v-19q0 -114 67.5 -186t176.5 -72q77 0 133 36.5t77 98.5h268q-24 -158 -156 -254.5t-326 -96.5zM1244 879q-95 0 -158 -64.5t-71 -166.5h446q-4 105 -63 168t-154 63zM501 190q99 0 169.5 60t70.5 143v75
l-231 -15q-85 -6 -132.5 -40t-47.5 -90q0 -58 48.5 -95.5t122.5 -37.5z" />
    <glyph glyph-name="ccedilla" unicode="&#xe7;" horiz-adv-x="1116" 
d="M798 393h272q-10 -172 -121 -282t-292 -130l-42 -91q86 -1 137 -44.5t51 -119.5q0 -89 -66 -137t-182 -49q-97 -2 -142 14v122q41 -12 112 -12q111 0 111 54q0 30 -28 42.5t-95 12.5h-63v98l50 111q-207 26 -325.5 172t-118.5 383q0 257 142.5 407.5t383.5 150.5
q214 0 345.5 -118t141.5 -304h-271q-13 87 -68.5 140t-143.5 53q-109 0 -171.5 -87.5t-62.5 -241.5q0 -157 62.5 -244t172.5 -87q87 0 142 49.5t69 137.5z" />
    <glyph glyph-name="egrave" unicode="&#xe8;" horiz-adv-x="1137" 
d="M576 879q-95 0 -158.5 -65t-71.5 -166h455q-5 103 -66.5 167t-158.5 64zM805 328h268q-24 -158 -157.5 -254.5t-331.5 -96.5q-247 0 -387.5 148t-140.5 406q0 257 140 410.5t377 153.5q233 0 371 -146t138 -391v-89h-739v-18q0 -115 67.5 -186.5t178.5 -71.5
q80 0 138 36.5t78 98.5zM692 1223h-233l-256 310h268z" />
    <glyph glyph-name="eacute" unicode="&#xe9;" horiz-adv-x="1137" 
d="M576 879q-95 0 -158.5 -65t-71.5 -166h455q-5 103 -66.5 167t-158.5 64zM805 328h268q-24 -158 -157.5 -254.5t-331.5 -96.5q-247 0 -387.5 148t-140.5 406q0 257 140 410.5t377 153.5q233 0 371 -146t138 -391v-89h-739v-18q0 -115 67.5 -186.5t178.5 -71.5
q80 0 138 36.5t78 98.5zM687 1223h-233l221 310h268z" />
    <glyph glyph-name="ecircumflex" unicode="&#xea;" horiz-adv-x="1137" 
d="M576 879q-95 0 -158.5 -65t-71.5 -166h455q-5 103 -66.5 167t-158.5 64zM805 328h268q-24 -158 -157.5 -254.5t-331.5 -96.5q-247 0 -387.5 148t-140.5 406q0 257 140 410.5t377 153.5q233 0 371 -146t138 -391v-89h-739v-18q0 -115 67.5 -186.5t178.5 -71.5
q80 0 138 36.5t78 98.5zM685 1531l263 -318h-223l-149 186h-7l-148 -186h-224l264 318h224z" />
    <glyph glyph-name="edieresis" unicode="&#xeb;" horiz-adv-x="1137" 
d="M576 879q-95 0 -158.5 -65t-71.5 -166h455q-5 103 -66.5 167t-158.5 64zM805 328h268q-24 -158 -157.5 -254.5t-331.5 -96.5q-247 0 -387.5 148t-140.5 406q0 257 140 410.5t377 153.5q233 0 371 -146t138 -391v-89h-739v-18q0 -115 67.5 -186.5t178.5 -71.5
q80 0 138 36.5t78 98.5zM369 1220q-57 0 -95.5 38t-38.5 92t38.5 92t95.5 38t95.5 -38t38.5 -92t-38.5 -92t-95.5 -38zM777 1220q-57 0 -95.5 38t-38.5 92t38.5 92t95.5 38t95.5 -38t38.5 -92t-38.5 -92t-95.5 -38z" />
    <glyph glyph-name="igrave" unicode="&#xec;" horiz-adv-x="491" 
d="M100 0v1072h292v-1072h-292zM365 1223h-233l-256 310h268z" />
    <glyph glyph-name="iacute" unicode="&#xed;" horiz-adv-x="491" 
d="M100 0v1072h292v-1072h-292zM360 1223h-233l221 310h268z" />
    <glyph glyph-name="icircumflex" unicode="&#xee;" horiz-adv-x="491" 
d="M100 0v1072h292v-1072h-292zM358 1531l263 -318h-223l-149 186h-7l-148 -186h-224l264 318h224z" />
    <glyph glyph-name="idieresis" unicode="&#xef;" horiz-adv-x="491" 
d="M100 0v1072h292v-1072h-292zM42 1220q-57 0 -95.5 38t-38.5 92t38.5 92t95.5 38t95.5 -38t38.5 -92t-38.5 -92t-95.5 -38zM450 1220q-57 0 -95.5 38t-38.5 92t38.5 92t95.5 38t95.5 -38t38.5 -92t-38.5 -92t-95.5 -38z" />
    <glyph glyph-name="eth" unicode="&#xf0;" horiz-adv-x="1203" 
d="M591 -17q-241 0 -384 143.5t-143 394.5q0 233 125 368t326 135q84 0 155.5 -33.5t109.5 -89.5h17q-20 65 -67.5 142t-98.5 133l-277 -92l-56 138l222 74q-73 65 -238 179h364q63 -49 113 -99l259 87l57 -139l-196 -65q243 -283 243 -672q0 -284 -144.5 -444t-386.5 -160z
M598 821q-110 0 -172.5 -80.5t-62.5 -221.5q0 -139 63 -220t172 -81t172.5 80.5t63.5 220.5q0 139 -64 220.5t-172 81.5z" />
    <glyph glyph-name="ntilde" unicode="&#xf1;" horiz-adv-x="1180" 
d="M95 0v1072h282v-191h6q44 102 128.5 156.5t206.5 54.5q178 0 275 -106t97 -295v-691h-292v630q0 106 -50 163t-147 57t-155.5 -65t-58.5 -170v-615h-292zM736 1218q-39 0 -73.5 14t-59 34t-46.5 40t-44 34t-42 14q-34 0 -52 -33t-18 -89h-159q0 128 62 201t158 73
q40 0 75.5 -14t60 -34t46 -39.5t43 -33.5t40.5 -14q66 0 69 124h159q0 -126 -62.5 -201.5t-156.5 -75.5z" />
    <glyph glyph-name="ograve" unicode="&#xf2;" horiz-adv-x="1173" 
d="M587 -23q-245 0 -388 149t-143 411q0 259 144.5 408.5t386.5 149.5q243 0 387 -149.5t144 -408.5q0 -263 -143 -411.5t-388 -148.5zM587 200q108 0 171 88t63 248q0 158 -63 247t-171 89t-171.5 -89t-63.5 -247q0 -160 63 -248t172 -88zM706 1223h-233l-256 310h268z" />
    <glyph glyph-name="oacute" unicode="&#xf3;" horiz-adv-x="1173" 
d="M587 -23q-245 0 -388 149t-143 411q0 259 144.5 408.5t386.5 149.5q243 0 387 -149.5t144 -408.5q0 -263 -143 -411.5t-388 -148.5zM587 200q108 0 171 88t63 248q0 158 -63 247t-171 89t-171.5 -89t-63.5 -247q0 -160 63 -248t172 -88zM701 1223h-233l221 310h268z" />
    <glyph glyph-name="ocircumflex" unicode="&#xf4;" horiz-adv-x="1173" 
d="M587 -23q-245 0 -388 149t-143 411q0 259 144.5 408.5t386.5 149.5q243 0 387 -149.5t144 -408.5q0 -263 -143 -411.5t-388 -148.5zM587 200q108 0 171 88t63 248q0 158 -63 247t-171 89t-171.5 -89t-63.5 -247q0 -160 63 -248t172 -88zM699 1531l263 -318h-223l-149 186
h-7l-148 -186h-224l264 318h224z" />
    <glyph glyph-name="otilde" unicode="&#xf5;" horiz-adv-x="1173" 
d="M587 -23q-245 0 -388 149t-143 411q0 259 144.5 408.5t386.5 149.5q243 0 387 -149.5t144 -408.5q0 -263 -143 -411.5t-388 -148.5zM587 200q108 0 171 88t63 248q0 158 -63 247t-171 89t-171.5 -89t-63.5 -247q0 -160 63 -248t172 -88zM731 1218q-39 0 -73.5 14t-59 34
t-46.5 40t-44 34t-42 14q-34 0 -52 -33t-18 -89h-159q0 128 62 201t158 73q40 0 75.5 -14t60 -34t46 -39.5t43 -33.5t40.5 -14q66 0 69 124h159q0 -126 -62.5 -201.5t-156.5 -75.5z" />
    <glyph glyph-name="odieresis" unicode="&#xf6;" horiz-adv-x="1173" 
d="M587 -23q-245 0 -388 149t-143 411q0 259 144.5 408.5t386.5 149.5q243 0 387 -149.5t144 -408.5q0 -263 -143 -411.5t-388 -148.5zM587 200q108 0 171 88t63 248q0 158 -63 247t-171 89t-171.5 -89t-63.5 -247q0 -160 63 -248t172 -88zM383 1220q-57 0 -95.5 38
t-38.5 92t38.5 92t95.5 38t95.5 -38t38.5 -92t-38.5 -92t-95.5 -38zM791 1220q-57 0 -95.5 38t-38.5 92t38.5 92t95.5 38t95.5 -38t38.5 -92t-38.5 -92t-95.5 -38z" />
    <glyph glyph-name="divide" unicode="&#xf7;" horiz-adv-x="1326" 
d="M664 810q-74 0 -120.5 44t-46.5 114q0 71 46.5 115t120.5 44t120.5 -44t46.5 -115q0 -70 -46.5 -114t-120.5 -44zM664 32q-74 0 -120.5 44t-46.5 114q0 71 46.5 115t120.5 44t120.5 -44t46.5 -115q0 -70 -46.5 -114t-120.5 -44zM1203 470h-1079v218h1079v-218z" />
    <glyph glyph-name="oslash" unicode="&#xf8;" horiz-adv-x="1173" 
d="M786 733l-313 -501q50 -32 114 -32q108 0 171 88t63 248q0 116 -35 197zM393 325l317 508q-51 39 -123 39q-108 0 -171.5 -89t-63.5 -247q0 -126 41 -211zM1004 1082l-65 -104q179 -151 179 -441q0 -263 -143 -411.5t-388 -148.5q-137 0 -243 48l-59 -95l-100 61l59 94
q-188 149 -188 452q0 259 144.5 408.5t386.5 149.5q142 0 253 -53l61 97z" />
    <glyph glyph-name="ugrave" unicode="&#xf9;" horiz-adv-x="1180" 
d="M1085 1072v-1072h-282v193h-6q-84 -213 -321 -213q-176 0 -281 107.5t-105 293.5v691h292v-630q0 -107 51.5 -163t148.5 -56t154 64t57 171v614h292zM708 1223h-233l-256 310h268z" />
    <glyph glyph-name="uacute" unicode="&#xfa;" horiz-adv-x="1180" 
d="M1085 1072v-1072h-282v193h-6q-84 -213 -321 -213q-176 0 -281 107.5t-105 293.5v691h292v-630q0 -107 51.5 -163t148.5 -56t154 64t57 171v614h292zM703 1223h-233l221 310h268z" />
    <glyph glyph-name="ucircumflex" unicode="&#xfb;" horiz-adv-x="1180" 
d="M1085 1072v-1072h-282v193h-6q-84 -213 -321 -213q-176 0 -281 107.5t-105 293.5v691h292v-630q0 -107 51.5 -163t148.5 -56t154 64t57 171v614h292zM701 1531l263 -318h-223l-149 186h-7l-148 -186h-224l264 318h224z" />
    <glyph glyph-name="udieresis" unicode="&#xfc;" horiz-adv-x="1180" 
d="M1085 1072v-1072h-282v193h-6q-84 -213 -321 -213q-176 0 -281 107.5t-105 293.5v691h292v-630q0 -107 51.5 -163t148.5 -56t154 64t57 171v614h292zM385 1220q-57 0 -95.5 38t-38.5 92t38.5 92t95.5 38t95.5 -38t38.5 -92t-38.5 -92t-95.5 -38zM793 1220q-57 0 -95.5 38
t-38.5 92t38.5 92t95.5 38t95.5 -38t38.5 -92t-38.5 -92t-95.5 -38z" />
    <glyph glyph-name="yacute" unicode="&#xfd;" horiz-adv-x="1112" 
d="M232 -397q-96 0 -110 3v225q9 -2 73 -2q81 0 123 27.5t57 91.5q0 1 5 25t4 26l-373 1073h321l228 -838h5l228 838h308l-369 -1096q-69 -206 -181.5 -289.5t-318.5 -83.5zM671 1223h-233l221 310h268z" />
    <glyph glyph-name="thorn" unicode="&#xfe;" horiz-adv-x="1224" 
d="M731 1089q204 0 319.5 -146.5t115.5 -406.5q0 -259 -115 -406t-317 -147q-115 0 -199.5 47.5t-123.5 133.5h-18v-500h-291v1779h288v-547h17q44 91 129 142t195 51zM629 218q112 0 175 84.5t63 233.5t-63 234t-175 85q-110 0 -174 -85.5t-65 -233.5q1 -148 65 -233
t174 -85z" />
    <glyph glyph-name="ydieresis" unicode="&#xff;" horiz-adv-x="1112" 
d="M232 -397q-96 0 -110 3v225q9 -2 73 -2q81 0 123 27.5t57 91.5q0 1 5 25t4 26l-373 1073h321l228 -838h5l228 838h308l-369 -1096q-69 -206 -181.5 -289.5t-318.5 -83.5zM353 1220q-57 0 -95.5 38t-38.5 92t38.5 92t95.5 38t95.5 -38t38.5 -92t-38.5 -92t-95.5 -38z
M761 1220q-57 0 -95.5 38t-38.5 92t38.5 92t95.5 38t95.5 -38t38.5 -92t-38.5 -92t-95.5 -38z" />
    <glyph glyph-name="Amacron" unicode="&#x100;" horiz-adv-x="1413" 
d="M1065 0l-110 350h-507l-110 -350h-310l501 1443h355l502 -1443h-321zM698 1167l-185 -591h377l-185 591h-7zM1053 1768v-148h-692v148h692z" />
    <glyph glyph-name="amacron" unicode="&#x101;" horiz-adv-x="1121" 
d="M509 194q97 0 164.5 56.5t67.5 142.5v78l-226 -14q-82 -6 -126.5 -41t-44.5 -92q0 -60 45 -95t120 -35zM413 -17q-155 0 -257 91t-102 234q0 146 108 229t309 95l270 16v71q0 74 -48.5 116t-131.5 42q-80 0 -130.5 -36t-61.5 -97h-267q8 158 135 254.5t337 96.5
q206 0 330 -98t124 -260v-737h-282v164h-6q-44 -84 -134 -132.5t-193 -48.5zM886 1403v-148h-639v148h639z" />
    <glyph glyph-name="Abreve" unicode="&#x102;" horiz-adv-x="1413" 
d="M1065 0l-110 350h-507l-110 -350h-310l501 1443h355l502 -1443h-321zM698 1167l-185 -591h377l-185 591h-7zM349 1859h181q6 -78 53.5 -124.5t123.5 -46.5t123.5 46.5t53.5 124.5h181q-7 -136 -102.5 -228t-255.5 -92t-255.5 92t-102.5 228z" />
    <glyph glyph-name="abreve" unicode="&#x103;" horiz-adv-x="1121" 
d="M509 194q97 0 164.5 56.5t67.5 142.5v78l-226 -14q-82 -6 -126.5 -41t-44.5 -92q0 -60 45 -95t120 -35zM413 -17q-155 0 -257 91t-102 234q0 146 108 229t309 95l270 16v71q0 74 -48.5 116t-131.5 42q-80 0 -130.5 -36t-61.5 -97h-267q8 158 135 254.5t337 96.5
q206 0 330 -98t124 -260v-737h-282v164h-6q-44 -84 -134 -132.5t-193 -48.5zM207 1530h181q2 -79 49.5 -127t127.5 -48t128 48t50 127h181q-2 -140 -98.5 -231t-260.5 -91t-260 91t-98 231z" />
    <glyph glyph-name="Aogonek" unicode="&#x104;" horiz-adv-x="1413" 
d="M698 1167l-185 -591h377l-185 591h-7zM1317 -441q-47 -21 -145 -21q-118 0 -192.5 59.5t-74.5 154.5q0 146 160 248l-110 350h-507l-110 -350h-310l501 1443h355l501 -1441l-49 -6q-94 -25 -155.5 -80t-61.5 -113q0 -46 33 -71t88 -25q46 0 77 9v-157z" />
    <glyph glyph-name="aogonek" unicode="&#x105;" horiz-adv-x="1121" 
d="M509 194q97 0 164.5 56.5t67.5 142.5v77l-226 -14q-82 -6 -126.5 -40.5t-44.5 -91.5q0 -60 45 -95t120 -35zM993 -428q-44 -22 -143 -22q-117 0 -190 58t-73 152q0 74 46 137.5t113 103.5v163h-6q-44 -84 -134.5 -133t-192.5 -49q-155 0 -257 91.5t-102 234.5
q0 145 108 228t309 95l270 16v70q0 74 -48 115t-131 41q-78 0 -129.5 -35.5t-61.5 -94.5h-266q6 156 135 252t335 96q204 0 328.5 -98t124.5 -258v-736l-34 -6q-79 -19 -136.5 -69t-57.5 -112q0 -45 31 -69.5t87 -24.5q46 0 75 9v-155z" />
    <glyph glyph-name="Cacute" unicode="&#x106;" horiz-adv-x="1459" 
d="M758 -25q-316 0 -499.5 199.5t-183.5 547.5q0 347 184 546.5t499 199.5q172 0 312.5 -68t225.5 -192t96 -283h-294q-21 133 -114.5 213t-225.5 80q-171 0 -273 -134t-102 -361q0 -231 101 -364.5t275 -133.5q134 0 225 74t115 202h294q-25 -241 -197 -383.5t-438 -142.5z
M860 1559h-230l226 305h271z" />
    <glyph glyph-name="cacute" unicode="&#x107;" horiz-adv-x="1116" 
d="M1069 673h-271q-13 87 -68.5 140t-143.5 53q-109 0 -171.5 -87.5t-62.5 -241.5q0 -157 62.5 -244t172.5 -87q87 0 142 49.5t69 137.5h272q-11 -190 -143 -303t-343 -113q-244 0 -386 149.5t-142 410.5q0 257 142.5 407.5t383.5 150.5q214 0 345.5 -118t141.5 -304z
M682 1223h-233l221 310h268z" />
    <glyph glyph-name="Ccircumflex" unicode="&#x108;" horiz-adv-x="1459" 
d="M758 -25q-316 0 -499.5 199.5t-183.5 547.5q0 347 184 546.5t499 199.5q172 0 312.5 -68t225.5 -192t96 -283h-294q-21 133 -114.5 213t-225.5 80q-171 0 -273 -134t-102 -361q0 -231 101 -364.5t275 -133.5q134 0 225 74t115 202h294q-25 -241 -197 -383.5t-438 -142.5z
M633 1856h224l269 -317h-221l-156 192h-8l-156 -192h-221z" />
    <glyph glyph-name="ccircumflex" unicode="&#x109;" horiz-adv-x="1116" 
d="M1069 673h-271q-13 87 -68.5 140t-143.5 53q-109 0 -171.5 -87.5t-62.5 -241.5q0 -157 62.5 -244t172.5 -87q87 0 142 49.5t69 137.5h272q-11 -190 -143 -303t-343 -113q-244 0 -386 149.5t-142 410.5q0 257 142.5 407.5t383.5 150.5q214 0 345.5 -118t141.5 -304z
M680 1531l263 -318h-223l-149 186h-7l-148 -186h-224l264 318h224z" />
    <glyph glyph-name="Cdotaccent" unicode="&#x10a;" horiz-adv-x="1459" 
d="M758 -25q-316 0 -499.5 199.5t-183.5 547.5q0 347 184 546.5t499 199.5q172 0 312.5 -68t225.5 -192t96 -283h-294q-21 133 -114.5 213t-225.5 80q-171 0 -273 -134t-102 -361q0 -231 101 -364.5t275 -133.5q134 0 225 74t115 202h294q-25 -241 -197 -383.5t-438 -142.5z
M745 1562q-63 0 -106 43.5t-43 105.5t43 105.5t106 43.5t106 -43.5t43 -105.5t-43 -105.5t-106 -43.5z" />
    <glyph glyph-name="cdotaccent" unicode="&#x10b;" horiz-adv-x="1116" 
d="M1069 673h-271q-13 87 -68.5 140t-143.5 53q-109 0 -171.5 -87.5t-62.5 -241.5q0 -157 62.5 -244t172.5 -87q87 0 142 49.5t69 137.5h272q-11 -190 -143 -303t-343 -113q-244 0 -386 149.5t-142 410.5q0 257 142.5 407.5t383.5 150.5q214 0 345.5 -118t141.5 -304z
M567 1223q-63 0 -107 43.5t-44 104.5q0 62 44 105.5t107 43.5t106.5 -43.5t43.5 -105.5q0 -61 -43.5 -104.5t-106.5 -43.5z" />
    <glyph glyph-name="Ccaron" unicode="&#x10c;" horiz-adv-x="1459" 
d="M758 -25q-316 0 -499.5 199.5t-183.5 547.5q0 347 184 546.5t499 199.5q172 0 312.5 -68t225.5 -192t96 -283h-294q-21 133 -114.5 213t-225.5 80q-171 0 -273 -134t-102 -361q0 -231 101 -364.5t275 -133.5q134 0 225 74t115 202h294q-25 -241 -197 -383.5t-438 -142.5z
M633 1544l-269 317h221l156 -192h8l156 192h221l-269 -317h-224z" />
    <glyph glyph-name="ccaron" unicode="&#x10d;" horiz-adv-x="1116" 
d="M1069 673h-271q-13 87 -68.5 140t-143.5 53q-109 0 -171.5 -87.5t-62.5 -241.5q0 -157 62.5 -244t172.5 -87q87 0 142 49.5t69 137.5h272q-11 -190 -143 -303t-343 -113q-244 0 -386 149.5t-142 410.5q0 257 142.5 407.5t383.5 150.5q214 0 345.5 -118t141.5 -304z
M680 1213h-224l-264 318h224l148 -188h7l149 188h223z" />
    <glyph glyph-name="Dcaron" unicode="&#x10e;" horiz-adv-x="1433" 
d="M120 1443h551q326 0 507 -187t181 -529q0 -343 -181.5 -535t-506.5 -192h-551v1443zM422 1194v-944h213q203 0 309.5 121.5t106.5 354.5q0 226 -108 347t-308 121h-213zM532 1543l-269 317h221l156 -192h8l156 192h221l-269 -317h-224z" />
    <glyph glyph-name="dcaron" unicode="&#x10f;" horiz-adv-x="1429" 
d="M1268 1443h216l-40 -490h-176v490zM493 -17q-201 0 -319 149t-118 406q0 255 118.5 403t320.5 148q114 0 200.5 -55t126.5 -146h6v555h292v-1443h-288v184h-5q-40 -91 -129 -146t-205 -55zM592 855q-110 0 -173.5 -86t-63.5 -233q0 -148 63.5 -233t173.5 -85
q109 0 173.5 85.5t64.5 232.5q0 146 -64.5 232.5t-173.5 86.5z" />
    <glyph glyph-name="Dcroat" unicode="&#x110;" horiz-adv-x="1453" 
d="M442 250h213q203 0 309.5 121.5t106.5 354.5q0 226 -108 347t-308 121h-213v-351h255v-221h-255v-372zM140 1443h551q326 0 507 -187t181 -529q0 -343 -181.5 -535t-506.5 -192h-551v622h-98v221h98v600z" />
    <glyph glyph-name="dcroat" unicode="&#x111;" horiz-adv-x="1244" 
d="M592 222q109 0 173.5 85t64.5 229q0 143 -64.5 228.5t-173.5 85.5t-173 -85t-64 -229q0 -145 64 -229.5t173 -84.5zM1218 1341v-148h-98v-1193h-288v184h-5q-40 -90 -128.5 -143.5t-205.5 -53.5q-200 0 -318.5 148.5t-118.5 402.5q0 251 119 399t320 148q114 0 200.5 -53
t126.5 -144h6v305h-204v148h204v102h292v-102h98z" />
    <glyph glyph-name="Emacron" unicode="&#x112;" horiz-adv-x="1174" 
d="M1076 250v-250h-956v1443h956v-249h-654v-348h617v-232h-617v-364h654zM944 1768v-148h-692v148h692z" />
    <glyph glyph-name="emacron" unicode="&#x113;" horiz-adv-x="1137" 
d="M576 879q-95 0 -158.5 -65t-71.5 -166h455q-5 103 -66.5 167t-158.5 64zM805 328h268q-24 -158 -157.5 -254.5t-331.5 -96.5q-247 0 -387.5 148t-140.5 406q0 257 140 410.5t377 153.5q233 0 371 -146t138 -391v-89h-739v-18q0 -115 67.5 -186.5t178.5 -71.5
q80 0 138 36.5t78 98.5zM893 1403v-148h-639v148h639z" />
    <glyph glyph-name="Ebreve" unicode="&#x114;" horiz-adv-x="1174" 
d="M1076 250v-250h-956v1443h956v-249h-654v-348h617v-232h-617v-364h654zM240 1859h181q6 -78 53.5 -124.5t123.5 -46.5t123.5 46.5t53.5 124.5h181q-7 -136 -102.5 -228t-255.5 -92t-255.5 92t-102.5 228z" />
    <glyph glyph-name="ebreve" unicode="&#x115;" horiz-adv-x="1137" 
d="M576 879q-95 0 -158.5 -65t-71.5 -166h455q-5 103 -66.5 167t-158.5 64zM805 328h268q-24 -158 -157.5 -254.5t-331.5 -96.5q-247 0 -387.5 148t-140.5 406q0 257 140 410.5t377 153.5q233 0 371 -146t138 -391v-89h-739v-18q0 -115 67.5 -186.5t178.5 -71.5
q80 0 138 36.5t78 98.5zM214 1530h181q2 -79 49.5 -127t127.5 -48t128 48t50 127h181q-2 -140 -98.5 -231t-260.5 -91t-260 91t-98 231z" />
    <glyph glyph-name="Edotaccent" unicode="&#x116;" horiz-adv-x="1174" 
d="M1076 250v-250h-956v1443h956v-249h-654v-348h617v-232h-617v-364h654zM598 1561q-63 0 -106 43.5t-43 105.5t43 105.5t106 43.5t106 -43.5t43 -105.5t-43 -105.5t-106 -43.5z" />
    <glyph glyph-name="edotaccent" unicode="&#x117;" horiz-adv-x="1137" 
d="M576 879q-95 0 -158.5 -65t-71.5 -166h455q-5 103 -66.5 167t-158.5 64zM805 328h268q-24 -158 -157.5 -254.5t-331.5 -96.5q-247 0 -387.5 148t-140.5 406q0 257 140 410.5t377 153.5q233 0 371 -146t138 -391v-89h-739v-18q0 -115 67.5 -186.5t178.5 -71.5
q80 0 138 36.5t78 98.5zM572 1223q-63 0 -107 43.5t-44 104.5q0 62 44 105.5t107 43.5t106.5 -43.5t43.5 -105.5q0 -61 -43.5 -104.5t-106.5 -43.5z" />
    <glyph glyph-name="Eogonek" unicode="&#x118;" horiz-adv-x="1174" 
d="M120 0v1443h956v-249h-654v-348h617v-232h-617v-364h654v-243l-35 -8q-92 -28 -151.5 -84t-59.5 -112q0 -46 33 -71t89 -25q47 0 76 9v-157q-45 -21 -145 -21q-117 0 -191.5 59t-74.5 154q0 71 41.5 135.5t114.5 109.5v4h-653z" />
    <glyph glyph-name="eogonek" unicode="&#x119;" horiz-adv-x="1137" 
d="M777 -450q-116 0 -189.5 58t-73.5 151q0 63 36 119.5t103 97.5v6q-21 -5 -69 -5q-247 0 -387.5 148t-140.5 406q0 257 140 410.5t377 153.5q233 0 371 -146t138 -391v-89h-739v-18q0 -115 67.5 -186.5t178.5 -71.5q80 0 137.5 36.5t78.5 98.5h268q-23 -145 -163 -258
q-93 -76 -138.5 -137t-45.5 -116q0 -48 32 -73.5t87 -25.5q46 0 75 9v-155q-47 -22 -143 -22zM576 879q-95 0 -158.5 -65t-71.5 -166h455q-5 103 -66.5 167t-158.5 64z" />
    <glyph glyph-name="Ecaron" unicode="&#x11a;" horiz-adv-x="1174" 
d="M1076 250v-250h-956v1443h956v-249h-654v-348h617v-232h-617v-364h654zM486 1543l-269 317h221l156 -192h8l156 192h221l-269 -317h-224z" />
    <glyph glyph-name="ecaron" unicode="&#x11b;" horiz-adv-x="1137" 
d="M576 879q-95 0 -158.5 -65t-71.5 -166h455q-5 103 -66.5 167t-158.5 64zM805 328h268q-24 -158 -157.5 -254.5t-331.5 -96.5q-247 0 -387.5 148t-140.5 406q0 257 140 410.5t377 153.5q233 0 371 -146t138 -391v-89h-739v-18q0 -115 67.5 -186.5t178.5 -71.5
q80 0 138 36.5t78 98.5zM685 1213h-224l-264 318h224l148 -188h7l149 188h223z" />
    <glyph glyph-name="Gcircumflex" unicode="&#x11c;" horiz-adv-x="1489" 
d="M1410 606q0 -295 -169.5 -463t-470.5 -168q-324 0 -509.5 200t-185.5 551q0 346 184.5 544t503.5 198q252 0 427 -136t207 -355h-303q-33 113 -120.5 177t-209.5 64q-179 0 -280 -129t-101 -359q0 -234 105.5 -369t286.5 -135q148 0 241.5 83t98.5 217l1 23h-314v220h608
v-163zM639 1855h224l269 -317h-221l-156 192h-8l-156 -192h-221z" />
    <glyph glyph-name="gcircumflex" unicode="&#x11d;" horiz-adv-x="1215" 
d="M590 228q110 0 174.5 82.5t64.5 227.5t-65 231t-174 86q-108 0 -171.5 -85.5t-63.5 -231.5t63 -228t172 -82zM585 -404q-209 0 -343.5 91.5t-152.5 236.5h286q17 -56 76.5 -90.5t141.5 -34.5q111 0 173 56.5t62 151.5v188h-6q-38 -87 -127 -139.5t-204 -52.5
q-198 0 -316.5 144t-118.5 393q0 255 118 402t322 147q114 0 201 -55t130 -149h5v187h288v-1057q0 -191 -146.5 -305t-388.5 -114zM708 1531l263 -318h-223l-149 186h-7l-148 -186h-224l264 318h224z" />
    <glyph glyph-name="Gbreve" unicode="&#x11e;" horiz-adv-x="1489" 
d="M1410 606q0 -295 -169.5 -463t-470.5 -168q-324 0 -509.5 200t-185.5 551q0 346 184.5 544t503.5 198q252 0 427 -136t207 -355h-303q-33 113 -120.5 177t-209.5 64q-179 0 -280 -129t-101 -359q0 -234 105.5 -369t286.5 -135q148 0 241.5 83t98.5 217l1 23h-314v220h608
v-163zM393 1859h181q6 -78 53.5 -124.5t123.5 -46.5t123.5 46.5t53.5 124.5h181q-7 -136 -102.5 -228t-255.5 -92t-255.5 92t-102.5 228z" />
    <glyph glyph-name="gbreve" unicode="&#x11f;" horiz-adv-x="1215" 
d="M590 228q110 0 174.5 82.5t64.5 227.5t-65 231t-174 86q-108 0 -171.5 -85.5t-63.5 -231.5t63 -228t172 -82zM585 -404q-209 0 -343.5 91.5t-152.5 236.5h286q17 -56 76.5 -90.5t141.5 -34.5q111 0 173 56.5t62 151.5v188h-6q-38 -87 -127 -139.5t-204 -52.5
q-198 0 -316.5 144t-118.5 393q0 255 118 402t322 147q114 0 201 -55t130 -149h5v187h288v-1057q0 -191 -146.5 -305t-388.5 -114zM237 1530h181q2 -79 49.5 -127t127.5 -48t128 48t50 127h181q-2 -140 -98.5 -231t-260.5 -91t-260 91t-98 231z" />
    <glyph glyph-name="Gdotaccent" unicode="&#x120;" horiz-adv-x="1489" 
d="M1410 606q0 -295 -169.5 -463t-470.5 -168q-324 0 -509.5 200t-185.5 551q0 346 184.5 544t503.5 198q252 0 427 -136t207 -355h-303q-33 113 -120.5 177t-209.5 64q-179 0 -280 -129t-101 -359q0 -234 105.5 -369t286.5 -135q148 0 241.5 83t98.5 217l1 23h-314v220h608
v-163zM751 1561q-63 0 -106 43.5t-43 105.5t43 105.5t106 43.5t106 -43.5t43 -105.5t-43 -105.5t-106 -43.5z" />
    <glyph glyph-name="gdotaccent" unicode="&#x121;" horiz-adv-x="1215" 
d="M590 228q110 0 174.5 82.5t64.5 227.5t-65 231t-174 86q-108 0 -171.5 -85.5t-63.5 -231.5t63 -228t172 -82zM585 -404q-209 0 -343.5 91.5t-152.5 236.5h286q17 -56 76.5 -90.5t141.5 -34.5q111 0 173 56.5t62 151.5v188h-6q-38 -87 -127 -139.5t-204 -52.5
q-198 0 -316.5 144t-118.5 393q0 255 118 402t322 147q114 0 201 -55t130 -149h5v187h288v-1057q0 -191 -146.5 -305t-388.5 -114zM595 1223q-63 0 -107 43.5t-44 104.5q0 62 44 105.5t107 43.5t106.5 -43.5t43.5 -105.5q0 -61 -43.5 -104.5t-106.5 -43.5z" />
    <glyph glyph-name="Gcommaaccent" unicode="&#x122;" horiz-adv-x="1489" 
d="M1410 606q0 -295 -169.5 -463t-470.5 -168q-324 0 -509.5 200t-185.5 551q0 346 184.5 544t503.5 198q252 0 427 -136t207 -355h-303q-33 113 -120.5 177t-209.5 64q-179 0 -280 -129t-101 -359q0 -234 105.5 -369t286.5 -135q148 0 241.5 83t98.5 217l1 23h-314v220h608
v-163zM722 -472h-217l130 340h256z" />
    <glyph glyph-name="gcommaaccent" unicode="&#x123;" horiz-adv-x="1215" 
d="M590 228q110 0 174.5 82.5t64.5 227.5t-65 231t-174 86q-108 0 -171.5 -85.5t-63.5 -231.5t63 -228t172 -82zM585 -404q-209 0 -343.5 91.5t-152.5 236.5h286q17 -56 76.5 -90.5t141.5 -34.5q111 0 173 56.5t62 151.5v188h-6q-38 -87 -127 -139.5t-204 -52.5
q-198 0 -316.5 144t-118.5 393q0 255 118 402t322 147q114 0 201 -55t130 -149h5v187h288v-1057q0 -191 -146.5 -305t-388.5 -114zM625 1544h217l-130 -340h-256z" />
    <glyph glyph-name="Hcircumflex" unicode="&#x124;" horiz-adv-x="1494" 
d="M1374 0h-302v608h-650v-608h-302v1443h302v-586h650v586h302v-1443zM635 1855h224l269 -317h-221l-156 192h-8l-156 -192h-221z" />
    <glyph glyph-name="hcircumflex" unicode="&#x125;" horiz-adv-x="1197" 
d="M102 0v1443h287v-562h6q43 102 129.5 156.5t207.5 54.5q177 0 275.5 -107.5t98.5 -294.5v-690h-292v628q0 105 -51.5 163.5t-149.5 58.5q-102 0 -160.5 -65.5t-58.5 -172.5v-612h-292zM136 1855h224l269 -317h-221l-156 192h-8l-156 -192h-221z" />
    <glyph glyph-name="Hbar" unicode="&#x126;" horiz-adv-x="1521" 
d="M1085 857v195h-650v-195h650zM1493 1263v-211h-106v-1052h-302v608h-650v-608h-302v1052h-105v211h105v180h302v-180h650v180h302v-180h106z" />
    <glyph glyph-name="hbar" unicode="&#x127;" horiz-adv-x="1209" 
d="M402 881h6q42 102 128.5 156.5t208.5 54.5q177 0 275.5 -107.5t98.5 -294.5v-690h-292v628q0 105 -52 163.5t-150 58.5q-101 0 -159.5 -65.5t-58.5 -172.5v-612h-292v1193h-89v148h89v102h287v-102h213v-148h-213v-312z" />
    <glyph glyph-name="Itilde" unicode="&#x128;" horiz-adv-x="542" 
d="M422 0h-302v1443h302v-1443zM413 1563q-47 0 -89.5 21.5t-67.5 46.5t-54.5 46.5t-53.5 21.5q-34 0 -52 -33t-18 -89h-159q0 128 62 201t158 73q40 0 75.5 -14t60 -33.5t46 -39.5t43 -34t40.5 -14q66 0 69 124h159q0 -126 -62.5 -201.5t-156.5 -75.5z" />
    <glyph glyph-name="itilde" unicode="&#x129;" horiz-adv-x="491" 
d="M100 0v1072h292v-1072h-292zM390 1218q-39 0 -73.5 14t-59 34t-46.5 40t-44 34t-42 14q-34 0 -52 -33t-18 -89h-159q0 128 62 201t158 73q40 0 75.5 -14t60 -34t46 -39.5t43 -33.5t40.5 -14q66 0 69 124h159q0 -126 -62.5 -201.5t-156.5 -75.5z" />
    <glyph glyph-name="Imacron" unicode="&#x12a;" horiz-adv-x="542" 
d="M422 0h-302v1443h302v-1443zM617 1768v-148h-692v148h692z" />
    <glyph glyph-name="imacron" unicode="&#x12b;" horiz-adv-x="491" 
d="M100 0v1072h292v-1072h-292zM518 1403v-148h-543v148h543z" />
    <glyph glyph-name="Ibreve" unicode="&#x12c;" horiz-adv-x="542" 
d="M422 0h-302v1443h302v-1443zM-87 1859h181q6 -78 53.5 -124.5t123.5 -46.5t123.5 46.5t53.5 124.5h181q-7 -136 -102.5 -228t-255.5 -92t-255.5 92t-102.5 228z" />
    <glyph glyph-name="ibreve" unicode="&#x12d;" horiz-adv-x="491" 
d="M100 0v1072h292v-1072h-292zM-113 1530h181q2 -79 49.5 -127t127.5 -48t128 48t50 127h181q-2 -140 -98.5 -231t-260.5 -91t-260 91t-98 231z" />
    <glyph glyph-name="Iogonek" unicode="&#x12e;" horiz-adv-x="542" 
d="M120 -31v1474h302v-1441l-23 -6q-76 -34 -129 -84t-53 -105q0 -48 34.5 -74t94.5 -26q38 0 76 9v-157q-48 -21 -150 -21q-116 0 -190 59.5t-74 154.5q0 119 112 217z" />
    <glyph glyph-name="iogonek" unicode="&#x12f;" horiz-adv-x="491" 
d="M246 1185q-65 0 -110.5 44t-45.5 107q0 65 45.5 108t110.5 43t110.5 -43t45.5 -108q0 -63 -45.5 -107t-110.5 -44zM100 -23v1095h292v-1068l-37 -8q-161 -68 -161 -180q0 -47 33 -72.5t91 -25.5q30 0 75 7v-153q-46 -22 -140 -22q-120 0 -194.5 59t-74.5 156q0 57 30 113
t86 99z" />
    <glyph glyph-name="Idotaccent" unicode="&#x130;" horiz-adv-x="542" 
d="M422 0h-302v1443h302v-1443zM271 1561q-63 0 -106 43.5t-43 105.5t43 105.5t106 43.5t106 -43.5t43 -105.5t-43 -105.5t-106 -43.5z" />
    <glyph glyph-name="dotlessi" unicode="&#x131;" horiz-adv-x="491" 
d="M100 0v1072h292v-1072h-292z" />
    <glyph glyph-name="IJ" unicode="&#x132;" horiz-adv-x="1685" 
d="M422 0h-302v1443h302v-1443zM573 425h293q2 -88 54.5 -141t137.5 -53q95 0 144.5 57t49.5 166v989h302v-991q0 -229 -130 -355.5t-363 -126.5q-221 0 -354.5 124t-133.5 331z" />
    <glyph glyph-name="ij" unicode="&#x133;" horiz-adv-x="994" 
d="M100 0v1072h292v-1072h-292zM246 1190q-66 0 -111 44t-45 107q0 64 45 107.5t111 43.5t111 -43.5t45 -107.5q0 -63 -45 -107t-111 -44zM889 1072v-1122q0 -163 -98 -247t-286 -84q-54 0 -80 4v215q14 -2 37 -2q73 0 104 28.5t31 93.5v1114h292zM743 1190q-66 0 -111 44
t-45 107q0 64 45 107.5t111 43.5t111 -43.5t45 -107.5q0 -63 -45 -107t-111 -44z" />
    <glyph glyph-name="Jcircumflex" unicode="&#x134;" horiz-adv-x="1143" 
d="M31 425h293q2 -88 54.5 -141t137.5 -53q95 0 144.5 57t49.5 166v989h302v-991q0 -229 -130 -355.5t-363 -126.5q-221 0 -354.5 124t-133.5 331zM753 1855h224l269 -317h-221l-156 192h-8l-156 -192h-221z" />
    <glyph glyph-name="jcircumflex" unicode="&#x135;" horiz-adv-x="491" 
d="M392 1072v-1122q0 -163 -98 -247t-286 -84q-54 0 -80 4v215q14 -2 37 -2q73 0 104 28.5t31 93.5v1114h292zM357 1531l263 -318h-223l-149 186h-7l-148 -186h-224l264 318h224z" />
    <glyph glyph-name="Kcommaaccent" unicode="&#x136;" horiz-adv-x="1353" 
d="M422 0h-302v1443h302v-658h9l542 658h336l-534 -640l571 -803h-361l-428 603l-135 -162v-441zM637 -472h-217l130 340h256z" />
    <glyph glyph-name="kcommaaccent" unicode="&#x137;" horiz-adv-x="1102" 
d="M398 642l364 430h331l-409 -460l429 -612h-336l-307 436l-76 -82v-354h-292v1443h292v-801h4zM541 -472h-217l130 340h256z" />
    <glyph glyph-name="Lacute" unicode="&#x139;" horiz-adv-x="1112" 
d="M1053 250v-250h-933v1443h302v-1193h631zM386 1558h-230l226 305h271z" />
    <glyph glyph-name="lacute" unicode="&#x13a;" horiz-adv-x="496" 
d="M102 0v1443h292v-1443h-292zM363 1558h-230l226 305h271z" />
    <glyph glyph-name="Lcommaaccent" unicode="&#x13b;" horiz-adv-x="1112" 
d="M1053 250v-250h-933v1443h302v-1193h631zM548 -472h-217l130 340h256z" />
    <glyph glyph-name="lcommaaccent" unicode="&#x13c;" horiz-adv-x="496" 
d="M102 0v1443h292v-1443h-292zM219 -472h-217l130 340h256z" />
    <glyph glyph-name="Lcaron" unicode="&#x13d;" horiz-adv-x="1112" 
d="M675 1443h246l-50 -503h-196v503zM1053 250v-250h-933v1443h302v-1193h631z" />
    <glyph glyph-name="lcaron" unicode="&#x13e;" horiz-adv-x="714" 
d="M543 1447h216l-40 -490h-176v490zM102 0v1443h292v-1443h-292z" />
    <glyph glyph-name="Lslash" unicode="&#x141;" horiz-adv-x="1125" 
d="M435 250h631v-250h-933v638l-97 -49v199l97 49v606h302v-454l293 148v-200l-293 -147v-540z" />
    <glyph glyph-name="lslash" unicode="&#x142;" horiz-adv-x="534" 
d="M517 1037v-197l-104 -57v-783h-292v623l-104 -57v198l104 57v622h292v-463z" />
    <glyph glyph-name="Nacute" unicode="&#x143;" horiz-adv-x="1463" 
d="M409 0h-289v1443h252l674 -940h8v940h289v-1443h-250l-675 945h-9v-945zM847 1558h-230l226 305h271z" />
    <glyph glyph-name="nacute" unicode="&#x144;" horiz-adv-x="1180" 
d="M95 0v1072h282v-191h6q44 102 128.5 156.5t206.5 54.5q178 0 275 -106t97 -295v-691h-292v630q0 106 -50 163t-147 57t-155.5 -65t-58.5 -170v-615h-292zM706 1223h-233l221 310h268z" />
    <glyph glyph-name="Ncommaaccent" unicode="&#x145;" horiz-adv-x="1463" 
d="M409 0h-289v1443h252l674 -940h8v940h289v-1443h-250l-675 945h-9v-945zM703 -472h-217l130 340h256z" />
    <glyph glyph-name="ncommaaccent" unicode="&#x146;" horiz-adv-x="1180" 
d="M95 0v1072h282v-191h6q44 102 128.5 156.5t206.5 54.5q178 0 275 -106t97 -295v-691h-292v630q0 106 -50 163t-147 57t-155.5 -65t-58.5 -170v-615h-292zM568 -472h-217l130 340h256z" />
    <glyph glyph-name="Ncaron" unicode="&#x147;" horiz-adv-x="1463" 
d="M409 0h-289v1443h252l674 -940h8v940h289v-1443h-250l-675 945h-9v-945zM620 1543l-269 317h221l156 -192h8l156 192h221l-269 -317h-224z" />
    <glyph glyph-name="ncaron" unicode="&#x148;" horiz-adv-x="1180" 
d="M95 0v1072h282v-191h6q44 102 128.5 156.5t206.5 54.5q178 0 275 -106t97 -295v-691h-292v630q0 106 -50 163t-147 57t-155.5 -65t-58.5 -170v-615h-292zM704 1213h-224l-264 318h224l148 -188h7l149 188h223z" />
    <glyph glyph-name="Omacron" unicode="&#x14c;" horiz-adv-x="1541" 
d="M771 1468q321 0 508.5 -201t187.5 -546q0 -344 -188 -545t-508 -201q-321 0 -508.5 201t-187.5 545q0 345 187.5 546t508.5 201zM771 1216q-177 0 -282.5 -134t-105.5 -361q0 -226 105 -359.5t283 -133.5q177 0 282 133.5t105 359.5q0 227 -105 361t-282 134zM1117 1768
v-148h-692v148h692z" />
    <glyph glyph-name="omacron" unicode="&#x14d;" horiz-adv-x="1173" 
d="M587 -23q-245 0 -388 149t-143 411q0 259 144.5 408.5t386.5 149.5q243 0 387 -149.5t144 -408.5q0 -263 -143 -411.5t-388 -148.5zM587 200q108 0 171 88t63 248q0 158 -63 247t-171 89t-171.5 -89t-63.5 -247q0 -160 63 -248t172 -88zM907 1403v-148h-639v148h639z" />
    <glyph glyph-name="Obreve" unicode="&#x14e;" horiz-adv-x="1541" 
d="M771 1468q321 0 508.5 -201t187.5 -546q0 -344 -188 -545t-508 -201q-321 0 -508.5 201t-187.5 545q0 345 187.5 546t508.5 201zM771 1216q-177 0 -282.5 -134t-105.5 -361q0 -226 105 -359.5t283 -133.5q177 0 282 133.5t105 359.5q0 227 -105 361t-282 134zM413 1859
h181q6 -78 53.5 -124.5t123.5 -46.5t123.5 46.5t53.5 124.5h181q-7 -136 -102.5 -228t-255.5 -92t-255.5 92t-102.5 228z" />
    <glyph glyph-name="obreve" unicode="&#x14f;" horiz-adv-x="1173" 
d="M587 -23q-245 0 -388 149t-143 411q0 259 144.5 408.5t386.5 149.5q243 0 387 -149.5t144 -408.5q0 -263 -143 -411.5t-388 -148.5zM587 200q108 0 171 88t63 248q0 158 -63 247t-171 89t-171.5 -89t-63.5 -247q0 -160 63 -248t172 -88zM228 1530h181q2 -79 49.5 -127
t127.5 -48t128 48t50 127h181q-2 -140 -98.5 -231t-260.5 -91t-260 91t-98 231z" />
    <glyph glyph-name="Ohungarumlaut" unicode="&#x150;" horiz-adv-x="1541" 
d="M771 1468q321 0 508.5 -201t187.5 -546q0 -344 -188 -545t-508 -201q-321 0 -508.5 201t-187.5 545q0 345 187.5 546t508.5 201zM771 1216q-177 0 -282.5 -134t-105.5 -361q0 -226 105 -359.5t283 -133.5q177 0 282 133.5t105 359.5q0 227 -105 361t-282 134zM1089 1558
h-230l226 305h271zM689 1558h-230l226 305h271z" />
    <glyph glyph-name="ohungarumlaut" unicode="&#x151;" horiz-adv-x="1173" 
d="M587 -23q-245 0 -388 149t-143 411q0 259 144.5 408.5t386.5 149.5q243 0 387 -149.5t144 -408.5q0 -263 -143 -411.5t-388 -148.5zM587 200q108 0 171 88t63 248q0 158 -63 247t-171 89t-171.5 -89t-63.5 -247q0 -160 63 -248t172 -88zM662 1223l189 310h246l-226 -310
h-209zM291 1223l190 310h246l-227 -310h-209z" />
    <glyph glyph-name="OE" unicode="&#x152;" horiz-adv-x="2216" 
d="M779 1219q-178 0 -284.5 -135.5t-106.5 -362.5q0 -226 106 -361t285 -135t285 135t106 361q0 227 -106.5 362.5t-284.5 135.5zM1203 0v236q-54 -121 -183.5 -194.5t-288.5 -73.5q-143 0 -264 54.5t-206 152.5t-133 238.5t-48 307.5q0 224 82.5 395.5t231.5 265t341 93.5
q159 0 282 -71t186 -200v239h916v-249h-644v-348h606v-232h-606v-364h644v-250h-916z" />
    <glyph glyph-name="oe" unicode="&#x153;" horiz-adv-x="1893" 
d="M1364 -23q-128 0 -232.5 51.5t-157.5 138.5h-14q-129 -190 -383 -190q-238 0 -379.5 151.5t-141.5 405.5q0 255 141.5 408t376.5 153q257 0 386 -194h14q53 89 153.5 141.5t223.5 52.5q220 0 353.5 -147.5t133.5 -389.5v-89h-727v-27q0 -110 68 -179.5t177 -69.5
q77 0 132.5 34.5t72.5 90.5h269q-23 -148 -153.5 -244.5t-312.5 -96.5zM1554 648q-4 104 -63.5 167.5t-153.5 63.5q-95 0 -158 -64.5t-68 -166.5h443zM344 535q0 -155 62 -242t171 -87t170.5 87t61.5 242t-61.5 243t-170.5 88t-171 -88t-62 -243z" />
    <glyph glyph-name="Racute" unicode="&#x154;" horiz-adv-x="1311" 
d="M422 1207v-460h260q114 0 177.5 61t63.5 169q0 105 -66 167.5t-178 62.5h-257zM422 528v-528h-302v1443h591q247 0 384.5 -122.5t137.5 -337.5q0 -141 -69.5 -251.5t-192.5 -158.5l304 -573h-342l-269 528h-242zM731 1558h-230l226 305h271z" />
    <glyph glyph-name="racute" unicode="&#x155;" horiz-adv-x="745" 
d="M95 0v1072h282v-193h6q28 102 94 156t161 54q46 0 83 -11v-257q-41 17 -106 17q-108 0 -168 -63t-60 -176v-599h-292zM509 1223h-233l221 310h268z" />
    <glyph glyph-name="Rcommaaccent" unicode="&#x156;" horiz-adv-x="1311" 
d="M422 1207v-460h260q114 0 177.5 61t63.5 169q0 105 -66 167.5t-178 62.5h-257zM422 528v-528h-302v1443h591q247 0 384.5 -122.5t137.5 -337.5q0 -141 -69.5 -251.5t-192.5 -158.5l304 -573h-342l-269 528h-242zM587 -472h-217l130 340h256z" />
    <glyph glyph-name="rcommaaccent" unicode="&#x157;" horiz-adv-x="745" 
d="M95 0v1072h282v-193h6q28 102 94 156t161 54q46 0 83 -11v-257q-41 17 -106 17q-108 0 -168 -63t-60 -176v-599h-292zM214 -472h-217l130 340h256z" />
    <glyph glyph-name="Rcaron" unicode="&#x158;" horiz-adv-x="1311" 
d="M422 1207v-460h260q114 0 177.5 61t63.5 169q0 105 -66 167.5t-178 62.5h-257zM422 528v-528h-302v1443h591q247 0 384.5 -122.5t137.5 -337.5q0 -141 -69.5 -251.5t-192.5 -158.5l304 -573h-342l-269 528h-242zM504 1543l-269 317h221l156 -192h8l156 192h221l-269 -317
h-224z" />
    <glyph glyph-name="rcaron" unicode="&#x159;" horiz-adv-x="745" 
d="M95 0v1072h282v-193h6q28 102 94 156t161 54q46 0 83 -11v-257q-41 17 -106 17q-108 0 -168 -63t-60 -176v-599h-292zM507 1213h-224l-264 318h224l148 -188h7l149 188h223z" />
    <glyph glyph-name="Sacute" unicode="&#x15a;" horiz-adv-x="1293" 
d="M66 411h291q10 -88 93.5 -142.5t204.5 -54.5q120 0 195.5 51.5t75.5 131.5q0 70 -56 113t-187 72l-188 41q-397 85 -397 403q0 198 154.5 320t397.5 122q250 0 399 -118.5t153 -315.5h-283q-7 91 -80.5 143.5t-187.5 52.5q-112 0 -180.5 -49t-68.5 -129q0 -66 55.5 -107
t180.5 -70l175 -37q217 -46 316 -143.5t99 -262.5q0 -210 -158 -333.5t-427 -123.5q-261 0 -415.5 116.5t-161.5 319.5zM769 1558h-230l226 305h271z" />
    <glyph glyph-name="sacute" unicode="&#x15b;" horiz-adv-x="1055" 
d="M77 757q0 153 123 245.5t329 92.5q201 0 323 -94t125 -250h-269q-5 65 -53.5 102t-129.5 37q-76 0 -121.5 -31.5t-45.5 -83.5q0 -78 140 -111l205 -44q161 -36 231.5 -104.5t70.5 -188.5q0 -158 -132 -254t-345 -96q-212 0 -339 94t-139 253h285q11 -68 62.5 -105
t138.5 -37q83 0 130.5 30.5t47.5 83.5q0 41 -30 65.5t-102 41.5l-198 44q-307 70 -307 310zM645 1223h-233l221 310h268z" />
    <glyph glyph-name="Scircumflex" unicode="&#x15c;" horiz-adv-x="1293" 
d="M66 411h291q10 -88 93.5 -142.5t204.5 -54.5q120 0 195.5 51.5t75.5 131.5q0 70 -56 113t-187 72l-188 41q-397 85 -397 403q0 198 154.5 320t397.5 122q250 0 399 -118.5t153 -315.5h-283q-7 91 -80.5 143.5t-187.5 52.5q-112 0 -180.5 -49t-68.5 -129q0 -66 55.5 -107
t180.5 -70l175 -37q217 -46 316 -143.5t99 -262.5q0 -210 -158 -333.5t-427 -123.5q-261 0 -415.5 116.5t-161.5 319.5zM542 1855h224l269 -317h-221l-156 192h-8l-156 -192h-221z" />
    <glyph glyph-name="scircumflex" unicode="&#x15d;" horiz-adv-x="1055" 
d="M77 757q0 153 123 245.5t329 92.5q201 0 323 -94t125 -250h-269q-5 65 -53.5 102t-129.5 37q-76 0 -121.5 -31.5t-45.5 -83.5q0 -78 140 -111l205 -44q161 -36 231.5 -104.5t70.5 -188.5q0 -158 -132 -254t-345 -96q-212 0 -339 94t-139 253h285q11 -68 62.5 -105
t138.5 -37q83 0 130.5 30.5t47.5 83.5q0 41 -30 65.5t-102 41.5l-198 44q-307 70 -307 310zM643 1531l263 -318h-223l-149 186h-7l-148 -186h-224l264 318h224z" />
    <glyph glyph-name="Scedilla" unicode="&#x15e;" horiz-adv-x="1293" 
d="M638 875l175 -37q217 -46 316 -143.5t99 -262.5q0 -191 -132.5 -311.5t-361.5 -141.5l-41 -89q86 -1 137 -44.5t51 -119.5q0 -89 -66 -137t-182 -49q-97 -2 -142 14v122q41 -12 112 -12q111 0 111 54q0 30 -28 42.5t-95 12.5h-63v98l48 106q-232 15 -368 130t-142 304
h291q10 -88 93.5 -142.5t204.5 -54.5q120 0 195.5 51.5t75.5 131.5q0 70 -56 113t-187 72l-188 41q-397 85 -397 403q0 198 154.5 320t397.5 122q250 0 399 -118.5t153 -315.5h-283q-7 91 -80.5 143.5t-187.5 52.5q-112 0 -180.5 -49t-68.5 -129q0 -66 55.5 -107t180.5 -70z
" />
    <glyph glyph-name="scedilla" unicode="&#x15f;" horiz-adv-x="1055" 
d="M498 664l205 -44q161 -36 231.5 -104.5t70.5 -188.5q0 -141 -106.5 -233.5t-284.5 -111.5l-42 -92q86 -1 137 -44.5t51 -119.5q0 -89 -66 -137t-182 -49q-97 -2 -142 14v122q41 -12 112 -12q111 0 111 54q0 30 -28 42.5t-95 12.5h-63v98l49 109q-181 16 -288 107.5
t-118 236.5h285q11 -68 62.5 -105t138.5 -37q83 0 130.5 30.5t47.5 83.5q0 41 -30 65.5t-102 41.5l-198 44q-307 70 -307 310q0 153 123 245.5t329 92.5q201 0 323 -94t125 -250h-269q-5 65 -53.5 102t-129.5 37q-76 0 -121.5 -31.5t-45.5 -83.5q0 -78 140 -111z" />
    <glyph glyph-name="Scaron" unicode="&#x160;" horiz-adv-x="1293" 
d="M66 411h291q10 -88 93.5 -142.5t204.5 -54.5q120 0 195.5 51.5t75.5 131.5q0 70 -56 113t-187 72l-188 41q-397 85 -397 403q0 198 154.5 320t397.5 122q250 0 399 -118.5t153 -315.5h-283q-7 91 -80.5 143.5t-187.5 52.5q-112 0 -180.5 -49t-68.5 -129q0 -66 55.5 -107
t180.5 -70l175 -37q217 -46 316 -143.5t99 -262.5q0 -210 -158 -333.5t-427 -123.5q-261 0 -415.5 116.5t-161.5 319.5zM542 1543l-269 317h221l156 -192h8l156 192h221l-269 -317h-224z" />
    <glyph glyph-name="scaron" unicode="&#x161;" horiz-adv-x="1055" 
d="M77 757q0 153 123 245.5t329 92.5q201 0 323 -94t125 -250h-269q-5 65 -53.5 102t-129.5 37q-76 0 -121.5 -31.5t-45.5 -83.5q0 -78 140 -111l205 -44q161 -36 231.5 -104.5t70.5 -188.5q0 -158 -132 -254t-345 -96q-212 0 -339 94t-139 253h285q11 -68 62.5 -105
t138.5 -37q83 0 130.5 30.5t47.5 83.5q0 41 -30 65.5t-102 41.5l-198 44q-307 70 -307 310zM643 1213h-224l-264 318h224l148 -188h7l149 188h223z" />
    <glyph glyph-name="Tcedilla" unicode="&#x162;" horiz-adv-x="1232" 
d="M767 0h-48l-51 -110q86 -1 137 -44.5t51 -119.5q0 -89 -66 -137t-182 -49q-97 -2 -142 14v122q41 -12 112 -12q111 0 111 54q0 30 -28 42.5t-95 12.5h-63v98l59 129h-97v1194h-417v249h1137v-249h-418v-1194z" />
    <glyph glyph-name="tcedilla" unicode="&#x163;" horiz-adv-x="728" 
d="M663 852h-198v-513q0 -121 126 -121q41 0 71 5v-215q-51 -12 -139 -12h-10l-49 -106q86 -1 137 -44.5t51 -119.5q0 -89 -66 -137t-182 -49q-97 -2 -142 14v122q41 -12 112 -12q111 0 111 54q0 30 -28 42.5t-95 12.5h-63v98l64 141h1q-100 25 -145.5 91.5t-45.5 185.5v563
h-151v220h151v247h292v-247h198v-220z" />
    <glyph glyph-name="Tcaron" unicode="&#x164;" horiz-adv-x="1232" 
d="M767 0h-302v1194h-417v249h1137v-249h-418v-1194zM504 1543l-269 317h221l156 -192h8l156 192h221l-269 -317h-224z" />
    <glyph glyph-name="tcaron" unicode="&#x165;" horiz-adv-x="862" 
d="M609 1698h216l-39 -490h-177v490zM173 1319h292v-247h198v-220h-198v-513q0 -121 126 -121q41 0 71 5v-215q-51 -12 -139 -12q-189 0 -269.5 68t-80.5 225v563h-151v220h151v247z" />
    <glyph glyph-name="Tbar" unicode="&#x166;" horiz-adv-x="1268" 
d="M1195 1194h-418v-394h291v-211h-291v-589h-302v589h-275v211h275v394h-417v249h1137v-249z" />
    <glyph glyph-name="tbar" unicode="&#x167;" horiz-adv-x="780" 
d="M690 479h-225v-140q0 -121 126 -121q41 0 71 5v-215q-51 -12 -139 -12q-189 0 -269.5 68t-80.5 225v190h-140v156h140v217h-151v220h151v247h292v-247h198v-220h-198v-217h225v-156z" />
    <glyph glyph-name="Utilde" unicode="&#x168;" horiz-adv-x="1449" 
d="M422 1443v-903q0 -141 79.5 -223.5t223.5 -82.5q143 0 222.5 82.5t79.5 223.5v903h302v-933q0 -240 -164.5 -387.5t-439.5 -147.5q-276 0 -440.5 147.5t-164.5 387.5v933h302zM867 1563q-47 0 -89.5 21.5t-67.5 46.5t-54.5 46.5t-53.5 21.5q-34 0 -52 -33t-18 -89h-159
q0 128 62 201t158 73q40 0 75.5 -14t60 -33.5t46 -39.5t43 -34t40.5 -14q66 0 69 124h159q0 -126 -62.5 -201.5t-156.5 -75.5z" />
    <glyph glyph-name="utilde" unicode="&#x169;" horiz-adv-x="1180" 
d="M1085 1072v-1072h-282v193h-6q-84 -213 -321 -213q-176 0 -281 107.5t-105 293.5v691h292v-630q0 -107 51.5 -163t148.5 -56t154 64t57 171v614h292zM733 1218q-39 0 -73.5 14t-59 34t-46.5 40t-44 34t-42 14q-34 0 -52 -33t-18 -89h-159q0 128 62 201t158 73
q40 0 75.5 -14t60 -34t46 -39.5t43 -33.5t40.5 -14q66 0 69 124h159q0 -126 -62.5 -201.5t-156.5 -75.5z" />
    <glyph glyph-name="Umacron" unicode="&#x16a;" horiz-adv-x="1449" 
d="M422 1443v-903q0 -141 79.5 -223.5t223.5 -82.5q143 0 222.5 82.5t79.5 223.5v903h302v-933q0 -240 -164.5 -387.5t-439.5 -147.5q-276 0 -440.5 147.5t-164.5 387.5v933h302zM1071 1768v-148h-692v148h692z" />
    <glyph glyph-name="umacron" unicode="&#x16b;" horiz-adv-x="1180" 
d="M1085 1072v-1072h-282v193h-6q-84 -213 -321 -213q-176 0 -281 107.5t-105 293.5v691h292v-630q0 -107 51.5 -163t148.5 -56t154 64t57 171v614h292zM909 1403v-148h-639v148h639z" />
    <glyph glyph-name="Ubreve" unicode="&#x16c;" horiz-adv-x="1449" 
d="M422 1443v-903q0 -141 79.5 -223.5t223.5 -82.5q143 0 222.5 82.5t79.5 223.5v903h302v-933q0 -240 -164.5 -387.5t-439.5 -147.5q-276 0 -440.5 147.5t-164.5 387.5v933h302zM367 1859h181q6 -78 53.5 -124.5t123.5 -46.5t123.5 46.5t53.5 124.5h181
q-7 -136 -102.5 -228t-255.5 -92t-255.5 92t-102.5 228z" />
    <glyph glyph-name="ubreve" unicode="&#x16d;" horiz-adv-x="1180" 
d="M1085 1072v-1072h-282v193h-6q-84 -213 -321 -213q-176 0 -281 107.5t-105 293.5v691h292v-630q0 -107 51.5 -163t148.5 -56t154 64t57 171v614h292zM230 1530h181q2 -79 49.5 -127t127.5 -48t128 48t50 127h181q-2 -140 -98.5 -231t-260.5 -91t-260 91t-98 231z" />
    <glyph glyph-name="Uring" unicode="&#x16e;" horiz-adv-x="1449" 
d="M422 1443v-903q0 -141 79.5 -223.5t223.5 -82.5q143 0 222.5 82.5t79.5 223.5v903h302v-933q0 -240 -164.5 -387.5t-439.5 -147.5q-276 0 -440.5 147.5t-164.5 387.5v933h302zM725 1518q-84 0 -145 59.5t-61 142.5q0 84 61 143t145 59t145 -59t61 -143q0 -83 -61 -142.5
t-145 -59.5zM725 1630q38 0 65 26.5t27 63.5t-27 63.5t-65 26.5t-65 -26.5t-27 -63.5t27 -63.5t65 -26.5z" />
    <glyph glyph-name="uring" unicode="&#x16f;" horiz-adv-x="1180" 
d="M1085 1072v-1072h-282v193h-6q-84 -213 -321 -213q-176 0 -281 107.5t-105 293.5v691h292v-630q0 -107 51.5 -163t148.5 -56t154 64t57 171v614h292zM589 1174q-89 0 -153 62.5t-64 150.5t64 150.5t153 62.5t153 -62.5t64 -150.5t-64 -150.5t-153 -62.5zM589 1293
q39 0 67.5 27.5t28.5 66.5t-28.5 66.5t-67.5 27.5t-67 -27.5t-28 -66.5t28 -66.5t67 -27.5z" />
    <glyph glyph-name="Uhungarumlaut" unicode="&#x170;" horiz-adv-x="1449" 
d="M422 1443v-903q0 -141 79.5 -223.5t223.5 -82.5q143 0 222.5 82.5t79.5 223.5v903h302v-933q0 -240 -164.5 -387.5t-439.5 -147.5q-276 0 -440.5 147.5t-164.5 387.5v933h302zM1043 1558h-230l226 305h271zM643 1558h-230l226 305h271z" />
    <glyph glyph-name="uhungarumlaut" unicode="&#x171;" horiz-adv-x="1180" 
d="M1085 1072v-1072h-282v193h-6q-84 -213 -321 -213q-176 0 -281 107.5t-105 293.5v691h292v-630q0 -107 51.5 -163t148.5 -56t154 64t57 171v614h292zM664 1223l189 310h246l-226 -310h-209zM293 1223l190 310h246l-227 -310h-209z" />
    <glyph glyph-name="Uogonek" unicode="&#x172;" horiz-adv-x="1449" 
d="M954 -462q-117 0 -192 58t-75 151q0 66 41.5 129.5t109.5 107.5v6q-53 -15 -113 -15q-274 0 -439.5 146.5t-165.5 388.5v933h302v-903q0 -143 81 -224.5t222 -81.5t221.5 81.5t80.5 224.5v903h302v-933q0 -266 -233 -450q-99 -76 -147 -136t-48 -116q0 -48 33.5 -74.5
t88.5 -26.5q47 0 76 9v-157q-45 -21 -145 -21z" />
    <glyph glyph-name="uogonek" unicode="&#x173;" horiz-adv-x="1180" 
d="M1050 -428q-44 -22 -143 -22q-116 0 -189.5 58.5t-73.5 151.5q0 74 45.5 138t113.5 103v192h-6q-84 -213 -321 -213q-176 0 -281 107.5t-105 293.5v691h292v-630q0 -107 51.5 -163t148.5 -56t154 64t57 171v614h292v-1073l-34 -6q-78 -19 -135.5 -69t-57.5 -112
q0 -45 30.5 -69.5t86.5 -24.5q46 0 75 9v-155z" />
    <glyph glyph-name="Wcircumflex" unicode="&#x174;" horiz-adv-x="1977" 
d="M984 986l-274 -986h-285l-382 1443h313l227 -1045h8l270 1045h255l270 -1045h8l228 1045h313l-383 -1443h-285l-274 986h-9zM877 1855h224l269 -317h-221l-156 192h-8l-156 -192h-221z" />
    <glyph glyph-name="wcircumflex" unicode="&#x175;" horiz-adv-x="1618" 
d="M1599 1072l-284 -1072h-311l-194 758h-6l-193 -758h-307l-285 1072h294l162 -795h6l190 795h280l191 -795h6l163 795h288zM921 1531l263 -318h-223l-149 186h-7l-148 -186h-224l264 318h224z" />
    <glyph glyph-name="Ycircumflex" unicode="&#x176;" horiz-adv-x="1362" 
d="M832 0h-302v539l-502 904h329l323 -616h7l324 616h324l-503 -904v-539zM569 1855h224l269 -317h-221l-156 192h-8l-156 -192h-221z" />
    <glyph glyph-name="ycircumflex" unicode="&#x177;" horiz-adv-x="1112" 
d="M232 -397q-96 0 -110 3v225q9 -2 73 -2q81 0 123 27.5t57 91.5q0 1 5 25t4 26l-373 1073h321l228 -838h5l228 838h308l-369 -1096q-69 -206 -181.5 -289.5t-318.5 -83.5zM669 1531l263 -318h-223l-149 186h-7l-148 -186h-224l264 318h224z" />
    <glyph glyph-name="Ydieresis" unicode="&#x178;" horiz-adv-x="1362" 
d="M832 0h-302v539l-502 904h329l323 -616h7l324 616h324l-503 -904v-539zM477 1571q-57 0 -95.5 38t-38.5 92t38.5 92t95.5 38t95.5 -38t38.5 -92t-38.5 -92t-95.5 -38zM885 1571q-57 0 -95.5 38t-38.5 92t38.5 92t95.5 38t95.5 -38t38.5 -92t-38.5 -92t-95.5 -38z" />
    <glyph glyph-name="Zacute" unicode="&#x179;" horiz-adv-x="1292" 
d="M89 0v197l733 989v8h-716v249h1077v-196l-730 -990v-7h750v-250h-1114zM761 1558h-230l226 305h271z" />
    <glyph glyph-name="zacute" unicode="&#x17a;" horiz-adv-x="1035" 
d="M75 0v166l534 677v6h-526v223h865v-185l-502 -658v-5h514v-224h-885zM631 1223h-233l221 310h268z" />
    <glyph glyph-name="Zdotaccent" unicode="&#x17b;" horiz-adv-x="1292" 
d="M89 0v197l733 989v8h-716v249h1077v-196l-730 -990v-7h750v-250h-1114zM646 1561q-63 0 -106 43.5t-43 105.5t43 105.5t106 43.5t106 -43.5t43 -105.5t-43 -105.5t-106 -43.5z" />
    <glyph glyph-name="zdotaccent" unicode="&#x17c;" horiz-adv-x="1035" 
d="M75 0v166l534 677v6h-526v223h865v-185l-502 -658v-5h514v-224h-885zM516 1223q-63 0 -107 43.5t-44 104.5q0 62 44 105.5t107 43.5t106.5 -43.5t43.5 -105.5q0 -61 -43.5 -104.5t-106.5 -43.5z" />
    <glyph glyph-name="Zcaron" unicode="&#x17d;" horiz-adv-x="1292" 
d="M89 0v197l733 989v8h-716v249h1077v-196l-730 -990v-7h750v-250h-1114zM534 1543l-269 317h221l156 -192h8l156 192h221l-269 -317h-224z" />
    <glyph glyph-name="zcaron" unicode="&#x17e;" horiz-adv-x="1035" 
d="M75 0v166l534 677v6h-526v223h865v-185l-502 -658v-5h514v-224h-885zM629 1213h-224l-264 318h224l148 -188h7l149 188h223z" />
    <glyph glyph-name="uni04D8" unicode="&#x4d8;" horiz-adv-x="1488" 
d="M744 -37q-307 0 -482 197t-177 527l2 107h1000v16q1 183 -101.5 300.5t-260.5 117.5q-237 0 -318 -199h-306q55 210 222.5 330.5t402.5 120.5q308 0 492.5 -207t184.5 -553q0 -225 -82 -397t-232 -266t-345 -94zM746 216q136 0 229 97.5t109 259.5h-681
q12 -165 104.5 -261t238.5 -96z" />
    <glyph glyph-name="uni04D8" unicode="&#x18f;" horiz-adv-x="1488" 
d="M744 -37q-307 0 -482 197t-177 527l2 107h1000v16q1 183 -101.5 300.5t-260.5 117.5q-237 0 -318 -199h-306q55 210 222.5 330.5t402.5 120.5q308 0 492.5 -207t184.5 -553q0 -225 -82 -397t-232 -266t-345 -94zM746 216q136 0 229 97.5t109 259.5h-681
q12 -165 104.5 -261t238.5 -96z" />
    <glyph glyph-name="florin" unicode="&#x192;" horiz-adv-x="1326" 
d="M1260 1424v-234q-74 36 -169 36q-102 0 -158 -48.5t-72 -149.5l-24 -156h350v-210h-382l-43 -278q-33 -209 -151.5 -308.5t-327.5 -99.5q-134 0 -216 40v239q79 -43 179 -43t151 48t68 157l38 245h-318v210h350l29 187q32 205 152.5 303t340.5 98q54 0 111.5 -10
t91.5 -26z" />
    <glyph glyph-name="Ohorn" unicode="&#x1a0;" horiz-adv-x="1599" 
d="M771 -25q-322 0 -509 201t-187 545t187.5 545.5t508.5 201.5q88 0 220.5 -25t210.5 -25q56 0 82.5 21.5t26.5 67.5v163h231v-231q0 -97 -54.5 -151.5t-152.5 -54.5h-61v-7q82 -63 137.5 -208.5t55.5 -296.5q0 -344 -187.5 -545t-508.5 -201zM771 228q178 0 282.5 133.5
t104.5 359.5q0 227 -104.5 361t-282.5 134t-283 -134t-105 -361q0 -226 105 -359.5t283 -133.5z" />
    <glyph glyph-name="ohorn" unicode="&#x1a1;" horiz-adv-x="1257" 
d="M587 200q109 0 171.5 88.5t62.5 247.5q0 158 -63 247t-171 89t-171.5 -89t-63.5 -247q0 -159 63 -247.5t172 -88.5zM1117 518q0 -244 -144.5 -392.5t-380.5 -148.5q-250 0 -393 149t-143 411q0 258 143.5 408t387.5 150q78 0 162.5 -20t124.5 -20q58 0 82.5 19t24.5 64
v141h229v-216q0 -89 -46.5 -137.5t-131.5 -48.5h-34v-6q119 -128 119 -353z" />
    <glyph glyph-name="Uhorn" unicode="&#x1af;" horiz-adv-x="1673" 
d="M725 -25q-274 0 -439.5 146.5t-165.5 388.5v933h302v-904q0 -142 81 -223.5t222 -81.5t221.5 81.5t80.5 223.5v904h313q80 0 80 77v182h231v-239q0 -101 -60.5 -157t-166.5 -56h-95v-740q0 -242 -165 -388.5t-439 -146.5z" />
    <glyph glyph-name="uhorn" unicode="&#x1b0;" horiz-adv-x="1388" 
d="M797 193q-84 -213 -321 -213q-176 0 -281 107.5t-105 293.5v691h292v-630q0 -107 51.5 -163t148.5 -56t154 64t57 171v614h293q77 0 77 74v155h229v-212q0 -98 -58.5 -153.5t-163.5 -55.5h-85v-880h-282v193h-6z" />
    <glyph glyph-name="uni01C4" unicode="&#x1c4;" horiz-adv-x="2720" 
d="M120 1443h551q326 0 507 -187t181 -529q0 -343 -181.5 -535t-506.5 -192h-551v1443zM422 1194v-944h213q203 0 309.5 121.5t106.5 354.5q0 226 -108 347t-308 121h-213zM1517 0v197l733 989v8h-716v249h1077v-196l-730 -990v-7h750v-250h-1114zM1962 1543l-269 317h221
l156 -192h8l156 192h221l-269 -317h-224z" />
    <glyph glyph-name="uni01C5" unicode="&#x1c5;" horiz-adv-x="2481" 
d="M120 1443h551q326 0 507 -187t181 -529q0 -343 -181.5 -535t-506.5 -192h-551v1443zM422 1194v-944h213q203 0 309.5 121.5t106.5 354.5q0 226 -108 347t-308 121h-213zM1505 0v166l534 677v6h-526v223h865v-185l-502 -658v-5h514v-224h-885zM2059 1213h-224l-264 318
h224l148 -188h7l149 188h223z" />
    <glyph glyph-name="uni01C6" unicode="&#x1c6;" horiz-adv-x="2282" 
d="M493 -17q-201 0 -319 149t-118 406q0 255 118.5 403t320.5 148q114 0 200.5 -55t126.5 -146h6v555h292v-1443h-288v184h-5q-40 -91 -129 -146t-205 -55zM592 855q-110 0 -173.5 -86t-63.5 -233q0 -148 63.5 -233t173.5 -85q109 0 173.5 85.5t64.5 232.5
q0 146 -64.5 232.5t-173.5 86.5zM1306 0v166l534 677v6h-526v223h865v-185l-502 -658v-5h514v-224h-885zM1860 1213h-224l-264 318h224l148 -188h7l149 188h223z" />
    <glyph glyph-name="uni01C7" unicode="&#x1c7;" horiz-adv-x="2255" 
d="M1053 250v-250h-933v1443h302v-1193h631zM1143 425h293q2 -88 54.5 -141t137.5 -53q95 0 144.5 57t49.5 166v989h302v-991q0 -229 -130 -355.5t-363 -126.5q-221 0 -354.5 124t-133.5 331z" />
    <glyph glyph-name="uni01C8" unicode="&#x1c8;" horiz-adv-x="1609" 
d="M1053 250v-250h-933v1443h302v-1193h631zM1504 1072v-1122q0 -163 -98 -247t-286 -84q-54 0 -80 4v215q14 -2 37 -2q73 0 104 28.5t31 93.5v1114h292zM1358 1190q-66 0 -111 44t-45 107q0 64 45 107.5t111 43.5t111 -43.5t45 -107.5q0 -63 -45 -107t-111 -44z" />
    <glyph glyph-name="uni01C9" unicode="&#x1c9;" horiz-adv-x="999" 
d="M102 0v1443h292v-1443h-292zM894 1072v-1122q0 -163 -98 -247t-286 -84q-54 0 -80 4v215q14 -2 37 -2q73 0 104 28.5t31 93.5v1114h292zM748 1190q-66 0 -111 44t-45 107q0 64 45 107.5t111 43.5t111 -43.5t45 -107.5q0 -63 -45 -107t-111 -44z" />
    <glyph glyph-name="uni01CA" unicode="&#x1ca;" horiz-adv-x="2606" 
d="M409 0h-289v1443h252l674 -940h8v940h289v-1443h-250l-675 945h-9v-945zM1494 425h293q2 -88 54.5 -141t137.5 -53q95 0 144.5 57t49.5 166v989h302v-991q0 -229 -130 -355.5t-363 -126.5q-221 0 -354.5 124t-133.5 331z" />
    <glyph glyph-name="uni01CB" unicode="&#x1cb;" horiz-adv-x="1960" 
d="M409 0h-289v1443h252l674 -940h8v940h289v-1443h-250l-675 945h-9v-945zM1855 1072v-1122q0 -163 -98 -247t-286 -84q-54 0 -80 4v215q14 -2 37 -2q73 0 104 28.5t31 93.5v1114h292zM1709 1190q-66 0 -111 44t-45 107q0 64 45 107.5t111 43.5t111 -43.5t45 -107.5
q0 -63 -45 -107t-111 -44z" />
    <glyph glyph-name="uni01CC" unicode="&#x1cc;" horiz-adv-x="1695" 
d="M95 0v1072h282v-191h6q44 102 128.5 156.5t206.5 54.5q178 0 275 -106t97 -295v-691h-292v630q0 106 -50 163t-147 57t-155.5 -65t-58.5 -170v-615h-292zM1590 1072v-1122q0 -163 -98 -247t-286 -84q-54 0 -80 4v215q14 -2 37 -2q73 0 104 28.5t31 93.5v1114h292z
M1444 1190q-66 0 -111 44t-45 107q0 64 45 107.5t111 43.5t111 -43.5t45 -107.5q0 -63 -45 -107t-111 -44z" />
    <glyph glyph-name="Acaron" unicode="&#x1cd;" horiz-adv-x="1413" 
d="M1065 0l-110 350h-507l-110 -350h-310l501 1443h355l502 -1443h-321zM698 1167l-185 -591h377l-185 591h-7zM595 1543l-269 317h221l156 -192h8l156 192h221l-269 -317h-224z" />
    <glyph glyph-name="acaron" unicode="&#x1ce;" horiz-adv-x="1121" 
d="M509 194q97 0 164.5 56.5t67.5 142.5v78l-226 -14q-82 -6 -126.5 -41t-44.5 -92q0 -60 45 -95t120 -35zM413 -17q-155 0 -257 91t-102 234q0 146 108 229t309 95l270 16v71q0 74 -48.5 116t-131.5 42q-80 0 -130.5 -36t-61.5 -97h-267q8 158 135 254.5t337 96.5
q206 0 330 -98t124 -260v-737h-282v164h-6q-44 -84 -134 -132.5t-193 -48.5zM678 1213h-224l-264 318h224l148 -188h7l149 188h223z" />
    <glyph glyph-name="Icaron" unicode="&#x1cf;" horiz-adv-x="542" 
d="M422 0h-302v1443h302v-1443zM159 1543l-269 317h221l156 -192h8l156 192h221l-269 -317h-224z" />
    <glyph glyph-name="icaron" unicode="&#x1d0;" horiz-adv-x="491" 
d="M100 0v1072h292v-1072h-292zM358 1213h-224l-264 318h224l148 -188h7l149 188h223z" />
    <glyph glyph-name="Ocaron" unicode="&#x1d1;" horiz-adv-x="1541" 
d="M771 1468q321 0 508.5 -201t187.5 -546q0 -344 -188 -545t-508 -201q-321 0 -508.5 201t-187.5 545q0 345 187.5 546t508.5 201zM771 1216q-177 0 -282.5 -134t-105.5 -361q0 -226 105 -359.5t283 -133.5q177 0 282 133.5t105 359.5q0 227 -105 361t-282 134zM659 1543
l-269 317h221l156 -192h8l156 192h221l-269 -317h-224z" />
    <glyph glyph-name="ocaron" unicode="&#x1d2;" horiz-adv-x="1173" 
d="M587 -23q-245 0 -388 149t-143 411q0 259 144.5 408.5t386.5 149.5q243 0 387 -149.5t144 -408.5q0 -263 -143 -411.5t-388 -148.5zM587 200q108 0 171 88t63 248q0 158 -63 247t-171 89t-171.5 -89t-63.5 -247q0 -160 63 -248t172 -88zM699 1213h-224l-264 318h224
l148 -188h7l149 188h223z" />
    <glyph glyph-name="Ucaron" unicode="&#x1d3;" horiz-adv-x="1449" 
d="M422 1443v-903q0 -141 79.5 -223.5t223.5 -82.5q143 0 222.5 82.5t79.5 223.5v903h302v-933q0 -240 -164.5 -387.5t-439.5 -147.5q-276 0 -440.5 147.5t-164.5 387.5v933h302zM613 1543l-269 317h221l156 -192h8l156 192h221l-269 -317h-224z" />
    <glyph glyph-name="ucaron" unicode="&#x1d4;" horiz-adv-x="1180" 
d="M1085 1072v-1072h-282v193h-6q-84 -213 -321 -213q-176 0 -281 107.5t-105 293.5v691h292v-630q0 -107 51.5 -163t148.5 -56t154 64t57 171v614h292zM701 1213h-224l-264 318h224l148 -188h7l149 188h223z" />
    <glyph glyph-name="Udieresismacron" unicode="&#x1d5;" horiz-adv-x="1449" 
d="M422 1443v-903q0 -141 79.5 -223.5t223.5 -82.5q143 0 222.5 82.5t79.5 223.5v903h302v-933q0 -240 -164.5 -387.5t-439.5 -147.5q-276 0 -440.5 147.5t-164.5 387.5v933h302zM525 1801q56 0 93.5 -37t37.5 -91q0 -53 -37.5 -90.5t-93.5 -37.5t-93.5 37.5t-37.5 90.5
q0 54 37.5 91t93.5 37zM379 2073h692v-148h-692v148zM925 1801q56 0 93.5 -37t37.5 -91q0 -53 -37.5 -90.5t-93.5 -37.5t-93.5 37.5t-37.5 90.5q0 54 37.5 91t93.5 37z" />
    <glyph glyph-name="udieresismacron" unicode="&#x1d6;" horiz-adv-x="1180" 
d="M1085 1072v-1072h-282v193h-6q-84 -213 -321 -213q-176 0 -281 107.5t-105 293.5v691h292v-630q0 -107 51.5 -163t148.5 -56t154 64t57 171v614h292zM389 1194q-54 0 -92 37t-38 89q0 53 37.5 90t92.5 37t93 -37t38 -90q0 -52 -38 -89t-93 -37zM789 1194q-55 0 -93 37
t-38 89q0 53 38 90t93 37t92.5 -37t37.5 -90q0 -52 -38 -89t-92 -37zM909 1729v-148h-639v148h639z" />
    <glyph glyph-name="Udieresisacute" unicode="&#x1d7;" horiz-adv-x="1449" 
d="M422 1443v-903q0 -141 79.5 -223.5t223.5 -82.5q143 0 222.5 82.5t79.5 223.5v903h302v-933q0 -240 -164.5 -387.5t-439.5 -147.5q-276 0 -440.5 147.5t-164.5 387.5v933h302zM606 1878l185 248h246l-215 -248h-216zM525 1545q-56 0 -93.5 37.5t-37.5 90.5q0 54 37.5 91
t93.5 37t93.5 -37t37.5 -91q0 -53 -37.5 -90.5t-93.5 -37.5zM925 1545q-56 0 -93.5 37.5t-37.5 90.5q0 54 37.5 91t93.5 37t93.5 -37t37.5 -91q0 -53 -37.5 -90.5t-93.5 -37.5z" />
    <glyph glyph-name="udieresisacute" unicode="&#x1d8;" horiz-adv-x="1180" 
d="M1085 1072v-1072h-282v193h-6q-84 -213 -321 -213q-176 0 -281 107.5t-105 293.5v691h292v-630q0 -107 51.5 -163t148.5 -56t154 64t57 171v614h292zM473 1562l206 288h243l-235 -288h-214zM385 1195q-57 0 -95.5 38t-38.5 92t38.5 92t95.5 38t95.5 -38t38.5 -92
t-38.5 -92t-95.5 -38zM793 1195q-57 0 -95.5 38t-38.5 92t38.5 92t95.5 38t95.5 -38t38.5 -92t-38.5 -92t-95.5 -38z" />
    <glyph glyph-name="Udieresiscaron" unicode="&#x1d9;" horiz-adv-x="1449" 
d="M422 1443v-903q0 -141 79.5 -223.5t223.5 -82.5q143 0 222.5 82.5t79.5 223.5v903h302v-933q0 -240 -164.5 -387.5t-439.5 -147.5q-276 0 -440.5 147.5t-164.5 387.5v933h302zM616 1871l-256 269h221l137 -149h14l137 149h221l-256 -269h-218zM525 1801q56 0 93.5 -37
t37.5 -91q0 -53 -37.5 -90.5t-93.5 -37.5t-93.5 37.5t-37.5 90.5q0 54 37.5 91t93.5 37zM925 1801q56 0 93.5 -37t37.5 -91q0 -53 -37.5 -90.5t-93.5 -37.5t-93.5 37.5t-37.5 90.5q0 54 37.5 91t93.5 37z" />
    <glyph glyph-name="udieresiscaron" unicode="&#x1da;" horiz-adv-x="1180" 
d="M1085 1072v-1072h-282v193h-6q-84 -213 -321 -213q-176 0 -281 107.5t-105 293.5v691h292v-630q0 -107 51.5 -163t148.5 -56t154 64t57 171v614h292zM389 1194q-54 0 -92 37t-38 89q0 53 37.5 90t92.5 37t93 -37t38 -90q0 -52 -38 -89t-93 -37zM789 1194q-55 0 -93 37
t-38 89q0 53 38 90t93 37t92.5 -37t37.5 -90q0 -52 -38 -89t-92 -37zM702 1531h-226l-263 308h224l148 -179h8l148 179h224z" />
    <glyph glyph-name="Udieresisgrave" unicode="&#x1db;" horiz-adv-x="1449" 
d="M422 1443v-903q0 -141 79.5 -223.5t223.5 -82.5q143 0 222.5 82.5t79.5 223.5v903h302v-933q0 -240 -164.5 -387.5t-439.5 -147.5q-276 0 -440.5 147.5t-164.5 387.5v933h302zM839 1878h-216l-215 248h246zM525 1545q-56 0 -93.5 37.5t-37.5 90.5q0 54 37.5 91t93.5 37
t93.5 -37t37.5 -91q0 -53 -37.5 -90.5t-93.5 -37.5zM925 1545q-56 0 -93.5 37.5t-37.5 90.5q0 54 37.5 91t93.5 37t93.5 -37t37.5 -91q0 -53 -37.5 -90.5t-93.5 -37.5z" />
    <glyph glyph-name="udieresisgrave" unicode="&#x1dc;" horiz-adv-x="1180" 
d="M1085 1072v-1072h-282v193h-6q-84 -213 -321 -213q-176 0 -281 107.5t-105 293.5v691h292v-630q0 -107 51.5 -163t148.5 -56t154 64t57 171v614h292zM702 1559h-202l-232 291h243zM385 1195q-57 0 -95.5 38t-38.5 92t38.5 92t95.5 38t95.5 -38t38.5 -92t-38.5 -92
t-95.5 -38zM793 1195q-57 0 -95.5 38t-38.5 92t38.5 92t95.5 38t95.5 -38t38.5 -92t-38.5 -92t-95.5 -38z" />
    <glyph glyph-name="uni04D9" unicode="&#x4d9;" horiz-adv-x="1156" 
d="M570 193q96 0 160.5 64.5t70.5 167.5h-454q2 -105 63.5 -168.5t159.5 -63.5zM342 757h-268q36 158 166 248t329 90q243 0 382.5 -148.5t139.5 -406.5t-141 -410.5t-381 -152.5q-231 0 -367.5 146t-136.5 393l2 88h737v17q0 115 -65 187t-173 72q-166 0 -224 -123z" />
    <glyph glyph-name="uni04D9" unicode="&#x259;" horiz-adv-x="1156" 
d="M570 193q96 0 160.5 64.5t70.5 167.5h-454q2 -105 63.5 -168.5t159.5 -63.5zM342 757h-268q36 158 166 248t329 90q243 0 382.5 -148.5t139.5 -406.5t-141 -410.5t-381 -152.5q-231 0 -367.5 146t-136.5 393l2 88h737v17q0 115 -65 187t-173 72q-166 0 -224 -123z" />
    <glyph glyph-name="uni04D9" unicode="&#x1dd;" horiz-adv-x="1156" 
d="M570 193q96 0 160.5 64.5t70.5 167.5h-454q2 -105 63.5 -168.5t159.5 -63.5zM342 757h-268q36 158 166 248t329 90q243 0 382.5 -148.5t139.5 -406.5t-141 -410.5t-381 -152.5q-231 0 -367.5 146t-136.5 393l2 88h737v17q0 115 -65 187t-173 72q-166 0 -224 -123z" />
    <glyph glyph-name="Adieresismacron" unicode="&#x1de;" horiz-adv-x="1413" 
d="M1065 0l-110 350h-507l-110 -350h-310l501 1443h355l502 -1443h-321zM698 1167l-185 -591h377l-185 591h-7zM507 1801q56 0 93.5 -37t37.5 -91q0 -53 -37.5 -90.5t-93.5 -37.5t-93.5 37.5t-37.5 90.5q0 54 37.5 91t93.5 37zM361 2073h692v-148h-692v148zM907 1801
q56 0 93.5 -37t37.5 -91q0 -53 -37.5 -90.5t-93.5 -37.5t-93.5 37.5t-37.5 90.5q0 54 37.5 91t93.5 37z" />
    <glyph glyph-name="adieresismacron" unicode="&#x1df;" horiz-adv-x="1121" 
d="M509 194q97 0 164.5 56.5t67.5 142.5v78l-226 -14q-82 -6 -126.5 -41t-44.5 -92q0 -60 45 -95t120 -35zM413 -17q-155 0 -257 91t-102 234q0 146 108 229t309 95l270 16v71q0 74 -48.5 116t-131.5 42q-80 0 -130.5 -36t-61.5 -97h-267q8 158 135 254.5t337 96.5
q206 0 330 -98t124 -260v-737h-282v164h-6q-44 -84 -134 -132.5t-193 -48.5zM366 1194q-54 0 -92 37t-38 89q0 53 37.5 90t92.5 37t93 -37t38 -90q0 -52 -38 -89t-93 -37zM766 1194q-55 0 -93 37t-38 89q0 53 38 90t93 37t92.5 -37t37.5 -90q0 -52 -38 -89t-92 -37z
M886 1729v-148h-639v148h639z" />
    <glyph glyph-name="Adotmacron" unicode="&#x1e0;" horiz-adv-x="1413" 
d="M1065 0l-110 350h-507l-110 -350h-310l501 1443h355l502 -1443h-321zM698 1167l-185 -591h377l-185 591h-7zM707 1555q-59 0 -98.5 39t-39.5 95q0 55 39.5 93.5t98.5 38.5t98.5 -38.5t39.5 -93.5q0 -56 -39.5 -95t-98.5 -39zM1053 2073v-148h-692v148h692z" />
    <glyph glyph-name="adotmacron" unicode="&#x1e1;" horiz-adv-x="1121" 
d="M509 194q97 0 164.5 56.5t67.5 142.5v78l-226 -14q-82 -6 -126.5 -41t-44.5 -92q0 -60 45 -95t120 -35zM413 -17q-155 0 -257 91t-102 234q0 146 108 229t309 95l270 16v71q0 74 -48.5 116t-131.5 42q-80 0 -130.5 -36t-61.5 -97h-267q8 158 135 254.5t337 96.5
q206 0 330 -98t124 -260v-737h-282v164h-6q-44 -84 -134 -132.5t-193 -48.5zM566 1197q-62 0 -106 43t-44 104t44 104.5t106 43.5t106 -43.5t44 -104.5t-44 -104t-106 -43zM886 1734v-148h-639v148h639z" />
    <glyph glyph-name="AEmacron" unicode="&#x1e2;" horiz-adv-x="2039" 
d="M830 1211l-255 -612h391v612h-136zM966 0v373h-479l-158 -373h-301l613 1443h1270v-249h-669v-353h632v-232h-632v-360h669v-249h-945zM1674 1768v-148h-692v148h692z" />
    <glyph glyph-name="aemacron" unicode="&#x1e3;" horiz-adv-x="1798" 
d="M1252 -23q-133 0 -237.5 54.5t-155.5 149.5h-9q-57 -94 -157 -146t-233 -52q-188 0 -298.5 89.5t-110.5 235.5q0 145 109 228t315 94l266 15v59q0 74 -54.5 123.5t-137.5 49.5q-79 0 -131.5 -37.5t-59.5 -96.5h-263q8 157 130.5 254.5t316.5 97.5q126 0 219.5 -43
t137.5 -118h8q114 161 353 161q218 0 350 -145t132 -392v-88h-730v-19q0 -114 67.5 -186t176.5 -72q77 0 133 36.5t77 98.5h268q-24 -158 -156 -254.5t-326 -96.5zM1244 879q-95 0 -158 -64.5t-71 -166.5h446q-4 105 -63 168t-154 63zM501 190q99 0 169.5 60t70.5 143v75
l-231 -15q-85 -6 -132.5 -40t-47.5 -90q0 -58 48.5 -95.5t122.5 -37.5zM1216 1403v-148h-639v148h639z" />
    <glyph glyph-name="Gcaron" unicode="&#x1e6;" horiz-adv-x="1489" 
d="M1410 606q0 -295 -169.5 -463t-470.5 -168q-324 0 -509.5 200t-185.5 551q0 346 184.5 544t503.5 198q252 0 427 -136t207 -355h-303q-33 113 -120.5 177t-209.5 64q-179 0 -280 -129t-101 -359q0 -234 105.5 -369t286.5 -135q148 0 241.5 83t98.5 217l1 23h-314v220h608
v-163zM639 1543l-269 317h221l156 -192h8l156 192h221l-269 -317h-224z" />
    </font>
</defs>
</svg>
